<?xml version="1.0" standalone="no"?>
<!DOCTYPE svg PUBLIC "-//W3C//DTD SVG 1.1//EN" "http://www.w3.org/Graphics/SVG/1.1/DTD/svg11.dtd" >
<svg xmlns="http://www.w3.org/2000/svg">
<metadata></metadata>
<defs>
<font id="avantgarde_lt_bookbold" horiz-adv-x="1146" >
<font-face units-per-em="2048" ascent="1638" descent="-410" />
<missing-glyph horiz-adv-x="573" />
<glyph horiz-adv-x="2048" />
<glyph horiz-adv-x="2048" />
<glyph unicode="&#xd;" horiz-adv-x="2048" />
<glyph unicode=" "  horiz-adv-x="573" />
<glyph unicode="&#x09;" horiz-adv-x="573" />
<glyph unicode="&#xa0;" horiz-adv-x="573" />
<glyph unicode="!" horiz-adv-x="573" d="M150 0v260h272v-260h-272zM150 385v1131h272v-1131h-272z" />
<glyph unicode="&#x22;" horiz-adv-x="737" d="M39 1516h272l-55 -607h-164zM426 1516h272l-53 -607h-168z" />
<glyph unicode="#" d="M59 403l9 195h194l33 238h-174l8 194h193l55 404h205l-56 -404h187l55 404h205l-55 -404h157l-8 -194h-176l-33 -238h156l-8 -195h-177l-55 -403h-205l56 403h-187l-55 -403h-205l55 403h-174zM467 598h186l33 238h-186z" />
<glyph unicode="$" d="M119 481v29h270q2 -49 22 -85.5t49 -55t57 -27t54 -8.5q68 0 125.5 45.5t57.5 130.5q0 28 -6.5 51.5t-15 40t-28.5 32t-33.5 24t-44 19.5t-46.5 16t-54 16q-96 25 -166 68.5t-109 98.5t-57 113.5t-18 124.5q0 138 74 240.5t207 138.5v262h258v-266q111 -36 181.5 -127 t82.5 -223h-256q-7 23 -13.5 38t-21.5 38.5t-41.5 36t-62.5 12.5q-51 0 -93 -39t-42 -103q0 -77 50.5 -110t196.5 -79l9 -3q22 -6 41.5 -12.5t54 -23t62.5 -36.5t59.5 -53.5t53 -73.5t36 -96.5t14.5 -122.5q0 -167 -90 -274.5t-221 -143.5v-270h-258v268q-66 18 -120 47.5 t-88 61t-60 69t-38.5 68.5t-20.5 63.5t-9.5 49.5t-1.5 30z" />
<glyph unicode="%" horiz-adv-x="1761" d="M74 1176q0 154 107 262t261 108t261.5 -108t107.5 -262t-107.5 -261.5t-261.5 -107.5q-151 0 -259.5 108t-108.5 261zM301 1176q0 -58 41 -100t100 -42q57 0 99.5 42t42.5 102t-41 100.5t-101 40.5t-100.5 -41t-40.5 -102zM459 0l626 1516h209l-628 -1516h-207zM944 340 q0 154 108.5 262.5t262.5 108.5q153 0 260.5 -108.5t107.5 -262.5t-109 -262.5t-259 -108.5q-153 0 -262 108t-109 263zM1171 340q0 -60 42 -101.5t102 -41.5q57 0 99 41.5t42 101.5q0 61 -41.5 102t-99.5 41q-61 0 -102.5 -41.5t-41.5 -101.5z" />
<glyph unicode="&#x26;" horiz-adv-x="1392" d="M70 451q0 75 22.5 141t50 107t74 82t71.5 57.5t66 40.5q-63 72 -95 135.5t-32 148.5q0 114 56 203.5t143 134.5t186 45q104 0 193 -47t144 -134t55 -194q0 -245 -240 -372l139 -156l148 252h303l-260 -459l268 -291l-199 -176l-209 228q-22 -30 -41 -53.5t-57 -58.5 t-76.5 -58.5t-94.5 -40.5t-116 -17q-88 0 -175.5 33.5t-160 93t-118 153t-45.5 202.5zM342 438q0 -93 63 -147.5t146 -54.5q34 0 65 12.5t51 27.5t42 43t30.5 42.5t24.5 41.5l-238 259q-26 -12 -42 -20.5t-46.5 -30t-48.5 -43.5t-32.5 -56.5t-14.5 -73.5zM485 1163 q0 -31 17 -63.5t35.5 -53.5t56.5 -59q35 17 56 30.5t46 34.5t37 47.5t12 59.5q0 50 -33 89.5t-100 39.5q-52 0 -89.5 -36t-37.5 -89z" />
<glyph unicode="'" horiz-adv-x="450" d="M90 1516h272l-53 -607h-166z" />
<glyph unicode="(" horiz-adv-x="778" d="M152 608q0 224 81 424.5t224 343.5q46 45 96.5 79.5t82.5 51t81 37.5v-295q-145 -117 -215 -286.5t-70 -352.5q0 -120 29 -230.5t75 -189.5t92 -133t89 -84v-295q-51 18 -83.5 32.5t-89.5 56t-112 102.5q-32 36 -63.5 77.5t-72.5 114t-71 149.5t-51.5 182.5t-21.5 215.5z " />
<glyph unicode=")" horiz-adv-x="778" d="M76 -27q144 117 214 286.5t70 352.5q0 98 -20 190t-50.5 160.5t-70 128t-74.5 96.5t-69 62v295q97 -38 146 -70q70 -46 138 -120q32 -37 62.5 -78t72.5 -114.5t72.5 -150t52 -182.5t21.5 -215q0 -224 -81 -424.5t-224 -343.5q-46 -45 -96.5 -79.5t-82.5 -51t-81 -37.5 v295z" />
<glyph unicode="*" horiz-adv-x="901" d="M137 1307l209 -11l-113 170l115 80l105 -188l104 188l115 -80l-115 -170l209 11l-2 -138l-207 11l115 -170l-125 -74l-94 188l-97 -188l-125 74l117 170l-209 -11z" />
<glyph unicode="+" horiz-adv-x="1228" d="M98 395v246h394v395h245v-395h393v-246h-393v-395h-245v395h-394z" />
<glyph unicode="," horiz-adv-x="573" d="M150 0v272h272v-288q0 -62 -18.5 -111.5t-46 -79t-64.5 -49t-70 -26.5t-65 -7h-6v137q21 5 31 7.5t30 11t30 19.5t18.5 31.5t8.5 47.5v35h-120z" />
<glyph unicode="-" horiz-adv-x="860" d="M145 471v242h570v-242h-570z" />
<glyph unicode="." horiz-adv-x="573" d="M150 0v272h272v-272h-272z" />
<glyph unicode="/" horiz-adv-x="942" d="M12 -205l641 1721h277l-643 -1721h-275z" />
<glyph unicode="0" d="M66 492v544q0 104 30.5 190t81 144.5t118 99t140 58.5t148.5 18q89 0 175.5 -32t160 -93t118.5 -161t45 -224v-559q0 -120 -42 -218t-112.5 -160.5t-161.5 -96t-192 -33.5q-117 0 -206 38t-179 128q-63 63 -93.5 147t-30.5 210zM338 508q0 -66 16.5 -117.5t41 -81.5 t57.5 -49.5t62.5 -26t59.5 -6.5q27 0 54.5 5.5t61.5 23t59.5 46.5t43 80.5t17.5 119.5v532q0 111 -68 182.5t-165 71.5q-103 0 -171.5 -70t-68.5 -194v-516z" />
<glyph unicode="1" d="M281 1257v259h462v-1516h-272v1257h-190z" />
<glyph unicode="2" d="M74 1022v22q0 91 34 179.5t95.5 160.5t157.5 117t210 45q112 0 208 -42.5t158.5 -113t98 -159.5t35.5 -182q0 -127 -64 -249t-229 -268l-307 -274h600v-258h-981v258l541 504q101 94 134.5 164t33.5 135q0 110 -67.5 168.5t-153.5 58.5q-72 0 -123.5 -36.5t-79.5 -86.5 q-29 -55 -29 -170h-270q-2 10 -2 27z" />
<glyph unicode="3" d="M57 457h273q8 -76 50 -130.5t93 -77t102 -22.5q92 0 167 69.5t75 176.5q0 48 -16.5 91t-50 80t-94 59t-140.5 22h-45v258h47q81 0 136 39t55 123q0 75 -39 109t-97 34q-35 0 -62 -15t-41.5 -39t-21.5 -44.5t-10 -40.5h-272q6 72 26.5 132t49 100t65.5 71t73 48t74 28 t65 14.5t50 3.5q116 0 211.5 -58t148 -151.5t52.5 -199.5q0 -178 -131 -269q68 -28 117 -75.5t71.5 -91.5t35.5 -98.5t14.5 -77.5t1.5 -48q0 -114 -44 -211t-117.5 -161t-167 -100t-192.5 -36q-94 0 -183 34t-160.5 95t-117 154.5t-51.5 204.5z" />
<glyph unicode="4" d="M31 227v224l696 1065h229v-1031h160v-258h-160v-227h-272v227h-653zM324 485h360v570h-4z" />
<glyph unicode="5" d="M51 451h273q12 -62 38.5 -108t61 -70t69 -35t70.5 -11q121 0 190.5 84t69.5 187q0 100 -71.5 183t-184.5 83q-126 0 -205 -109l-243 68l143 793h686v-259h-481l-49 -278q94 43 194 43q137 0 249.5 -75t173.5 -194.5t61 -254.5q0 -138 -66 -258.5t-188.5 -195.5 t-272.5 -75q-132 0 -249.5 65t-190.5 176.5t-78 240.5z" />
<glyph unicode="6" d="M47 512q0 93 35 188q39 99 88 170l422 643h319l-336 -512q27 7 74 7q81 0 161 -35.5t144 -98t104 -157t40 -203.5q0 -156 -74 -282.5t-193.5 -194.5t-257.5 -68q-102 0 -197 38.5t-168 107t-117 172t-44 225.5zM319 500q0 -114 73 -193.5t181 -79.5q78 0 137 41.5t87 100 t28 120.5q0 110 -74.5 188.5t-183.5 78.5q-75 0 -133.5 -41t-86.5 -98.5t-28 -116.5z" />
<glyph unicode="7" d="M127 1257v259h893v-259l-547 -1257h-303l565 1257h-608z" />
<glyph unicode="8" d="M68 461q0 255 225 381q-28 28 -43.5 46t-41 55.5t-38 84t-12.5 100.5q0 78 28.5 152t79.5 133.5t131.5 96t175.5 36.5q96 0 176.5 -36.5t132 -96t80.5 -133.5t29 -152q0 -44 -10.5 -85t-22.5 -67t-36 -57t-34 -42t-34 -35q225 -126 225 -381q0 -137 -71.5 -251 t-187.5 -177.5t-247 -63.5t-247 63.5t-187 177.5t-71 251zM340 461q0 -97 68 -165.5t165 -68.5t165.5 68.5t68.5 165.5t-68.5 165t-165.5 68t-165 -68t-68 -165zM414 1124q0 -66 46.5 -113.5t112.5 -47.5q67 0 114.5 47.5t47.5 113.5q0 68 -47.5 116t-114.5 48 q-66 0 -112.5 -48t-46.5 -116z" />
<glyph unicode="9" d="M49 999q0 156 73.5 282.5t193 194.5t257.5 68q102 0 197 -38.5t168.5 -107t117.5 -172t44 -225.5q0 -93 -35 -188q-39 -99 -88 -170l-422 -643h-319l335 512q-23 -6 -73 -6q-81 0 -161 35.5t-144 97.5t-104 156.5t-40 203.5zM322 1024q0 -116 70.5 -191t182.5 -75 q59 0 108 24t79.5 62t47.5 82.5t17 87.5q0 113 -73.5 192.5t-178.5 79.5q-116 0 -184.5 -81.5t-68.5 -180.5z" />
<glyph unicode=":" horiz-adv-x="573" d="M150 0v272h272v-272h-272zM150 864v273h272v-273h-272z" />
<glyph unicode=";" horiz-adv-x="573" d="M150 0v272h272v-288q0 -62 -18.5 -111.5t-46 -79t-64.5 -49t-70 -26.5t-65 -7h-6v137q21 5 31 7.5t30 11t30 19.5t18.5 31.5t8.5 47.5v35h-120zM150 864v273h272v-273h-272z" />
<glyph unicode="&#x3c;" horiz-adv-x="1228" d="M94 422v192l1041 439v-236l-721 -299l721 -299v-235z" />
<glyph unicode="=" horiz-adv-x="1228" d="M98 166v246h1032v-246h-1032zM98 625v245h1032v-245h-1032z" />
<glyph unicode="&#x3e;" horiz-adv-x="1228" d="M94 -16v235l721 299l-721 299v236l1041 -439v-192z" />
<glyph unicode="?" d="M78 1073q7 97 36 175t67.5 126t90 83.5t93 51.5t88.5 25.5t64.5 10.5t31.5 1q90 0 172 -32t145.5 -90t101.5 -147.5t38 -197.5q0 -57 -11.5 -102.5t-59.5 -117.5t-136 -152q-43 -37 -67 -63t-44 -76.5t-20 -114.5v-70h-273v59q0 256 183 410q84 70 119.5 117t35.5 110 q0 56 -19 96.5t-50 60.5t-61.5 29t-61.5 9q-38 0 -68 -8.5t-49.5 -25.5t-33 -35t-21.5 -44t-12 -44.5t-7 -43.5h-272zM395 0v272h273v-272h-273z" />
<glyph unicode="@" horiz-adv-x="1515" d="M102 719q0 153 60 290.5t161 235.5t239.5 155.5t289.5 57.5q134 0 258.5 -44.5t218.5 -123t150.5 -193.5t56.5 -247q0 -112 -35.5 -209.5t-90.5 -162.5t-121 -112t-127.5 -68.5t-110.5 -21.5q-50 0 -82.5 29.5t-36.5 87.5h-4q-86 -117 -223 -117q-126 0 -215 97.5 t-89 232.5q0 95 32 187.5t88 165.5t140.5 118t180.5 45q76 0 132 -34.5t81 -106.5h4l31 113h170l-138 -525q-16 -62 -16 -80q0 -40 37 -40q80 0 156.5 113.5t76.5 254.5q0 155 -71.5 269.5t-189.5 171.5t-265 57q-124 0 -232 -47.5t-184 -128t-120 -191.5t-44 -235 q0 -172 78 -308t215 -211t307 -75q129 0 247.5 49t197.5 137h155q-99 -157 -260 -243.5t-348 -86.5q-156 0 -296.5 57t-242 155.5t-161.5 237t-60 294.5zM580 631q0 -82 42.5 -132t118.5 -50t138 53.5t93.5 127.5t31.5 146q0 76 -43.5 125t-114.5 49q-75 0 -138 -51 t-95.5 -123.5t-32.5 -144.5z" />
<glyph unicode="A" horiz-adv-x="1515" d="M14 0l631 1516h219l635 -1516h-309l-162 391h-543l-161 -391h-310zM580 655h348l-172 465h-4z" />
<glyph unicode="B" horiz-adv-x="1187" d="M143 0v1516h299q68 0 103 -1t94.5 -7t98.5 -17.5t86 -34.5t85 -57q58 -52 93.5 -129t35.5 -154q0 -195 -170 -289q38 -15 66.5 -29.5t67.5 -45.5t64 -68.5t43.5 -98t18.5 -134.5q0 -226 -188 -361q-127 -90 -391 -90h-406zM424 262h141q19 0 33.5 0.5t46 4.5t55.5 10.5 t53.5 21.5t48.5 35.5t32.5 53t13.5 73.5q0 22 -5 44.5t-22.5 52.5t-45.5 52t-81 38t-123 16h-147v-402zM424 926h92q22 0 34.5 0.5t41.5 3.5t47.5 8.5t43.5 17.5t39.5 29t25 44t10.5 61q0 74 -51.5 118.5t-165.5 44.5h-117v-327z" />
<glyph unicode="C" horiz-adv-x="1597" d="M70 764q0 154 61.5 298t165.5 250t250 170t307 64q99 0 199 -26t197.5 -79.5t181.5 -145.5t137 -212h-320q-175 201 -405 201q-92 0 -181 -40t-158.5 -108t-112 -167t-42.5 -209q0 -105 41.5 -202.5t110 -169t161 -114.5t191.5 -43q57 0 111 14t90.5 32t75 47.5t58 49 t46.5 48.5h326q-59 -137 -169.5 -240.5t-248.5 -158t-283 -54.5q-161 0 -307.5 64.5t-252 172t-168 254t-62.5 304.5z" />
<glyph unicode="D" horiz-adv-x="1433" d="M129 0v1516h344q418 0 623 -177q111 -99 180.5 -255t69.5 -330q0 -206 -99 -386t-264 -270q-182 -98 -504 -98h-350zM410 262h59q127 0 206.5 14t162.5 60q108 59 167.5 174t59.5 244q0 108 -43.5 206.5t-118.5 165.5q-82 74 -186.5 100.5t-253.5 26.5h-53v-991z" />
<glyph unicode="E" horiz-adv-x="1064" d="M125 0v1516h815v-263h-534v-370h512v-262h-512v-359h534v-262h-815z" />
<glyph unicode="F" horiz-adv-x="983" d="M125 0v1516h772v-263h-491v-370h468v-262h-468v-621h-281z" />
<glyph unicode="G" horiz-adv-x="1720" d="M55 758q0 163 66 310.5t176.5 251.5t258 165t306.5 61q137 0 264 -43.5t219 -113t157.5 -152t94.5 -166.5h-335q-59 87 -163 150t-243 63q-123 0 -225 -48.5t-164.5 -126.5t-96.5 -169.5t-34 -183.5q0 -71 20.5 -143.5t64.5 -141t105 -122t150.5 -86t193.5 -32.5 q142 0 263 73.5t186 205.5h-635v262h989v-33q0 -158 -66 -302t-175.5 -246t-256.5 -162t-305 -60q-129 0 -251 38t-223.5 109.5t-178.5 167.5t-119.5 218.5t-42.5 255.5z" />
<glyph unicode="H" horiz-adv-x="1392" d="M145 0v1516h281v-617h543v617h280v-1516h-280v637h-543v-637h-281z" />
<glyph unicode="I" horiz-adv-x="573" d="M147 0v1516h281v-1516h-281z" />
<glyph unicode="J" horiz-adv-x="983" d="M4 356h283q27 -125 133 -125q43 0 72.5 18.5t42.5 50t17.5 57.5t4.5 55v1104h281v-1086q0 -83 -17 -152t-45 -115.5t-66 -82.5t-75.5 -56.5t-79 -33.5t-72.5 -17t-59 -4q-187 0 -309 131q-80 89 -111 256z" />
<glyph unicode="K" horiz-adv-x="1269" d="M182 0v1516h281v-656h4l473 656h330l-572 -746l572 -770h-330l-473 666h-4v-666h-281z" />
<glyph unicode="L" horiz-adv-x="901" d="M147 0v1516h281v-1254h463v-262h-744z" />
<glyph unicode="M" horiz-adv-x="1843" d="M129 0v1516h389l404 -1147h4l399 1147h389v-1516h-280v1137h-7l-387 -1137h-237l-389 1137h-4v-1137h-281z" />
<glyph unicode="N" horiz-adv-x="1515" d="M143 0v1516h320l627 -1102h4v1102h280v-1516h-313l-633 1102h-4v-1102h-281z" />
<glyph unicode="O" horiz-adv-x="1720" d="M68 754q0 221 108 403.5t289.5 285.5t394.5 103q159 0 305 -61t253 -165.5t171 -252t64 -313.5q0 -160 -63 -305.5t-169.5 -250.5t-253 -167t-307.5 -62q-215 0 -397 105t-288.5 286t-106.5 394zM348 756q0 -139 67 -259.5t185.5 -193t259.5 -72.5t259.5 72.5t185.5 193 t67 259.5q0 142 -68 263.5t-186 193t-258 71.5t-258 -71.5t-186 -193t-68 -263.5z" />
<glyph unicode="P" d="M147 0v1516h381q80 0 121.5 -2t105 -12.5t115.5 -37t103 -69.5q143 -131 143 -348q0 -218 -143 -349q-41 -35 -87 -59t-82 -36t-92 -17.5t-87.5 -6.5t-96.5 -1h-100v-578h-281zM428 840h90q38 0 66 1.5t69 7.5t70 20t56.5 35.5t42 58t14.5 84.5q0 57 -22 97.5t-52 61 t-77.5 32t-79.5 13.5t-77 2h-100v-413z" />
<glyph unicode="Q" horiz-adv-x="1720" d="M66 754q0 221 108 403.5t289.5 285.5t394.5 103q158 0 303.5 -61t253 -164.5t172 -249.5t64.5 -307q0 -39 -3.5 -77.5t-8 -68.5t-14.5 -63t-16.5 -54.5t-20.5 -50.5t-20.5 -42.5t-23 -39.5t-21 -32.5t-21 -30t-17.5 -24.5q36 -27 82 -38.5t75 -11.5h46v-262h-39 q-63 0 -119 11.5t-105 35t-73 37.5t-64 41q-195 -125 -430 -125q-215 0 -397 105t-288.5 286t-106.5 394zM346 774q0 -31 4 -47q88 18 166 18h41q111 0 224.5 -31.5t195 -74.5t148.5 -89.5t100 -76t35 -33.5h4l15 21q15 21 18.5 26t17 27.5t18 35t14 38.5t13 48.5t7 54 t3.5 65.5q0 111 -41.5 210t-111 168t-163.5 109.5t-196 40.5q-114 0 -211.5 -45t-160.5 -118t-99.5 -163t-40.5 -184zM434 465q74 -118 193 -176t219 -58h12q19 0 37.5 1.5t32.5 3t30.5 5.5t26 6.5t24.5 7.5t20.5 7t19.5 7.5t16 6.5q-152 114 -273 160.5t-237 46.5 q-65 0 -121 -18z" />
<glyph unicode="R" horiz-adv-x="1187" d="M131 0v1516h465q130 0 216.5 -24.5t152.5 -78.5q178 -146 178 -366q0 -89 -35.5 -191t-110.5 -172q-42 -41 -91.5 -68t-78 -35.5t-82.5 -21.5l412 -559h-340l-401 580h-4v-580h-281zM412 791h180q66 0 116.5 17t78.5 41.5t46 58t23.5 61t5.5 55.5t-6.5 56.5t-25.5 60.5 t-48 56t-78 40t-112 16h-180v-462z" />
<glyph unicode="S" horiz-adv-x="1064" d="M25 434h294q11 -106 68 -154.5t133 -48.5q85 0 147 53.5t62 137.5q0 43 -12.5 76t-27.5 54t-55 43t-67.5 33.5t-92.5 36.5q-7 3 -11.5 4.5t-11 4t-11.5 4.5q-107 41 -141 59q-219 116 -219 377q0 181 127.5 306.5t316.5 125.5q55 0 113 -14.5t116.5 -48.5t105.5 -82.5 t78 -123t36 -163.5h-287q-7 94 -54.5 132t-115.5 38q-67 0 -111.5 -43.5t-44.5 -110.5q0 -27 6.5 -49.5t15.5 -39.5t28.5 -32.5t36 -25.5t48 -22.5t53.5 -20t64 -20.5q40 -14 62.5 -22.5t70 -31t77.5 -44t69.5 -59.5t62.5 -80t39.5 -101.5t16.5 -128.5q0 -118 -43 -213 t-114 -152.5t-157 -88t-178 -30.5q-62 0 -125.5 16t-128 52t-115.5 88.5t-85 132.5t-39 176z" />
<glyph unicode="T" horiz-adv-x="860" d="M12 1253v263h844v-263h-283v-1253h-280v1253h-281z" />
<glyph unicode="U" horiz-adv-x="1310" d="M113 553v963h280v-963q0 -322 262 -322q263 0 263 322v963h280v-963q0 -236 -88 -358q-71 -100 -188.5 -163t-264.5 -63q-82 0 -157 21t-131 55.5t-95 69t-67 71.5q-94 127 -94 367z" />
<glyph unicode="V" horiz-adv-x="1433" d="M16 1516h295l406 -1154h4l407 1154h295l-587 -1516h-230z" />
<glyph unicode="W" horiz-adv-x="1843" d="M14 1516h287l262 -1059h4l260 1059h205l254 -1059h4l264 1059h287l-440 -1516h-223l-246 1001h-4l-250 -1001h-221z" />
<glyph unicode="X" horiz-adv-x="1392" d="M8 0l522 756l-522 760h334l354 -529l365 529h323l-524 -760l524 -756h-323l-365 524l-354 -524h-334z" />
<glyph unicode="Y" horiz-adv-x="1269" d="M-4 1516h307l330 -697l332 697h309l-500 -957v-559h-280v559z" />
<glyph unicode="Z" horiz-adv-x="1024" d="M39 0v229l579 1024h-548v263h876v-244l-575 -1010h614v-262h-946z" />
<glyph unicode="[" horiz-adv-x="655" d="M135 369v551q0 79 12.5 149.5t31 123.5t49 100t57.5 78.5t66.5 60.5t66 45t65 32t55 21t44.5 14v-299q-28 -13 -41.5 -21t-37 -27t-36 -44.5t-26 -64t-19.5 -95.5t-6 -131v-543q0 -56 6.5 -102.5t15.5 -78.5t25.5 -58.5t28 -41t32 -29t30 -19l28.5 -13.5v-299 q-80 18 -146 53.5t-112 79t-80.5 99.5t-54.5 111t-32.5 119t-17 117.5t-4.5 111.5z" />
<glyph unicode="\" horiz-adv-x="1310" d="M197 1516h276l641 -1721h-274z" />
<glyph unicode="]" horiz-adv-x="655" d="M74 -20q25 12 35.5 17.5t32.5 21.5t32.5 31.5t25.5 44.5t22 64t12.5 87t5.5 116v541q0 76 -12.5 136t-28 92.5t-42.5 58.5t-42 34.5t-41 20.5v299q446 -106 446 -690v-551q0 -79 -12.5 -149.5t-31 -123.5t-48.5 -100t-57.5 -79t-66.5 -61t-65.5 -45t-65 -31.5t-55 -21.5 t-44.5 -14v302z" />
<glyph unicode="^" horiz-adv-x="1228" d="M150 768l356 748h217l356 -748h-245l-220 508l-221 -508h-243z" />
<glyph unicode="_" horiz-adv-x="1024" d="M0 -154h1024v-102h-1024v102z" />
<glyph unicode="`" horiz-adv-x="860" d="M102 1534l117 209l455 -277l-109 -188z" />
<glyph unicode="a" horiz-adv-x="1351" d="M55 575q0 170 76.5 308.5t207 215.5t286.5 77q65 0 126.5 -18t103 -41.5t76 -52t50 -46t20.5 -25.5h5v144h249v-1137h-249v141q-66 -78 -178 -128t-220 -50q-110 0 -210 43t-176.5 120t-121.5 194t-45 255zM328 563q0 -146 96.5 -248t241.5 -102q142 0 236.5 100.5 t94.5 257.5q0 85 -28.5 154.5t-76 112t-105.5 65.5t-121 23q-80 0 -146 -32.5t-107 -85.5t-63 -116.5t-22 -128.5z" />
<glyph unicode="b" horiz-adv-x="1351" d="M96 0v1516h273v-482q70 70 162.5 106t191.5 36q125 0 233.5 -52t181.5 -137t114.5 -193t41.5 -221q0 -59 -13.5 -124t-40.5 -134.5t-73 -131.5t-106 -112t-146 -79t-186 -29q-77 0 -140.5 15.5t-109.5 44.5t-74 53.5t-59 60.5v-137h-250zM352 584q0 -73 20 -135 t54 -104.5t78.5 -73t92.5 -44.5t97 -14q138 0 233 98.5t95 259.5q0 159 -98.5 257t-233.5 98q-148 0 -243 -105t-95 -237z" />
<glyph unicode="c" horiz-adv-x="1310" d="M76 573q0 128 50 241.5t133.5 192t193 124t225.5 45.5q49 0 103.5 -9t126 -36.5t132.5 -71.5t118.5 -121.5t90.5 -177.5h-307q-16 26 -24.5 39.5t-34 41.5t-50 43.5t-66 28.5t-89.5 13q-85 0 -158.5 -39t-122.5 -122t-49 -196q0 -150 95.5 -253t246.5 -103q153 0 252 158 h307q-69 -193 -219 -300.5t-350 -107.5q-88 0 -174.5 27t-164 80t-137 125t-94 170t-34.5 208z" />
<glyph unicode="d" horiz-adv-x="1351" d="M70 567q0 111 34 210t91.5 170.5t132 124t157 78.5t164.5 26q117 0 198 -36t146 -104v480h273v-1516h-250v139h-4q-42 -71 -137 -123.5t-226 -52.5q-109 0 -212.5 43.5t-185 120t-131.5 192t-50 248.5zM342 578q0 -155 100 -260t236 -105q74 0 138.5 31.5t107 82 t66.5 114t24 128.5q0 142 -98 249.5t-238 107.5q-74 0 -138.5 -32t-107 -82.5t-66.5 -111.5t-24 -122z" />
<glyph unicode="e" horiz-adv-x="1310" d="M63 565q0 162 73.5 300.5t212.5 224.5t313 86q108 0 203 -34t164 -92t119.5 -133.5t75.5 -160.5t25 -172q0 -60 -16 -138h-883q4 -31 26.5 -69t60 -75.5t98 -63t129.5 -25.5q182 0 262 145h286q-52 -162 -204.5 -278.5t-343.5 -116.5q-170 0 -308 80.5t-215.5 218.5 t-77.5 303zM342 666h629q-24 129 -107.5 194.5t-199.5 65.5q-45 0 -89.5 -11.5t-92 -38.5t-85.5 -81t-55 -129z" />
<glyph unicode="f" horiz-adv-x="573" d="M31 895v242h96q3 41 7.5 70t17.5 76.5t40.5 90.5t67.5 80q47 44 110.5 68t127.5 24h75v-268q-47 0 -71 -3t-50.5 -16t-38.5 -42.5t-14 -79.5h160v-242h-160v-895h-272v895h-96z" />
<glyph unicode="g" horiz-adv-x="1351" d="M66 580q0 129 50 242t131 189.5t185.5 120.5t212.5 44q64 0 121.5 -14.5t92 -32t69 -46.5t46.5 -43t30 -38q3 -3 4 -5h4v140h264v-928q0 -113 -23 -209t-61.5 -163.5t-91.5 -121t-109 -86.5t-118 -54.5t-115 -29.5t-103 -8q-185 0 -343 97t-228 280h311 q106 -127 281 -127q61 0 118.5 21t107.5 62.5t83 111.5t39 159l-4 4q-18 -23 -32 -39t-49 -46t-71.5 -48.5t-95.5 -33.5t-125 -15q-104 0 -207 43.5t-186.5 121t-135.5 196t-52 256.5zM338 578q0 -110 51 -195.5t127.5 -127.5t161.5 -42q130 0 228 102t98 265 q0 61 -24 122.5t-66.5 111.5t-106.5 81t-137 31q-83 0 -158.5 -41.5t-124.5 -123t-49 -183.5z" />
<glyph unicode="h" horiz-adv-x="1228" d="M111 0v1516h272v-459q119 119 295 119q94 0 191.5 -48.5t158.5 -126.5q90 -120 90 -360v-641h-272v582q0 33 -1 58.5t-6.5 63t-14.5 66t-26.5 59.5t-41.5 51t-61 33t-83 13q-48 0 -85.5 -15t-61 -36t-40.5 -56.5t-25 -62.5t-12 -68t-4.5 -59.5t-0.5 -50.5v-578h-272z" />
<glyph unicode="i" horiz-adv-x="491" d="M109 0v1137h272v-1137h-272zM109 1266v250h272v-250h-272z" />
<glyph unicode="j" horiz-adv-x="532" d="M33 -113q37 4 55 9.5t33.5 23t20.5 49t5 86.5v1082h273v-1088q0 -190 -105.5 -309t-281.5 -119v266zM147 1266v250h273v-250h-273z" />
<glyph unicode="k" horiz-adv-x="1187" d="M164 0v1516h272v-914h4l363 535h313l-409 -557l462 -580h-344l-385 532h-4v-532h-272z" />
<glyph unicode="l" horiz-adv-x="491" d="M111 0v1516h272v-1516h-272z" />
<glyph unicode="m" horiz-adv-x="1925" d="M111 0v1137h249v-97h5q7 14 19.5 29t37.5 35t56.5 35t80 26t103.5 11q23 0 47 -2.5t62.5 -13.5t73 -29t74 -52.5t70.5 -81.5q127 179 367 179q65 0 122.5 -14t94.5 -31.5t72.5 -46t51 -45t34.5 -40.5q86 -108 86 -335v-664h-273v631q0 295 -215 295q-57 0 -108 -29 t-80 -78q-41 -66 -41 -231v-588h-273v631q0 61 -12 112.5t-38 93.5t-71 65.5t-106 23.5q-45 0 -80.5 -14.5t-58 -34.5t-38.5 -55t-23.5 -61.5t-11.5 -70t-4.5 -64.5t-0.5 -59v-567h-272z" />
<glyph unicode="n" horiz-adv-x="1228" d="M111 0v1137h251v-99q26 25 45.5 41.5t60 42.5t93 40t113.5 14q85 0 182 -39.5t160 -118.5q36 -44 59.5 -100t32 -118.5t10.5 -98.5t2 -87v-614h-272v561q0 365 -230 365q-45 0 -99 -24.5t-87 -76.5q-23 -33 -34.5 -87.5t-13 -92t-1.5 -104.5v-541h-272z" />
<glyph unicode="o" horiz-adv-x="1310" d="M51 567q0 126 49 239.5t131.5 194t193.5 128t232 47.5q119 0 229 -46t192.5 -125t132 -192.5t49.5 -241.5q0 -135 -50 -251t-133.5 -193t-192.5 -120.5t-227 -43.5q-124 0 -237 48.5t-193.5 130t-128 193t-47.5 232.5zM324 567q0 -155 99.5 -254.5t233.5 -99.5 q144 0 237 105.5t93 246.5q0 151 -99.5 256t-230.5 105q-43 0 -88 -14t-89 -44t-78.5 -71.5t-56 -101t-21.5 -128.5z" />
<glyph unicode="p" horiz-adv-x="1351" d="M96 -379v1516h250v-133h4q137 172 369 172q134 0 244.5 -54.5t180 -142t107 -193t37.5 -213.5q0 -166 -75 -306t-206 -222t-288 -82q-69 0 -124.5 12t-99 37t-66.5 44t-60 53v-488h-273zM352 569q0 -72 22 -133t57.5 -101.5t80 -68.5t88.5 -40.5t84 -12.5q44 0 90 14 t89.5 43.5t77.5 71t54.5 100.5t20.5 127q0 151 -99 254t-229 103q-134 0 -235 -99t-101 -258z" />
<glyph unicode="q" horiz-adv-x="1351" d="M63 580q0 160 78.5 297.5t211.5 218t286 80.5q66 0 123 -14.5t92.5 -33t69 -48t47 -46t30.5 -41.5h5v144h249v-1516h-272v488q-45 -50 -101.5 -83t-111 -45t-81.5 -15t-52 -3q-166 0 -299.5 89.5t-204 229.5t-70.5 298zM336 573q0 -165 99 -262.5t235 -97.5 q92 0 168 50.5t117.5 131.5t41.5 172q0 141 -92.5 250t-236.5 109q-143 0 -237.5 -105t-94.5 -248z" />
<glyph unicode="r" horiz-adv-x="655" d="M129 0v1137h250v-101h4q24 35 40.5 54.5t45.5 42t68 33t90 10.5h22v-265q-51 -2 -91.5 -15t-66 -30.5t-44 -45t-27 -48.5t-13.5 -51.5t-5.5 -45t-0.5 -36.5v-639h-272z" />
<glyph unicode="s" horiz-adv-x="901" d="M39 358h278q5 -21 9 -35.5t16 -37t27 -36.5t40.5 -25t57.5 -11q60 0 91.5 36.5t31.5 78.5q0 59 -47 87.5t-209 82.5q-110 37 -182 117t-72 208q0 106 58 188.5t144 123.5t179 41q65 0 128.5 -23.5t116.5 -66t87 -110.5t38 -149h-266q-18 99 -108 99q-48 0 -76.5 -30.5 t-28.5 -68.5q0 -44 30 -63.5t133 -53.5q20 -7 30 -10q52 -16 88.5 -30t83 -42t75.5 -61.5t49.5 -87t20.5 -119.5q0 -93 -34.5 -169.5t-91 -125.5t-127 -75.5t-144.5 -26.5q-95 0 -187 36.5t-153 113.5q-33 41 -52.5 89t-24.5 78t-9 78z" />
<glyph unicode="t" horiz-adv-x="614" d="M43 895v242h133v379h273v-379h163v-242h-163v-895h-273v895h-133z" />
<glyph unicode="u" horiz-adv-x="1228" d="M102 543v594h273v-580v-36.5t2.5 -43.5t6 -50.5t12 -50.5t20 -50.5t29.5 -43.5t41 -37t55.5 -23t70.5 -9q62 0 108 27.5t72 76.5t38 108t12 130v582h272v-1137h-250v115h-4q-21 -29 -41 -50t-55.5 -47t-85.5 -40.5t-111 -14.5q-140 0 -235 53.5t-146 126.5 q-29 43 -48 97.5t-26 116.5t-8.5 97.5t-1.5 88.5z" />
<glyph unicode="v" d="M6 1137h295l274 -754h7l258 754h299l-461 -1137h-213z" />
<glyph unicode="w" horiz-adv-x="1638" d="M23 1137h290l207 -695h4l187 695h217l184 -695h4l209 695h291l-416 -1137h-168l-213 737h-4l-215 -737h-168z" />
<glyph unicode="x" d="M6 0l404 586l-353 551h305l209 -342l207 342h305l-352 -551l408 -586h-324l-244 389l-241 -389h-324z" />
<glyph unicode="y" horiz-adv-x="1187" d="M16 1137h312l258 -729l274 729h309l-653 -1516h-293l209 485z" />
<glyph unicode="z" horiz-adv-x="942" d="M41 0v250l504 637h-447v250h772v-250l-503 -637h538v-250h-864z" />
<glyph unicode="{" horiz-adv-x="696" d="M-6 477v203q25 0 52.5 4t64 15.5t59.5 39t23 66.5v442q0 69 30 126.5t74.5 89.5t88.5 49.5t79 17.5h184v-184h-92q-84 0 -84 -134v-434q0 -181 -256 -196v-7q40 -2 67.5 -6t66.5 -17t63 -34.5t41.5 -62t17.5 -95.5v-434q0 -133 84 -133h92v-184h-184q-35 0 -79 17 t-88.5 49.5t-74.5 89.5t-30 126v443q0 45 -23 76t-59 44t-64 18t-53 5z" />
<glyph unicode="|" horiz-adv-x="1228" d="M477 -512v2048h273v-2048h-273z" />
<glyph unicode="}" horiz-adv-x="696" d="M47 -207h92q84 0 84 133v434q0 55 17.5 95.5t41.5 62t63 34.5t66.5 17t67.5 6v7q-256 15 -256 196v434q0 134 -84 134h-92v184h184q27 0 61.5 -10t72 -33t68.5 -55t51 -80.5t20 -104.5v-442q0 -39 23 -66.5t59 -39t63.5 -15.5t52.5 -4v-203q-25 0 -52.5 -5t-63.5 -18 t-59 -44t-23 -76v-443q0 -69 -30 -126t-74.5 -89.5t-89 -49.5t-79.5 -17h-184v184z" />
<glyph unicode="~" horiz-adv-x="1228" d="M137 524q21 38 43 66.5t53.5 57t73 44t90.5 15.5q77 0 228 -66q14 -6 44.5 -20t47.5 -21t40.5 -16t42 -13t34.5 -4q29 0 54.5 11t50 35.5t39 43t40.5 54.5l74 -201q-3 -4 -10 -13q-26 -34 -40 -51t-40.5 -43t-48.5 -39t-54.5 -23.5t-67.5 -10.5q-91 0 -208 67 q-122 72 -236 72q-32 0 -59 -11.5t-49 -34.5t-36 -43t-32 -52z" />
<glyph unicode="&#xa1;" horiz-adv-x="573" d="M152 -379v1129h272v-1129h-272zM152 877v260h272v-260h-272z" />
<glyph unicode="&#xa2;" d="M88 784q0 166 105.5 302.5t263.5 168.5v209h258v-209q55 -18 80.5 -28t65.5 -35.5t75 -63.5q100 -100 123 -221h-287q-29 43 -81.5 68.5t-108.5 25.5q-92 0 -157 -64t-65 -161q0 -96 64.5 -159.5t161.5 -63.5q41 0 76 13.5t52 27.5t46 41h299q-30 -74 -68.5 -131t-71 -89 t-76.5 -57.5t-67 -34t-61 -20.5v-223h-258v223q-86 18 -158 69t-117 119.5t-69.5 144.5t-24.5 148z" />
<glyph unicode="&#xa3;" d="M-4 637v258h115q-33 78 -33 164q0 91 37 179t100.5 156t156.5 110t197 42q91 0 171.5 -32t135.5 -81t96 -108t60 -114.5t19 -98.5h-277q-18 85 -76.5 130.5t-126.5 45.5q-105 0 -163 -75.5t-58 -168.5q0 -85 58 -149h426v-258h-224q38 -73 51 -119t13 -125 q0 -81 -23 -135h23q55 0 97 21t64.5 54t33 65.5t10.5 62.5t-21 102h272q21 -46 21 -104q0 -54 -14.5 -112.5t-51 -121.5t-90 -112t-141 -81t-195.5 -32h-581v258h284q39 68 39 148q0 52 -20.5 100t-40.5 72t-55 59h-289z" />
<glyph unicode="&#xa4;" d="M55 283l142 143q-64 103 -64 236q0 131 64 235l-142 141l142 144l141 -144q103 64 235 64q139 0 236 -64l143 144l142 -144l-144 -141q64 -97 64 -235q0 -140 -64 -234l144 -145l-142 -142l-143 146q-100 -66 -236 -66q-132 0 -235 64l-141 -144zM385 662 q0 -80 54.5 -135.5t133.5 -55.5t134 55.5t55 135.5t-55 135t-134 55t-133.5 -55t-54.5 -135z" />
<glyph unicode="&#xa5;" d="M-20 1516h280l315 -590l318 590h274l-282 -515h180v-215h-291l-63 -116v-68h336v-215h-336v-387h-273v387h-340v215h340v68l-65 116h-291v215h180z" />
<glyph unicode="&#xa6;" horiz-adv-x="1228" d="M477 358h273v-716h-273v716zM477 666v716h273v-716h-273z" />
<glyph unicode="&#xa7;" d="M57 711q0 52 15.5 98.5t33 75t49.5 59.5t45 40t40 28q-60 91 -60 192q0 70 23.5 127.5t63.5 96.5t93 66t111 39.5t119 12.5q79 0 144.5 -18.5t107.5 -45t75 -67.5t49.5 -73t29 -76t15 -61.5t5.5 -43.5h-256q-5 18 -8.5 30t-16 34.5t-29 35.5t-46.5 24t-68 11 q-83 0 -119.5 -35.5t-36.5 -78.5q0 -74 129 -129l336 -172q56 -29 95.5 -69.5t57 -82t24.5 -73.5t7 -60q0 -69 -40.5 -147t-126.5 -142q102 -102 102 -246q0 -172 -126 -278.5t-314 -106.5q-127 0 -229 51.5t-164.5 151t-67.5 232.5h256v-15q3 -60 37.5 -100t77.5 -55 t92 -15q77 0 129.5 37t52.5 96q0 27 -10 48t-34 40t-43.5 30t-60.5 32l-340 180q-109 56 -164 139t-55 183zM313 727q0 -70 117 -127l318 -162q81 64 81 133q0 24 -9 43t-30 35.5t-35 25.5t-44 25l-316 160q-26 -14 -54 -54.5t-28 -78.5z" />
<glyph unicode="&#xa8;" horiz-adv-x="1024" d="M160 1303v272h274v-272h-274zM592 1303v272h272v-272h-272z" />
<glyph unicode="&#xa9;" horiz-adv-x="1515" d="M-25 758q0 157 61.5 301.5t165.5 250t250 168t308 62.5q160 0 304.5 -62.5t248.5 -168t165.5 -250t61.5 -301.5q0 -160 -62.5 -305t-167.5 -249.5t-249 -166.5t-301 -62q-215 0 -396 106.5t-285 286.5t-104 390zM160 758q0 -165 78.5 -304t216.5 -220.5t303 -81.5 q163 0 301 81t217.5 220.5t79.5 304.5q0 163 -78 302t-216 221.5t-304 82.5t-304 -82.5t-216 -221.5t-78 -302zM330 760q0 203 120.5 335t319.5 132q159 0 270 -92.5t123 -219.5h-184q-30 90 -81 124t-128 34q-117 0 -186.5 -86t-69.5 -227q0 -152 69 -233t187 -81 q52 0 89 12t69 48t51 98h184q-12 -127 -122.5 -219t-270.5 -92q-199 0 -319.5 132t-120.5 335z" />
<glyph unicode="&#xaa;" horiz-adv-x="737" d="M39 1225q0 138 89.5 229.5t215.5 91.5q54 0 95 -20.5t61 -52.5h4v53h180v-608h-180v51h-4q-47 -72 -156 -72q-124 0 -214.5 90.5t-90.5 237.5zM223 1219q0 -61 40.5 -104.5t101.5 -43.5q60 0 101.5 43.5t41.5 108.5q0 70 -42.5 109.5t-100.5 39.5q-65 0 -103.5 -47 t-38.5 -106z" />
<glyph unicode="&#xab;" horiz-adv-x="942" d="M125 489v207l287 265v-252l-140 -117l140 -119v-252zM532 489v207l287 265v-252l-139 -117l139 -119v-252z" />
<glyph unicode="&#xac;" horiz-adv-x="1228" d="M98 625v245h1032v-649h-245v404h-787z" />
<glyph unicode="&#xad;" horiz-adv-x="860" d="M145 471v242h570v-242h-570z" />
<glyph unicode="&#xae;" horiz-adv-x="1515" d="M-25 758q0 157 61.5 301.5t165.5 250t250 168t308 62.5q160 0 304.5 -62.5t248.5 -168t165.5 -250t61.5 -301.5q0 -160 -62.5 -305t-167.5 -249.5t-249 -166.5t-301 -62q-215 0 -396 106.5t-285 286.5t-104 390zM160 758q0 -165 78.5 -304t216.5 -220.5t303 -81.5 q163 0 301 81t217.5 220.5t79.5 304.5q0 163 -78 302t-216 221.5t-304 82.5t-304 -82.5t-216 -221.5t-78 -302zM424 303v895h377q20 0 35.5 -0.5t50.5 -5.5t61.5 -13.5t60 -26.5t55.5 -43t37 -65t15 -90q0 -175 -166 -217v-4q86 -23 115.5 -74.5t34.5 -148.5q5 -115 9 -147 t19 -60h-182q-12 20 -16.5 50.5t-9.5 115.5q-5 106 -37 146t-123 47h-158v-359h-178zM602 805h160q22 0 35 1t37 4.5t38.5 12.5t30.5 24t23.5 41t7.5 60q-7 63 -46 84t-106 21h-180v-248z" />
<glyph unicode="&#xaf;" horiz-adv-x="860" d="M147 1327v227h568v-227h-568z" />
<glyph unicode="&#xb0;" horiz-adv-x="819" d="M117 1165q0 123 85 208t208 85t207.5 -85t84.5 -208t-84.5 -208t-207.5 -85t-208 85t-85 208zM264 1165q0 -60 43 -105.5t103 -45.5q59 0 102 45t43 106q0 60 -43 106t-102 46t-102.5 -46.5t-43.5 -105.5z" />
<glyph unicode="&#xb1;" horiz-adv-x="1228" d="M98 119h1032v-246h-1032v246zM98 573v246h394v320h245v-320h393v-246h-393v-307h-245v307h-394z" />
<glyph unicode="&#xb2;" horiz-adv-x="688" d="M27 1212v19q0 54 21.5 107t60 97t100 71.5t133.5 27.5q141 0 229 -91t88 -210q0 -77 -40 -150t-138 -157l-164 -144h342v-176h-622v166l325 301q58 51 79.5 88.5t21.5 75.5q0 58 -36 89.5t-85 31.5q-119 -7 -119 -152v-12h-194q-2 8 -2 18z" />
<glyph unicode="&#xb3;" horiz-adv-x="688" d="M16 891h197q3 -45 27 -75t51.5 -41t54.5 -11q52 0 90.5 35t38.5 94q0 58 -37 97.5t-123 39.5h-43v176h45q39 0 65 20t26 60q0 72 -70 72q-57 0 -57 -74h-197q8 147 121 213q62 37 137 37q110 0 186 -75t76 -175q0 -103 -69 -156q42 -19 72 -51.5t42.5 -68.5t17.5 -62.5 t5 -50.5q0 -136 -98.5 -221.5t-233.5 -85.5q-59 0 -114.5 19t-101.5 55t-75 95.5t-33 133.5z" />
<glyph unicode="&#xb4;" horiz-adv-x="860" d="M182 1466l455 277l117 -209l-463 -256z" />
<glyph unicode="&#xb6;" horiz-adv-x="1228" d="M-14 1114q0 402 520 402h737v-211h-162v-1516h-231v1516h-199v-1516h-231v938h-29q-55 0 -108.5 12t-108 41t-95.5 72t-67 110.5t-26 151.5z" />
<glyph unicode="&#xb7;" horiz-adv-x="573" d="M150 383v272h272v-272h-272z" />
<glyph unicode="&#xb8;" horiz-adv-x="696" d="M201 -336h108q6 -35 33 -55.5t64 -20.5q41 0 67.5 28t26.5 71q0 42 -28 72t-69 30q-61 0 -88 -45l-100 39l100 229l103 -14l-49 -111q28 4 51 4q78 0 134 -54.5t56 -149.5t-58 -148t-146 -53q-50 0 -91 19t-65 48t-36.5 58t-12.5 53z" />
<glyph unicode="&#xb9;" horiz-adv-x="688" d="M147 1339v177h310v-910h-197v733h-113z" />
<glyph unicode="&#xba;" horiz-adv-x="737" d="M47 1221q0 138 95.5 231.5t228.5 93.5q131 0 226 -93t95 -230q0 -144 -95 -235t-226 -91q-134 0 -229 96t-95 228zM231 1221q0 -64 42 -107t98 -43q60 0 98.5 44.5t38.5 103.5q0 66 -40.5 109.5t-96.5 43.5q-51 0 -95.5 -39.5t-44.5 -111.5z" />
<glyph unicode="&#xbb;" horiz-adv-x="942" d="M125 221v252l139 119l-139 117v252l287 -265v-207zM532 221v252l140 119l-140 117v252l287 -265v-207z" />
<glyph unicode="&#xbc;" horiz-adv-x="1720" d="M188 1339v177h310v-910h-197v733h-113zM383 0l627 1516h202l-628 -1516h-201zM838 133v143l434 633h155v-608h101v-168h-101v-133h-184v133h-405zM1040 301h203v326h-4z" />
<glyph unicode="&#xbd;" horiz-adv-x="1720" d="M127 1339v177h309v-910h-196v733h-113zM322 0l626 1516h203l-629 -1516h-200zM946 606v19q0 73 36 141t110 115t170 47q141 0 229 -91t88 -210q0 -77 -40 -150.5t-138 -157.5l-164 -143h342v-176h-623v166l326 301q58 51 79 88t21 76q0 58 -36 89.5t-84 31.5 q-119 -7 -119 -152v-12h-195q-2 8 -2 18z" />
<glyph unicode="&#xbe;" horiz-adv-x="1720" d="M37 891h196q2 -34 16.5 -60t35.5 -40t42 -20.5t40 -6.5q52 0 90.5 35t38.5 94q0 58 -37 97.5t-123 39.5h-43v176h45q39 0 64.5 20t25.5 60q0 72 -70 72q-57 0 -57 -74h-197q8 147 121 213q62 37 137 37q110 0 186.5 -75t76.5 -175q0 -103 -70 -156q42 -19 72 -51.5 t42.5 -68.5t17.5 -62.5t5 -50.5q0 -136 -98.5 -221.5t-233.5 -85.5q-80 0 -150 32t-119 102.5t-54 168.5zM500 0l626 1516h203l-629 -1516h-200zM954 133v143l435 633h155v-608h101v-168h-101v-133h-184v133h-406zM1157 301h203v326h-4z" />
<glyph unicode="&#xbf;" d="M139 57q0 88 40.5 173t166.5 200q33 28 51 46.5t39.5 49t31 69.5t9.5 89v70h273v-60q0 -255 -183 -409q-83 -69 -119 -117t-36 -111q0 -56 19 -96.5t50 -60.5t61.5 -28.5t61.5 -8.5q45 0 79.5 13.5t53.5 32.5t32 49t17.5 52t8.5 53h272q-8 -97 -38 -175t-68 -126 t-89 -83.5t-91.5 -51.5t-87 -25.5t-64.5 -10.5t-33 -1q-90 0 -172 32t-145.5 90t-101.5 147.5t-38 197.5zM477 864v273h273v-273h-273z" />
<glyph unicode="&#xc0;" horiz-adv-x="1515" d="M14 0l631 1516h219l635 -1516h-309l-162 391h-543l-161 -391h-310zM430 1882l117 209l454 -276l-108 -189zM580 655h348l-172 465h-4z" />
<glyph unicode="&#xc1;" horiz-adv-x="1515" d="M14 0l631 1516h219l635 -1516h-309l-162 391h-543l-161 -391h-310zM510 1815l455 276l116 -209l-463 -256zM580 655h348l-172 465h-4z" />
<glyph unicode="&#xc2;" horiz-adv-x="1515" d="M14 0l631 1516h219l635 -1516h-309l-162 391h-543l-161 -391h-310zM350 1651l303 282h215l299 -282h-297l-108 131l-115 -131h-297zM580 655h348l-172 465h-4z" />
<glyph unicode="&#xc3;" horiz-adv-x="1515" d="M14 0l631 1516h219l635 -1516h-309l-162 391h-543l-161 -391h-310zM356 1831q117 88 238 88q17 0 32 -1t35.5 -5.5t28.5 -6.5t36.5 -10t35.5 -10q85 -26 133 -26q85 0 156 47l110 -160q-39 -31 -66.5 -48t-72.5 -32.5t-94 -15.5q-37 0 -71.5 7t-121.5 32q-54 16 -104 16 q-91 0 -164 -41zM580 655h348l-172 465h-4z" />
<glyph unicode="&#xc4;" horiz-adv-x="1515" d="M14 0l631 1516h219l635 -1516h-309l-162 391h-543l-161 -391h-310zM406 1651v272h274v-272h-274zM580 655h348l-172 465h-4zM838 1651v272h272v-272h-272z" />
<glyph unicode="&#xc5;" horiz-adv-x="1515" d="M14 0l631 1516h219l635 -1516h-309l-162 391h-543l-161 -391h-310zM539 1763q0 92 64 157t155 65q92 0 156.5 -65t64.5 -157q0 -91 -65 -155t-156 -64t-155 64t-64 155zM580 655h348l-172 465h-4zM676 1763q0 -35 23.5 -58.5t58.5 -23.5t59.5 23.5t24.5 58.5t-24.5 59.5 t-59.5 24.5t-58.5 -24.5t-23.5 -59.5z" />
<glyph unicode="&#xc6;" horiz-adv-x="1843" d="M-10 0l1001 1516h697v-263h-451v-370h428v-262h-428v-359h451v-262h-732v391h-401l-236 -391h-329zM721 653h235v400h-4z" />
<glyph unicode="&#xc7;" horiz-adv-x="1597" d="M70 764q0 154 61.5 298t165.5 250t250 170t307 64q99 0 199 -26t197.5 -79.5t181.5 -145.5t137 -212h-320q-175 201 -405 201q-92 0 -181 -40t-158.5 -108t-112 -167t-42.5 -209q0 -105 41.5 -202.5t110 -169t161 -114.5t191.5 -43q57 0 111 14t90.5 32t75 47.5t58 49 t46.5 48.5h326q-59 -137 -169.5 -240.5t-248.5 -158t-283 -54.5q-18 0 -24 2l-37 -84q28 4 51 4q78 0 134 -54.5t56 -149.5t-58 -148t-146 -53q-50 0 -91 19t-65 48t-36.5 58t-12.5 53h108q6 -35 33 -55.5t64 -20.5q41 0 67.5 28t26.5 71q0 42 -27.5 72t-68.5 30 q-62 0 -89 -45l-100 39l86 199q-186 33 -337.5 144.5t-237.5 279.5t-86 358z" />
<glyph unicode="&#xc8;" horiz-adv-x="1064" d="M125 0v1516h815v-263h-534v-370h512v-262h-512v-359h534v-262h-815zM205 1882l117 209l454 -276l-108 -189z" />
<glyph unicode="&#xc9;" horiz-adv-x="1064" d="M125 0v1516h815v-263h-534v-370h512v-262h-512v-359h534v-262h-815zM285 1815l454 276l117 -209l-463 -256z" />
<glyph unicode="&#xca;" horiz-adv-x="1064" d="M125 0v1516h815v-263h-534v-370h512v-262h-512v-359h534v-262h-815zM125 1651l303 282h215l299 -282h-297l-108 131l-115 -131h-297z" />
<glyph unicode="&#xcb;" horiz-adv-x="1064" d="M125 0v1516h815v-263h-534v-370h512v-262h-512v-359h534v-262h-815zM180 1651v272h275v-272h-275zM612 1651v272h273v-272h-273z" />
<glyph unicode="&#xcc;" horiz-adv-x="573" d="M-92 1882l117 209l454 -276l-108 -189zM147 0v1516h281v-1516h-281z" />
<glyph unicode="&#xcd;" horiz-adv-x="573" d="M90 1815l455 276l117 -209l-463 -256zM147 0v1516h281v-1516h-281z" />
<glyph unicode="&#xce;" horiz-adv-x="573" d="M-121 1651l303 282h215l299 -282h-297l-108 131l-115 -131h-297zM147 0v1516h281v-1516h-281z" />
<glyph unicode="&#xcf;" horiz-adv-x="573" d="M-66 1651v272h275v-272h-275zM147 0v1516h281v-1516h-281zM367 1651v272h272v-272h-272z" />
<glyph unicode="&#xd0;" horiz-adv-x="1519" d="M51 637v262h148v617h344q417 0 622 -177q111 -99 180.5 -255t69.5 -330q0 -206 -98.5 -386t-263.5 -270q-182 -98 -504 -98h-350v637h-148zM479 262h60q127 0 206 14t162 60q109 59 168.5 174.5t59.5 243.5q0 108 -43.5 206.5t-118.5 165.5q-82 74 -187 100.5t-254 26.5 h-53v-354h281v-262h-281v-375z" />
<glyph unicode="&#xd1;" horiz-adv-x="1515" d="M143 0v1516h320l627 -1102h4v1102h280v-1516h-313l-633 1102h-4v-1102h-281zM356 1831q117 88 238 88q17 0 32 -1t35.5 -5.5t28.5 -6.5t36.5 -10t35.5 -10q85 -26 133 -26q85 0 156 47l110 -160q-39 -31 -66.5 -48t-72.5 -32.5t-94 -15.5q-37 0 -71.5 7t-121.5 32 q-54 16 -104 16q-91 0 -164 -41z" />
<glyph unicode="&#xd2;" horiz-adv-x="1720" d="M68 754q0 221 108 403.5t289.5 285.5t394.5 103q159 0 305 -61t253 -165.5t171 -252t64 -313.5q0 -160 -63 -305.5t-169.5 -250.5t-253 -167t-307.5 -62q-215 0 -397 105t-288.5 286t-106.5 394zM348 756q0 -139 67 -259.5t185.5 -193t259.5 -72.5t259.5 72.5t185.5 193 t67 259.5q0 142 -68 263.5t-186 193t-258 71.5t-258 -71.5t-186 -193t-68 -263.5zM532 1882l117 209l455 -276l-109 -189z" />
<glyph unicode="&#xd3;" horiz-adv-x="1720" d="M68 754q0 221 108 403.5t289.5 285.5t394.5 103q159 0 305 -61t253 -165.5t171 -252t64 -313.5q0 -160 -63 -305.5t-169.5 -250.5t-253 -167t-307.5 -62q-215 0 -397 105t-288.5 286t-106.5 394zM348 756q0 -139 67 -259.5t185.5 -193t259.5 -72.5t259.5 72.5t185.5 193 t67 259.5q0 142 -68 263.5t-186 193t-258 71.5t-258 -71.5t-186 -193t-68 -263.5zM612 1815l455 276l117 -209l-463 -256z" />
<glyph unicode="&#xd4;" horiz-adv-x="1720" d="M68 754q0 221 108 403.5t289.5 285.5t394.5 103q159 0 305 -61t253 -165.5t171 -252t64 -313.5q0 -160 -63 -305.5t-169.5 -250.5t-253 -167t-307.5 -62q-215 0 -397 105t-288.5 286t-106.5 394zM348 756q0 -139 67 -259.5t185.5 -193t259.5 -72.5t259.5 72.5t185.5 193 t67 259.5q0 142 -68 263.5t-186 193t-258 71.5t-258 -71.5t-186 -193t-68 -263.5zM453 1651l303 282h215l299 -282h-297l-109 131l-114 -131h-297z" />
<glyph unicode="&#xd5;" horiz-adv-x="1720" d="M68 754q0 221 108 403.5t289.5 285.5t394.5 103q159 0 305 -61t253 -165.5t171 -252t64 -313.5q0 -160 -63 -305.5t-169.5 -250.5t-253 -167t-307.5 -62q-215 0 -397 105t-288.5 286t-106.5 394zM348 756q0 -139 67 -259.5t185.5 -193t259.5 -72.5t259.5 72.5t185.5 193 t67 259.5q0 142 -68 263.5t-186 193t-258 71.5t-258 -71.5t-186 -193t-68 -263.5zM459 1831q117 88 237 88q17 0 32 -1t35.5 -5.5t28.5 -6.5t36.5 -10t35.5 -10q85 -26 133 -26q85 0 156 47l111 -160q-39 -30 -67 -48t-73 -33t-94 -15q-36 0 -70.5 7t-121.5 32 q-54 16 -105 16q-91 0 -164 -41z" />
<glyph unicode="&#xd6;" horiz-adv-x="1720" d="M68 754q0 221 108 403.5t289.5 285.5t394.5 103q159 0 305 -61t253 -165.5t171 -252t64 -313.5q0 -160 -63 -305.5t-169.5 -250.5t-253 -167t-307.5 -62q-215 0 -397 105t-288.5 286t-106.5 394zM348 756q0 -139 67 -259.5t185.5 -193t259.5 -72.5t259.5 72.5t185.5 193 t67 259.5q0 142 -68 263.5t-186 193t-258 71.5t-258 -71.5t-186 -193t-68 -263.5zM508 1651v272h274v-272h-274zM940 1651v272h272v-272h-272z" />
<glyph unicode="&#xd7;" horiz-adv-x="1228" d="M121 193l325 325l-325 326l168 168l325 -326l326 326l168 -168l-328 -326l328 -325l-168 -168l-326 327l-325 -327z" />
<glyph unicode="&#xd8;" horiz-adv-x="1720" d="M68 754q0 221 108 403.5t289.5 285.5t394.5 103q180 0 332 -73v2l129 192l223 -154l-131 -192q113 -108 176.5 -254t63.5 -313q0 -160 -63 -305.5t-169.5 -250.5t-253 -167t-307.5 -62q-167 0 -319 68l-125 -182l-226 153l123 180q-117 107 -181 253.5t-64 312.5z M348 756q0 -195 123 -336l567 831q-79 33 -178 33q-140 0 -258 -71.5t-186 -193t-68 -263.5zM692 260q85 -29 168 -29q141 0 259.5 72.5t185.5 193t67 259.5q0 187 -115 334z" />
<glyph unicode="&#xd9;" horiz-adv-x="1310" d="M113 553v963h280v-963q0 -322 262 -322q263 0 263 322v963h280v-963q0 -236 -88 -358q-71 -100 -188.5 -163t-264.5 -63q-82 0 -157 21t-131 55.5t-95 69t-67 71.5q-94 127 -94 367zM256 1882l117 209l454 -276l-108 -189z" />
<glyph unicode="&#xda;" horiz-adv-x="1310" d="M113 553v963h280v-963q0 -322 262 -322q263 0 263 322v963h280v-963q0 -236 -88 -358q-71 -100 -188.5 -163t-264.5 -63q-82 0 -157 21t-131 55.5t-95 69t-67 71.5q-94 127 -94 367zM479 1815l455 276l117 -209l-463 -256z" />
<glyph unicode="&#xdb;" horiz-adv-x="1310" d="M113 553v963h280v-963q0 -322 262 -322q263 0 263 322v963h280v-963q0 -236 -88 -358q-71 -100 -188.5 -163t-264.5 -63q-82 0 -157 21t-131 55.5t-95 69t-67 71.5q-94 127 -94 367zM248 1651l303 282h215l299 -282h-297l-109 131l-114 -131h-297z" />
<glyph unicode="&#xdc;" horiz-adv-x="1310" d="M113 553v963h280v-963q0 -322 262 -322q263 0 263 322v963h280v-963q0 -236 -88 -358q-71 -100 -188.5 -163t-264.5 -63q-82 0 -157 21t-131 55.5t-95 69t-67 71.5q-94 127 -94 367zM303 1651v272h275v-272h-275zM735 1651v272h273v-272h-273z" />
<glyph unicode="&#xdd;" horiz-adv-x="1269" d="M-4 1516h307l330 -697l332 697h309l-500 -957v-559h-280v559zM459 1815l454 276l117 -209l-463 -256z" />
<glyph unicode="&#xde;" d="M147 0v1516h281v-287h100q80 0 121.5 -2t105 -12.5t115.5 -37t103 -69.5q143 -131 143 -348t-143 -348q-51 -43 -103 -69.5t-115.5 -37t-105 -12.5t-121.5 -2h-100v-291h-281zM428 553h90q38 0 66 1.5t69 7.5t70 20t56.5 35.5t42 58t14.5 84.5t-14 84.5t-41 58t-55 35.5 t-68 20t-66.5 7.5t-63.5 1.5h-100v-414z" />
<glyph unicode="&#xdf;" horiz-adv-x="1228" d="M104 0v999q0 101 20 184t51.5 138.5t75 98t85.5 65.5t88.5 37.5t79 19t61.5 4.5q86 0 166 -31.5t141 -87t97.5 -137t36.5 -174.5q0 -90 -33.5 -164.5t-102.5 -113.5q86 -22 149.5 -62.5t96.5 -83.5t53 -95.5t24.5 -87.5t4.5 -71q0 -135 -50 -240.5t-155 -170t-252 -64.5 q-36 0 -61.5 1.5t-75.5 11t-88.5 28t-82.5 56t-75 90.5h-4v-150h-250zM377 387h176q12 -75 68 -125q52 -49 120 -49q74 0 129.5 55.5t55.5 147.5q-2 45 -16.5 80.5t-35.5 59.5t-53.5 41t-64 26.5t-74 15t-76.5 7t-78 1.5v242q100 0 152.5 61t52.5 154t-50.5 142.5 t-123.5 49.5q-182 0 -182 -266v-643z" />
<glyph unicode="&#xe0;" horiz-adv-x="1351" d="M55 575q0 170 76.5 308.5t207 215.5t286.5 77q65 0 126.5 -18t103 -41.5t76 -52t50 -46t20.5 -25.5h5v144h249v-1137h-249v141q-66 -78 -178 -128t-220 -50q-110 0 -210 43t-176.5 120t-121.5 194t-45 255zM328 563q0 -146 96.5 -248t241.5 -102q142 0 236.5 100.5 t94.5 257.5q0 85 -28.5 154.5t-76 112t-105.5 65.5t-121 23q-80 0 -146 -32.5t-107 -85.5t-63 -116.5t-22 -128.5zM348 1534l117 209l455 -277l-109 -188z" />
<glyph unicode="&#xe1;" horiz-adv-x="1351" d="M55 575q0 170 76.5 308.5t207 215.5t286.5 77q65 0 126.5 -18t103 -41.5t76 -52t50 -46t20.5 -25.5h5v144h249v-1137h-249v141q-66 -78 -178 -128t-220 -50q-110 0 -210 43t-176.5 120t-121.5 194t-45 255zM328 563q0 -146 96.5 -248t241.5 -102q142 0 236.5 100.5 t94.5 257.5q0 85 -28.5 154.5t-76 112t-105.5 65.5t-121 23q-80 0 -146 -32.5t-107 -85.5t-63 -116.5t-22 -128.5zM428 1466l455 277l116 -209l-462 -256z" />
<glyph unicode="&#xe2;" horiz-adv-x="1351" d="M55 575q0 170 76.5 308.5t207 215.5t286.5 77q65 0 126.5 -18t103 -41.5t76 -52t50 -46t20.5 -25.5h5v144h249v-1137h-249v141q-66 -78 -178 -128t-220 -50q-110 0 -210 43t-176.5 120t-121.5 194t-45 255zM268 1303l303 282h215l299 -282h-297l-108 131l-115 -131h-297z M328 563q0 -146 96.5 -248t241.5 -102q142 0 236.5 100.5t94.5 257.5q0 85 -28.5 154.5t-76 112t-105.5 65.5t-121 23q-80 0 -146 -32.5t-107 -85.5t-63 -116.5t-22 -128.5z" />
<glyph unicode="&#xe3;" horiz-adv-x="1351" d="M55 575q0 170 76.5 308.5t207 215.5t286.5 77q65 0 126.5 -18t103 -41.5t76 -52t50 -46t20.5 -25.5h5v144h249v-1137h-249v141q-66 -78 -178 -128t-220 -50q-110 0 -210 43t-176.5 120t-121.5 194t-45 255zM274 1483q117 88 238 88q17 0 32 -1t35.5 -5.5t28.5 -6.5 t36.5 -10t35.5 -10q89 -27 133 -27q83 0 156 48l110 -160q-39 -31 -66.5 -48t-72.5 -32.5t-94 -15.5q-38 0 -73 7t-120 31q-57 17 -104 17q-91 0 -164 -41zM328 563q0 -146 96.5 -248t241.5 -102q142 0 236.5 100.5t94.5 257.5q0 85 -28.5 154.5t-76 112t-105.5 65.5 t-121 23q-80 0 -146 -32.5t-107 -85.5t-63 -116.5t-22 -128.5z" />
<glyph unicode="&#xe4;" horiz-adv-x="1351" d="M55 575q0 170 76.5 308.5t207 215.5t286.5 77q65 0 126.5 -18t103 -41.5t76 -52t50 -46t20.5 -25.5h5v144h249v-1137h-249v141q-66 -78 -178 -128t-220 -50q-110 0 -210 43t-176.5 120t-121.5 194t-45 255zM324 1303v272h274v-272h-274zM328 563q0 -146 96.5 -248 t241.5 -102q142 0 236.5 100.5t94.5 257.5q0 85 -28.5 154.5t-76 112t-105.5 65.5t-121 23q-80 0 -146 -32.5t-107 -85.5t-63 -116.5t-22 -128.5zM756 1303v272h272v-272h-272z" />
<glyph unicode="&#xe5;" horiz-adv-x="1351" d="M55 575q0 170 76.5 308.5t207 215.5t286.5 77q65 0 126.5 -18t103 -41.5t76 -52t50 -46t20.5 -25.5h5v144h249v-1137h-249v141q-66 -78 -178 -128t-220 -50q-110 0 -210 43t-176.5 120t-121.5 194t-45 255zM328 563q0 -146 96.5 -248t241.5 -102q142 0 236.5 100.5 t94.5 257.5q0 85 -28.5 154.5t-76 112t-105.5 65.5t-121 23q-80 0 -146 -32.5t-107 -85.5t-63 -116.5t-22 -128.5zM457 1487q0 92 64 156.5t155 64.5q92 0 156.5 -64.5t64.5 -156.5q0 -91 -65 -155t-156 -64t-155 64t-64 155zM594 1487q0 -35 23.5 -58.5t58.5 -23.5 t59.5 23.5t24.5 58.5t-24.5 59.5t-59.5 24.5t-58.5 -24.5t-23.5 -59.5z" />
<glyph unicode="&#xe6;" horiz-adv-x="2211" d="M59 567q0 127 48.5 241t128.5 194t187 127t222 47q31 0 59.5 -3t51 -6.5t46 -11.5t38.5 -13t34.5 -16.5t29.5 -17.5t27 -19.5t22 -18t21 -19.5t19 -17v103h250v-103q69 72 150 107t198 35q101 0 201.5 -48t178.5 -127t126.5 -189.5t48.5 -227.5v-37q0 -60 -8 -101h-885 q27 -109 121 -171t185 -62q60 0 109 14.5t80.5 38t50 46t30.5 46.5h287q-17 -58 -63 -124t-113.5 -128t-163.5 -102.5t-197 -40.5q-117 0 -196 38.5t-136 113.5h-4v-115h-250v115h-4q-15 -19 -27 -33t-43.5 -38.5t-66 -40t-90.5 -28t-121 -12.5q-156 0 -291 83.5t-213 222.5 t-78 298zM332 565q0 -136 92 -244t233 -108q133 0 230.5 103t97.5 253q0 155 -98.5 256t-227.5 101q-57 0 -113.5 -23.5t-105 -66.5t-78.5 -114t-30 -157zM1245 666h629q-5 25 -13 49.5t-30.5 64t-53.5 68.5t-86 52t-124 26q-121 0 -208.5 -71t-113.5 -189z" />
<glyph unicode="&#xe7;" horiz-adv-x="1310" d="M76 573q0 128 50 241.5t133.5 192t193 124t225.5 45.5q49 0 103.5 -9t126 -36.5t132.5 -71.5t118.5 -121.5t90.5 -177.5h-307q-16 26 -24.5 39.5t-34 41.5t-50 43.5t-66 28.5t-89.5 13q-85 0 -158.5 -39t-122.5 -122t-49 -196q0 -150 95.5 -253t246.5 -103q153 0 252 158 h307q-69 -193 -219 -300.5t-350 -107.5h-6l-35 -76q28 4 51 4q78 0 134.5 -54.5t56.5 -149.5t-58 -148t-147 -53q-50 0 -91 19t-65 48t-36.5 58t-12.5 53h109q6 -35 32.5 -55.5t63.5 -20.5q41 0 67.5 28t26.5 71q0 42 -27.5 72t-68.5 30q-61 0 -88 -45l-101 39l84 192 q-97 19 -184.5 68.5t-157 124.5t-110.5 180t-41 225z" />
<glyph unicode="&#xe8;" horiz-adv-x="1310" d="M63 565q0 162 73.5 300.5t212.5 224.5t313 86q108 0 203 -34t164 -92t119.5 -133.5t75.5 -160.5t25 -172q0 -60 -16 -138h-883q4 -31 26.5 -69t60 -75.5t98 -63t129.5 -25.5q182 0 262 145h286q-52 -162 -204.5 -278.5t-343.5 -116.5q-170 0 -308 80.5t-215.5 218.5 t-77.5 303zM328 1534l116 209l455 -277l-108 -188zM342 666h629q-24 129 -107.5 194.5t-199.5 65.5q-45 0 -89.5 -11.5t-92 -38.5t-85.5 -81t-55 -129z" />
<glyph unicode="&#xe9;" horiz-adv-x="1310" d="M63 565q0 162 73.5 300.5t212.5 224.5t313 86q108 0 203 -34t164 -92t119.5 -133.5t75.5 -160.5t25 -172q0 -60 -16 -138h-883q4 -31 26.5 -69t60 -75.5t98 -63t129.5 -25.5q182 0 262 145h286q-52 -162 -204.5 -278.5t-343.5 -116.5q-170 0 -308 80.5t-215.5 218.5 t-77.5 303zM342 666h629q-24 129 -107.5 194.5t-199.5 65.5q-45 0 -89.5 -11.5t-92 -38.5t-85.5 -81t-55 -129zM408 1466l454 277l117 -209l-463 -256z" />
<glyph unicode="&#xea;" horiz-adv-x="1310" d="M63 565q0 162 73.5 300.5t212.5 224.5t313 86q108 0 203 -34t164 -92t119.5 -133.5t75.5 -160.5t25 -172q0 -60 -16 -138h-883q4 -31 26.5 -69t60 -75.5t98 -63t129.5 -25.5q182 0 262 145h286q-52 -162 -204.5 -278.5t-343.5 -116.5q-170 0 -308 80.5t-215.5 218.5 t-77.5 303zM248 1303l303 282h215l299 -282h-297l-109 131l-114 -131h-297zM342 666h629q-24 129 -107.5 194.5t-199.5 65.5q-45 0 -89.5 -11.5t-92 -38.5t-85.5 -81t-55 -129z" />
<glyph unicode="&#xeb;" horiz-adv-x="1310" d="M63 565q0 162 73.5 300.5t212.5 224.5t313 86q108 0 203 -34t164 -92t119.5 -133.5t75.5 -160.5t25 -172q0 -60 -16 -138h-883q4 -31 26.5 -69t60 -75.5t98 -63t129.5 -25.5q182 0 262 145h286q-52 -162 -204.5 -278.5t-343.5 -116.5q-170 0 -308 80.5t-215.5 218.5 t-77.5 303zM303 1303v272h275v-272h-275zM342 666h629q-24 129 -107.5 194.5t-199.5 65.5q-45 0 -89.5 -11.5t-92 -38.5t-85.5 -81t-55 -129zM735 1303v272h273v-272h-273z" />
<glyph unicode="&#xec;" horiz-adv-x="491" d="M-133 1534l117 209l454 -277l-108 -188zM109 0v1137h272v-1137h-272z" />
<glyph unicode="&#xed;" horiz-adv-x="491" d="M49 1466l455 277l117 -209l-463 -256zM109 0v1137h272v-1137h-272z" />
<glyph unicode="&#xee;" horiz-adv-x="491" d="M-162 1303l303 282h215l299 -282h-297l-108 131l-115 -131h-297zM109 0v1137h272v-1137h-272z" />
<glyph unicode="&#xef;" horiz-adv-x="491" d="M-106 1303v272h274v-272h-274zM109 0v1137h272v-1137h-272zM326 1303v272h272v-272h-272z" />
<glyph unicode="&#xf0;" horiz-adv-x="1310" d="M55 567q0 125 49 238.5t130.5 194t192 127.5t230.5 47h5q64 -3 106 -23l4 4q-64 63 -135 109l-309 -93l-176 115l294 90q-103 48 -217 84l308 84q81 -22 186 -82l268 82l176 -123l-270 -80q161 -132 263 -319t102 -418q0 -151 -50.5 -275t-135 -202.5t-191 -121 t-223.5 -42.5q-124 0 -237 48.5t-194 130t-128.5 193t-47.5 232.5zM328 567q0 -155 100 -254.5t234 -99.5q144 0 236.5 105.5t92.5 246.5q0 150 -99 255.5t-228 105.5q-55 0 -112.5 -23.5t-108 -66t-83 -113.5t-32.5 -156z" />
<glyph unicode="&#xf1;" horiz-adv-x="1228" d="M111 0v1137h251v-99q26 25 45.5 41.5t60 42.5t93 40t113.5 14q85 0 182 -39.5t160 -118.5q36 -44 59.5 -100t32 -118.5t10.5 -98.5t2 -87v-614h-272v561q0 365 -230 365q-45 0 -99 -24.5t-87 -76.5q-23 -33 -34.5 -87.5t-13 -92t-1.5 -104.5v-541h-272zM213 1483 q117 88 238 88q17 0 32 -1.5t34.5 -5.5t28.5 -6t36 -10t36 -10q89 -27 134 -27q82 0 155 48l111 -160q-39 -30 -67 -48t-73 -33t-94 -15q-37 0 -72 7t-120 31q-57 17 -105 17q-90 0 -163 -41z" />
<glyph unicode="&#xf2;" horiz-adv-x="1310" d="M51 567q0 126 49 239.5t131.5 194t193.5 128t232 47.5q119 0 229 -46t192.5 -125t132 -192.5t49.5 -241.5q0 -135 -50 -251t-133.5 -193t-192.5 -120.5t-227 -43.5q-124 0 -237 48.5t-193.5 130t-128 193t-47.5 232.5zM324 567q0 -155 99.5 -254.5t233.5 -99.5 q144 0 237 105.5t93 246.5q0 151 -99.5 256t-230.5 105q-43 0 -88 -14t-89 -44t-78.5 -71.5t-56 -101t-21.5 -128.5zM328 1534l116 209l455 -277l-108 -188z" />
<glyph unicode="&#xf3;" horiz-adv-x="1310" d="M51 567q0 126 49 239.5t131.5 194t193.5 128t232 47.5q119 0 229 -46t192.5 -125t132 -192.5t49.5 -241.5q0 -135 -50 -251t-133.5 -193t-192.5 -120.5t-227 -43.5q-124 0 -237 48.5t-193.5 130t-128 193t-47.5 232.5zM324 567q0 -155 99.5 -254.5t233.5 -99.5 q144 0 237 105.5t93 246.5q0 151 -99.5 256t-230.5 105q-43 0 -88 -14t-89 -44t-78.5 -71.5t-56 -101t-21.5 -128.5zM408 1466l454 277l117 -209l-463 -256z" />
<glyph unicode="&#xf4;" horiz-adv-x="1310" d="M51 567q0 126 49 239.5t131.5 194t193.5 128t232 47.5q119 0 229 -46t192.5 -125t132 -192.5t49.5 -241.5q0 -135 -50 -251t-133.5 -193t-192.5 -120.5t-227 -43.5q-124 0 -237 48.5t-193.5 130t-128 193t-47.5 232.5zM248 1303l303 282h215l299 -282h-297l-109 131 l-114 -131h-297zM324 567q0 -155 99.5 -254.5t233.5 -99.5q144 0 237 105.5t93 246.5q0 151 -99.5 256t-230.5 105q-43 0 -88 -14t-89 -44t-78.5 -71.5t-56 -101t-21.5 -128.5z" />
<glyph unicode="&#xf5;" horiz-adv-x="1310" d="M51 567q0 126 49 239.5t131.5 194t193.5 128t232 47.5q119 0 229 -46t192.5 -125t132 -192.5t49.5 -241.5q0 -135 -50 -251t-133.5 -193t-192.5 -120.5t-227 -43.5q-124 0 -237 48.5t-193.5 130t-128 193t-47.5 232.5zM254 1483q117 88 238 88q17 0 32 -1.5t34.5 -5.5 t28.5 -6t36 -10t36 -10q89 -27 134 -27q82 0 155 48l111 -160q-39 -30 -67 -48t-73 -33t-94 -15q-37 0 -72 7t-120 31q-57 17 -105 17q-90 0 -163 -41zM324 567q0 -155 99.5 -254.5t233.5 -99.5q144 0 237 105.5t93 246.5q0 151 -99.5 256t-230.5 105q-43 0 -88 -14t-89 -44 t-78.5 -71.5t-56 -101t-21.5 -128.5z" />
<glyph unicode="&#xf6;" horiz-adv-x="1310" d="M51 567q0 126 49 239.5t131.5 194t193.5 128t232 47.5q119 0 229 -46t192.5 -125t132 -192.5t49.5 -241.5q0 -135 -50 -251t-133.5 -193t-192.5 -120.5t-227 -43.5q-124 0 -237 48.5t-193.5 130t-128 193t-47.5 232.5zM303 1303v272h275v-272h-275zM324 567 q0 -155 99.5 -254.5t233.5 -99.5q144 0 237 105.5t93 246.5q0 151 -99.5 256t-230.5 105q-43 0 -88 -14t-89 -44t-78.5 -71.5t-56 -101t-21.5 -128.5zM735 1303v272h273v-272h-273z" />
<glyph unicode="&#xf7;" horiz-adv-x="1228" d="M98 395v246h1032v-246h-1032zM492 -41v246h245v-246h-245zM492 831v246h245v-246h-245z" />
<glyph unicode="&#xf8;" horiz-adv-x="1351" d="M72 567q0 126 49 239.5t131.5 194t193.5 128t232 47.5q122 0 237 -50l3 2l77 117l203 -141l-82 -119q164 -171 164 -414q0 -135 -50 -251t-133 -193t-192 -120.5t-227 -43.5q-122 0 -227 45l-78 -110l-203 139l76 110q-83 83 -128.5 191t-45.5 229zM344 567 q0 -110 55 -196l369 540q-40 15 -90 15q-54 0 -111 -23.5t-107.5 -66t-83 -113.5t-32.5 -156zM596 223q45 -10 82 -10q144 0 237 105.5t93 246.5q0 108 -52 187z" />
<glyph unicode="&#xf9;" horiz-adv-x="1228" d="M102 543v594h273v-580v-36.5t2.5 -43.5t6 -50.5t12 -50.5t20 -50.5t29.5 -43.5t41 -37t55.5 -23t70.5 -9q62 0 108 27.5t72 76.5t38 108t12 130v582h272v-1137h-250v115h-4q-21 -29 -41 -50t-55.5 -47t-85.5 -40.5t-111 -14.5q-140 0 -235 53.5t-146 126.5 q-29 43 -48 97.5t-26 116.5t-8.5 97.5t-1.5 88.5zM215 1534l117 209l454 -277l-108 -188z" />
<glyph unicode="&#xfa;" horiz-adv-x="1228" d="M102 543v594h273v-580v-36.5t2.5 -43.5t6 -50.5t12 -50.5t20 -50.5t29.5 -43.5t41 -37t55.5 -23t70.5 -9q62 0 108 27.5t72 76.5t38 108t12 130v582h272v-1137h-250v115h-4q-21 -29 -41 -50t-55.5 -47t-85.5 -40.5t-111 -14.5q-140 0 -235 53.5t-146 126.5 q-29 43 -48 97.5t-26 116.5t-8.5 97.5t-1.5 88.5zM438 1466l455 277l117 -209l-463 -256z" />
<glyph unicode="&#xfb;" horiz-adv-x="1228" d="M102 543v594h273v-580v-36.5t2.5 -43.5t6 -50.5t12 -50.5t20 -50.5t29.5 -43.5t41 -37t55.5 -23t70.5 -9q62 0 108 27.5t72 76.5t38 108t12 130v582h272v-1137h-250v115h-4q-21 -29 -41 -50t-55.5 -47t-85.5 -40.5t-111 -14.5q-140 0 -235 53.5t-146 126.5 q-29 43 -48 97.5t-26 116.5t-8.5 97.5t-1.5 88.5zM207 1303l303 282h215l299 -282h-297l-109 131l-114 -131h-297z" />
<glyph unicode="&#xfc;" horiz-adv-x="1228" d="M102 543v594h273v-580v-36.5t2.5 -43.5t6 -50.5t12 -50.5t20 -50.5t29.5 -43.5t41 -37t55.5 -23t70.5 -9q62 0 108 27.5t72 76.5t38 108t12 130v582h272v-1137h-250v115h-4q-21 -29 -41 -50t-55.5 -47t-85.5 -40.5t-111 -14.5q-140 0 -235 53.5t-146 126.5 q-29 43 -48 97.5t-26 116.5t-8.5 97.5t-1.5 88.5zM262 1303v272h275v-272h-275zM694 1303v272h273v-272h-273z" />
<glyph unicode="&#xfd;" horiz-adv-x="1187" d="M16 1137h312l258 -729l274 729h309l-653 -1516h-293l209 485zM418 1466l454 277l117 -209l-463 -256z" />
<glyph unicode="&#xfe;" horiz-adv-x="1351" d="M96 -379v1895h273v-504h4q129 164 346 164q134 0 244.5 -54.5t180 -142t107 -193t37.5 -213.5q0 -166 -75 -306t-206 -222t-288 -82q-65 0 -119.5 12t-98 36.5t-70.5 45t-62 52.5v-488h-273zM352 569q0 -72 22 -133t57.5 -101.5t80 -68.5t88.5 -40.5t84 -12.5q44 0 90 14 t89.5 43.5t77.5 71t54.5 100.5t20.5 127q0 151 -99 254t-229 103q-134 0 -235 -99t-101 -258z" />
<glyph unicode="&#xff;" horiz-adv-x="1187" d="M16 1137h312l258 -729l274 729h309l-653 -1516h-293l209 485zM242 1303v272h274v-272h-274zM674 1303v272h272v-272h-272z" />
<glyph unicode="&#x152;" horiz-adv-x="2170" d="M76 756q0 145 44 273.5t118.5 221.5t172 160.5t206.5 101t219 33.5q70 0 151 -15t181 -61.5t163 -117.5v164h731v-263h-450v-370h426v-262h-426v-359h450v-262h-731v162q-81 -92 -221.5 -142.5t-273.5 -50.5q-109 0 -218 34t-206 101.5t-172.5 160.5t-119.5 220t-44 271z M356 729q0 -65 20.5 -133.5t62.5 -134t100 -116.5t139.5 -82.5t173.5 -31.5q142 0 256 75.5t173.5 193t59.5 248.5q0 96 -34.5 191t-96 172t-157 125t-207.5 48q-98 0 -186.5 -39t-156 -109.5t-107.5 -176t-40 -230.5z" />
<glyph unicode="&#x153;" horiz-adv-x="2211" d="M61 567q0 133 51 248.5t135 193.5t191.5 122.5t220.5 44.5q280 0 453 -234q28 35 50.5 60.5t65 61t86.5 57.5t108.5 38.5t136.5 16.5q156 0 291 -75.5t217.5 -211t82.5 -299.5q0 -76 -12 -144h-889q17 -58 51 -103t70.5 -68.5t78 -38.5t67.5 -19t45 -4q102 0 171 42 t97 103h282q-32 -97 -94.5 -175t-139 -124.5t-157.5 -71t-159 -24.5q-29 0 -62 3.5t-87 17.5t-103 38t-103 70.5t-94 108.5q-20 -30 -38 -52.5t-59.5 -60.5t-87 -62.5t-117.5 -43.5t-155 -19q-162 0 -298.5 80.5t-216 219.5t-79.5 304zM334 578q0 -110 50.5 -195.5 t125.5 -127.5t156 -42q136 0 232.5 103t96.5 251q0 151 -98 255t-233 104q-133 0 -231.5 -103t-98.5 -245zM1245 666h629q-30 119 -113 189.5t-200 70.5q-120 0 -200 -67.5t-116 -192.5z" />
<glyph unicode="&#x178;" horiz-adv-x="1269" d="M-4 1516h307l330 -697l332 697h309l-500 -957v-559h-280v559zM283 1651v272h274v-272h-274zM715 1651v272h272v-272h-272z" />
<glyph unicode="&#x2c6;" horiz-adv-x="1105" d="M145 1303l304 282h215l299 -282h-297l-109 131l-115 -131h-297z" />
<glyph unicode="&#x2dc;" horiz-adv-x="983" d="M90 1483q117 88 238 88q17 0 32 -1t35.5 -5.5t28.5 -6.5t36.5 -10t35.5 -10q89 -27 133 -27q82 0 155 48l111 -160q-39 -31 -66.5 -48t-72.5 -32.5t-94 -15.5q-38 0 -73 7t-120 31q-57 17 -104 17q-91 0 -164 -41z" />
<glyph unicode="&#x2000;" horiz-adv-x="1045" />
<glyph unicode="&#x2001;" horiz-adv-x="2091" />
<glyph unicode="&#x2002;" horiz-adv-x="1045" />
<glyph unicode="&#x2003;" horiz-adv-x="2091" />
<glyph unicode="&#x2004;" horiz-adv-x="697" />
<glyph unicode="&#x2005;" horiz-adv-x="522" />
<glyph unicode="&#x2006;" horiz-adv-x="348" />
<glyph unicode="&#x2007;" horiz-adv-x="348" />
<glyph unicode="&#x2008;" horiz-adv-x="261" />
<glyph unicode="&#x2009;" horiz-adv-x="418" />
<glyph unicode="&#x200a;" horiz-adv-x="116" />
<glyph unicode="&#x2010;" horiz-adv-x="860" d="M145 471v242h570v-242h-570z" />
<glyph unicode="&#x2011;" horiz-adv-x="860" d="M145 471v242h570v-242h-570z" />
<glyph unicode="&#x2012;" horiz-adv-x="860" d="M145 471v242h570v-242h-570z" />
<glyph unicode="&#x2013;" horiz-adv-x="1024" d="M72 471v242h880v-242h-880z" />
<glyph unicode="&#x2014;" horiz-adv-x="2048" d="M72 471v242h1904v-242h-1904z" />
<glyph unicode="&#x2018;" horiz-adv-x="573" d="M147 954v289q0 77 27 133.5t69.5 85t85 41.5t83.5 13h6v-140q-22 -5 -31 -7t-30 -11t-30.5 -19.5t-18.5 -30.5t-9 -46q0 -29 2 -35h119v-273h-273z" />
<glyph unicode="&#x2019;" horiz-adv-x="573" d="M147 1243v273h273v-289q0 -62 -18.5 -111.5t-46 -79t-64.5 -49t-70 -26.5t-65 -7h-6v138q27 6 40.5 10t35.5 16t32 34.5t10 55.5v35h-121z" />
<glyph unicode="&#x201a;" horiz-adv-x="573" d="M147 0v272h273v-286q0 -64 -19 -114t-47 -79.5t-66 -48.5t-71.5 -26t-66.5 -7v139q118 14 118 115v35h-121z" />
<glyph unicode="&#x201c;" horiz-adv-x="983" d="M143 954v289q0 77 27 133.5t69.5 85t85 41.5t83.5 13h6v-140q-22 -5 -31 -7t-30 -11t-30.5 -19.5t-18.5 -30.5t-9 -46q0 -8 1 -20t1 -15h119v-273h-273zM567 954v289q0 62 18.5 111.5t46 79t64.5 49t70 26.5t65 7h7v-140q-22 -5 -31 -7t-30 -11t-30.5 -19.5t-18.5 -30.5 t-9 -46q0 -8 1 -20t1 -15h119v-273h-273z" />
<glyph unicode="&#x201d;" horiz-adv-x="983" d="M143 1243v273h273v-289q0 -77 -26 -133.5t-68 -85t-84 -41.5t-86 -13h-7v138q22 5 32 7t30 11t30 19.5t18.5 31t8.5 47.5v35h-121zM567 1243v273h273v-289q0 -62 -18 -111.5t-45.5 -79t-63.5 -48.5t-70 -26.5t-68 -7.5h-6v138q22 5 32 7t30 11t30 19.5t18.5 31t8.5 47.5 v35h-121z" />
<glyph unicode="&#x201e;" horiz-adv-x="983" d="M143 0v272h273v-286q0 -64 -18.5 -114t-46.5 -79.5t-66 -48.5t-72 -26t-68 -7v139q119 15 119 115v35h-121zM567 0v272h273v-286q0 -64 -18.5 -114t-46.5 -79.5t-66 -48.5t-72 -26t-68 -7v139q119 15 119 115v35h-121z" />
<glyph unicode="&#x2022;" horiz-adv-x="1228" d="M303 772q0 130 90.5 224t224.5 94q127 0 218.5 -94.5t91.5 -223.5q0 -131 -92 -224t-220 -93q-130 0 -221.5 93.5t-91.5 223.5z" />
<glyph unicode="&#x2026;" horiz-adv-x="2048" d="M205 0v272h272v-272h-272zM887 0v272h272v-272h-272zM1569 0v272h272v-272h-272z" />
<glyph unicode="&#x202f;" horiz-adv-x="418" />
<glyph unicode="&#x2039;" horiz-adv-x="491" d="M102 489v207l287 265v-252l-139 -117l139 -119v-252z" />
<glyph unicode="&#x203a;" horiz-adv-x="491" d="M102 221v252l140 119l-140 117v252l287 -265v-207z" />
<glyph unicode="&#x205f;" horiz-adv-x="522" />
<glyph unicode="&#x20ac;" d="M8 481l70 195h112v112h-182l70 195h115q0 113 38 220t101 181q143 162 377 162q85 0 163 -22t132 -56.5t90.5 -69t54.5 -65.5l-88 -248q-86 203 -352 203q-62 0 -110.5 -26.5t-77.5 -71t-43.5 -97.5t-14.5 -110h559l-70 -195h-489v-112h448l-71 -195h-371 q9 -50 25.5 -91.5t44 -80t71 -60.5t99.5 -22q102 0 193.5 40.5t131.5 107.5v-299q-29 -34 -118.5 -70.5t-206.5 -36.5t-212 40.5t-157.5 111.5t-99 162t-45.5 198h-187z" />
<glyph unicode="&#x2122;" horiz-adv-x="2048" d="M18 1346v170h543v-170h-176v-740h-192v740h-175zM682 606v910h258l244 -660l241 660h256v-910h-192v627h-4l-223 -627h-160l-223 627h-5v-627h-192z" />
<glyph unicode="&#xe000;" horiz-adv-x="1136" d="M0 0v1137h1137v-1137h-1137z" />
<glyph unicode="&#xfb01;" horiz-adv-x="1064" d="M51 895v242h96q3 40 8 70t17.5 76.5t40 90t68.5 80.5q47 44 110 68t127 24h76v-268q-47 0 -71 -3t-50.5 -16t-38.5 -42.5t-14 -79.5h524v-1137h-272v895h-252v-895h-273v895h-96zM672 1266v250h272v-250h-272z" />
<glyph unicode="&#xfb02;" horiz-adv-x="1064" d="M51 895v242h96q3 40 8 70t17.5 76.5t40 90t68.5 80.5q47 44 110 68t127 24h76v-268q-47 0 -71 -3t-50.5 -16t-38.5 -42.5t-14 -79.5h252v379h272v-1516h-272v895h-252v-895h-273v895h-96z" />
</font>
</defs>
</svg>
