<?xml version="1.0" standalone="no"?>
<!DOCTYPE svg PUBLIC "-//W3C//DTD SVG 1.1//EN" "http://www.w3.org/Graphics/SVG/1.1/DTD/svg11.dtd" >
<svg xmlns="http://www.w3.org/2000/svg">
<metadata></metadata>
<defs>
<font id="danielbold" horiz-adv-x="985" >
<font-face units-per-em="2048" ascent="1638" descent="-410" />
<missing-glyph horiz-adv-x="1021" />
<glyph horiz-adv-x="0" />
<glyph horiz-adv-x="2048" />
<glyph unicode="&#x9;" horiz-adv-x="1021" />
<glyph unicode=" "  horiz-adv-x="1021" />
<glyph unicode="&#x09;" horiz-adv-x="1021" />
<glyph unicode="&#xa0;" horiz-adv-x="1021" />
<glyph unicode="!" horiz-adv-x="655" d="M52 106q0 64 93 64q23 0 62 -34.5t39 -54.5q0 -111 -78 -111q-27 0 -72 55q-44 53 -44 81zM101 469q23 140 23 180q0 34 5 101q20 94 49 321q60 201 85 316q14 75 56 296q12 56 59 56q15 0 34 -10q14 -31 60 -64q0 -3 5.5 -30t5.5 -30q-16 -74 -40 -176 q-41 -177 -59 -269q-10 -47 -33 -185q-8 -66 -34 -258q-4 -21 -42 -218q0 -49 -5 -144q-3 -13 -28 -30t-40 -17q-101 0 -101 161z" />
<glyph unicode="&#x22;" horiz-adv-x="668" d="M46 1313q0 43 23 103q0 4 -12 37q0 39 12 74q8 45 78 215h33q84 -47 84 -127v1q-3 0 -55 -324l-18 -21q0 -12 -3 -37q-5 -8 -5 -15q-40 0 -65 -5q-1 2 -40 51q-32 42 -32 48zM383 1418q0 74 22 187q26 138 66 155q107 -41 107 -152q0 -64 -33 -271q-6 -37 -28 -118h-24 h-53q-21 31 -45 85q-12 45 -12 114z" />
<glyph unicode="#" horiz-adv-x="1624" d="M69 578q9 14 32 49q13 20 35 20q4 0 14 -3.5l10 -3.5q3 0 23 10q21 11 25 11q3 0 16 -7q11 -7 13 -7q40 0 269 29q10 0 44 18q7 -1 14 -1q31 0 56 37q22 39 43 78q44 78 68 116q44 98 73 98q23 0 38 -18q54 -58 64 -66q0 -83 -9 -109q-12 -35 -65 -84q14 -20 69 -20 q97 0 111 9q8 4 101 125q99 130 126 130q23 0 56 -38q31 -38 31 -63q0 -36 -90 -153q8 -24 61 -24q7 0 15 1q40 2 61 2q22 0 26 -2q25 -24 56 -63q-58 -51 -96 -63q-29 -9 -122 -9q-4 0 -18 3t-18 3q-34 0 -50 -14q-50 -53 -50 -98l-10 -58q0 11 41 13q31 2 202 2q3 0 27 -6 t27 -6q4 0 44 6t41 6q35 0 67 -63q-30 -18 -91 -45q-154 -41 -286 -41q-3 0 -7 3t-6 3q-32 0 -125 -52q-14 -8 -40 -80q-8 -10 -25 -81q-3 -5 -13 -15q-23 19 -29 21q-6 0 -34 -14q-1 4 -29 12q-28 9 -28 10q0 69 25 111q-1 12 0 24q-4 21 -13 21q-21 0 -107 -15 q-105 -18 -135 -33q-18 -8 -32 -75q-14 -73 -28 -85q-48 2 -136 31q-15 11 -15 29l13 46q6 25 6 41q0 10 -2 16q-4 3 -10 3q-7 0 -97 -14q-65 -10 -82 -10q-5 0 -6 1q-69 41 -69 93q0 31 39 50q31 14 62 14q1 0 91 18q89 16 93 16q18 0 52 47.5t34 66.5v38q-8 1 -19 1 q-42 0 -130 -9l-134 -13q-59 0 -118 22q-8 23 -40 57zM666 383q2 0 16.5 -3t18.5 -3q2 0 28 4q25 2 27 2q51 0 139 28q2 11 46 149q0 30 -27 30q-123 0 -172 -30q-20 -13 -48 -58t-28 -65v-54z" />
<glyph unicode="$" horiz-adv-x="1285" d="M71 412q4 2 24 38q161 -26 204 -26q1 0 26 3t30 3q34 0 44 49q5 22 10 60q10 8 25 31q25 57 25 116q0 8 -80 76q-94 80 -126 115q-93 101 -93 179q0 62 20 78q62 34 260 62h62q84 0 214 10q54 70 99 129q98 127 118 127q27 0 53 -27q27 -28 27 -56q0 -23 -43 -100 q-52 -94 -55 -101q45 -28 153 -72q72 -29 80 -65q14 -15 27 -19q3 -5 3 -30q0 -27 -34 -71h-5q-27 0 -79 9q-43 20 -92 47q-75 40 -109 40q-33 0 -55 -24q-9 -9 -35 -56q-75 -138 -75 -171q0 -12 4 -22q45 -35 54 -56q7 -4 31 -9q33 -27 77 -83q62 -121 62 -138 q-3 -6 -13 -18q-29 -82 -157 -111q-87 -20 -213 -48q-22 -11 -39 -80q-25 -100 -25 -131v-3q-24 -45 -32 -80q-2 0 -20 8.5t-20 8.5t-15 -6q-12 -7 -14 -7q-50 0 -50 63v-1q2 0 20 33q11 49 11 124v18q0 18 -18 59q-28 1 -107 7q-47 4 -98 30q-15 8 -38 41q-23 34 -23 47z M362 996q89 -101 169 -134q77 65 77 131v38q-22 6 -30 6q-158 0 -216 -41zM572 463h93q64 0 64 43q0 13 -36 44q-38 37 -63 37q-14 0 -34 -18q0 -3 -12 -29.5t-12 -28.5v-48z" />
<glyph unicode="%" horiz-adv-x="1756" d="M43 1082q0 27 51 96h112q5 13 5 26q0 14 -5 28q-3 9 -11 35q0 75 51 90q19 7 132 7q3 0 138 -32q136 -34 139 -34q12 1 69 3q60 1 180 2l247 3h1q25 0 83 -25q60 -27 67 -43q59 -130 59 -162q0 2 -1 2q-5 0 -39 -80q-8 -18 -66 -77q-162 -164 -700 -559 q-62 -46 -162 -150l-80 -160q-81 -19 -86 -19q-31 0 -57 60q-23 52 -23 72q0 55 79 134l101 102v5q0 9 10 19q157 114 395 286q218 160 343 320l45 58q0 14 -18 22q-98 10 -119 10q-158 0 -209 -38q0 -9 14 -30q-10 -55 -18 -105q-59 -50 -77 -89q-166 -100 -312 -100 q-125 0 -228 60q-42 23 -59 54q-51 87 -51 209zM205 1170v1q2 0 21 -62q-7 -9 -7 -27q0 -53 36 -95q37 -42 85 -42h73q25 0 142 41q60 21 60 51q0 28 -21 55q-39 6 -160 24q-16 2 -107.5 28t-92.5 26h-29zM736 251q0 119 87 208t204 89q2 0 12 -3q11 -4 13 -4q10 0 44 18 q11 6 34 19q32 12 196 12q123 0 293 -52q81 -84 104 -129q22 -44 22 -118q0 -45 -38 -87q-26 -28 -96 -79q-67 -31 -200 -68q-117 -33 -136 -33h-138q-102 0 -222 59q-60 49 -165 129q-14 16 -14 39zM978 299q0 -43 100 -74q78 -23 128 -23q100 0 208 39q109 39 144 88 q-155 59 -225 59q-217 0 -331 -38q-24 -24 -24 -51z" />
<glyph unicode="&#x26;" horiz-adv-x="1444" d="M42 302q0 51 3 60q4 8 59 78q31 40 89 71q57 32 95 55l201 120q10 5 10 25q0 1 -16 116l-15 115q0 64 86 182q103 142 126 225q131 126 290 126q35 0 112 -70q62 -58 78 -84q62 -104 62 -212q0 -110 -65 -182q-11 -13 -205 -168q-51 -29 -133 -84q-29 -11 -57 -23 q-54 -25 -54 -48q0 -13 53 -75.5t64 -62.5q146 60 378 132q23 15 23 18q32 0 66.5 -26t34.5 -49q-6 -5 -46 -59q-197 -60 -304 -153v-32q29 -10 44 -19q33 -41 99 -102q16 -11 40 -33q25 -39 25 -62q0 -71 -63 -71q-43 0 -70 21q-31 26 -161 143q-95 87 -105 87 q-2 0 -91 -39t-91 -39q-3 0 -10 5q-6 3 -8 3t-57.5 -31t-63.5 -33q-153 -46 -230 -46q-193 0 -193 221zM229 261q6 0 36 -3.5t33 -3.5q60 0 178 43t187 89q-10 33 -47 83.5t-55 50.5q-9 -4 -52 -32q-66 -30 -158 -69q-19 -9 -69 -59q-53 -53 -53 -70v-29zM616 877 q0 -85 35 -93q55 27 153 93q151 102 233 211q30 40 30 48q0 35 -27 90q-35 74 -83 74q-46 0 -149 -83q-89 -70 -105 -99q-27 -47 -59 -144q-28 -83 -28 -97z" />
<glyph unicode="'" horiz-adv-x="361" d="M43 1235q0 109 26 197q14 21 38 60h33q85 -87 85 -114q0 4 -1 4q-3 0 -33 -196q4 -19 11 -57v-92q-3 -8 -19 -8q-1 0 -23 10t-27 10q-1 0 -9 -4q-7 -4 -12 -4q-15 0 -29 15q-40 106 -40 179z" />
<glyph unicode="(" horiz-adv-x="683" d="M63 655q0 140 135 482q11 9 24 30q30 121 223 342q202 233 296 233q41 0 63 -77q15 -49 15 -95v-15q-15 -21 -57 -54q-10 0 -27 -4q-298 -247 -426 -555q-13 -25 -48 -119q-7 -10 -15 -28q-4 -30 -13 -77q-10 -50 -10 -66q0 -169 117 -323q63 -83 248 -247q18 -59 18 -66 q-1 0 -10 -44h-84q-54 0 -199 137q-116 109 -150 160q-18 26 -69 153q-31 114 -31 233z" />
<glyph unicode=")" horiz-adv-x="683" d="M-19 -3q0 48 44 94q343 355 394 531q24 84 24 238q0 158 -121 390q-92 174 -177 275q-23 29 -31 62q0 44 -10 127q45 38 52 38q67 0 184 -192q91 -149 187 -317q90 -157 90 -457q-1 -6 -6 -30q-2 -9 -2 -19q0 -15 4 -33q-27 -133 -71 -264q-30 -87 -118 -192 q-25 -31 -102 -123q-11 -13 -123 -109q-116 -99 -142 -99q-22 0 -29 1q-47 55 -47 79z" />
<glyph unicode="*" horiz-adv-x="1008" d="M25 1052q0 29 56 102q36 47 110 87q51 27 120 68q46 26 46 45q0 5 -44 51q-58 60 -67 78q-17 33 -17 111q0 12 15.5 30t25.5 18q24 0 187 -135q3 1 78.5 114t99.5 124q76 -42 76 -128q0 -38 -20 -57v-17q-1 0 -2 -1q2 -3 14 -3q3 0 57.5 16.5t58.5 16.5q28 0 62 -30 q34 -29 34 -51q0 -36 -121 -88q-48 -31 -147 -88q0 -16 50 -106q63 -114 63 -138q0 -19 -33 -60q-9 -1 -61 -1q-7 0 -57 62q-49 61 -61 61h-1q-6 0 -10 -5q-20 -75 -62 -233h-10q-28 0 -53 -7q-13 18 -47 51q-1 29 -1 53q0 86 12 132q2 12 2 20q0 16 -11 16h-21 q-35 0 -237 -168h-57q-20 62 -24 65q-3 -2 -3 -5z" />
<glyph unicode="+" horiz-adv-x="970" d="M83 388q0 22 44 42t91 20q1 0 47.5 -3.5t51.5 -3.5q48 0 57 23l63 174q11 17 20 33q18 21 57 21q85 0 85 -122q-24 -85 -24 -97q103 -16 304 -48q21 -12 50 -65q-15 -18 -49 -47q-28 -15 -98 -15q-158 0 -260 -21q-28 -10 -34 -34q-18 -84 -62 -202h-38q-77 0 -77 71 q0 7 4 49.5t4 46.5q0 59 -55 59q-3 0 -17 -3t-18 -3q-5 0 -46 6l-61 9q-22 15 -29 39q-2 5 -2 12q0 15 6 34q-14 20 -14 25z" />
<glyph unicode="," horiz-adv-x="555" d="M-55 -329q0 12 74 105q38 47 104 134q61 81 71 142q8 51 22 116q13 18 36 53h33q93 0 93 -172q0 -7 -43 -191q-37 -49 -117 -161q-9 -14 -78 -57q-80 -49 -100 -49q-38 0 -67 25q-28 24 -28 55z" />
<glyph unicode="-" horiz-adv-x="706" d="M53 442q0 94 96 94q164 0 174 -3q59 -9 158 -9l28 6q39 0 88 -16q34 -42 34 -74q0 -23 -40 -42q-10 -12 -31 -33q-18 -16 -62 -16q-11 0 -23 1q-34 -9 -94 -17q-35 1 -135 1q-9 0 -135 16q-10 4 -48 28q-10 39 -10 64z" />
<glyph unicode="." horiz-adv-x="386" d="M73 109q0 59 76 164h80q79 -90 79 -118q0 -54 18 -61q-48 -72 -122 -72q-131 0 -131 87z" />
<glyph unicode="/" horiz-adv-x="1569" d="M74 7q0 55 59 203q51 130 75 166q40 64 147 229q72 113 344 447q97 118 251 294q33 37 294 260q167 142 207 142q19 0 42 -65q17 -54 17 -75q0 -53 -43 -96l-62 -63q-16 -28 -58 -77q-277 -215 -446 -416q-610 -725 -674 -1067h-105q0 7 -27 60q-21 42 -21 58z" />
<glyph unicode="0" horiz-adv-x="2012" d="M46 663q0 196 134 396q47 69 261 289q68 69 286 120q192 46 337 46q75 0 201 -22q27 4 68 4q328 -80 393 -109q189 -86 220 -271q35 -90 35 -102q0 -141 -59 -278q-38 -52 -107 -156q-3 -11 -7 -38q-31 -43 -94 -114q-6 -4 -315 -185q-23 -8 -70 -25q-41 -15 -41 -40 q0 -5 1 -10l-430 -98q-4 0 -25 -3q-20 -3 -23 -3q-13 -8 -15 -10q-7 -5 -33 -7l-24 7q-23 6 -29 6q-2 0 -25.5 -3t-25.5 -3q-42 0 -350 109q-8 14 -145 166q-78 88 -101 173q-17 58 -17 161zM288 450q0 -13 25 -54q42 -74 157 -128q113 -53 227 -53q6 0 56 4l54 5 q67 0 264 61q306 94 460 199q112 77 202 227t90 263q0 87 -15 111q-66 114 -196 191q-129 77 -272 86q-37 13 -103 29q-107 10 -153 10q-47 0 -259 -26q-27 -11 -86 -29q-42 -9 -128 -60q-8 -27 -35 -72l-152 -147q-64 -62 -105 -168q-31 -80 -31 -124q0 -2 19.5 -103.5 t19.5 -105.5q0 -2 -19.5 -57t-19.5 -59z" />
<glyph unicode="1" horiz-adv-x="534" d="M130 575l93 606q4 37 17 141q14 104 89 104q29 0 57 -21q23 -38 59 -135l-128 -731q5 -69 14 -189q16 -160 16 -193v-7q1 -8 15 -23v-84l-32 -27q-29 15 -59 18q-108 104 -121 263q-5 45 -20 278z" />
<glyph unicode="2" horiz-adv-x="1511" d="M45 1265q0 38 49 60q17 7 84 32q61 36 187 90l334 98q193 57 330 57q71 0 79 -3q206 -76 222 -196q-8 -10 -14 -28q18 -11 18 -44q0 -78 -55 -191t-122 -174q-10 -24 -35 -63q-77 -97 -221 -230q-22 -21 -436 -386q0 -11 -7 -36q-11 -6 -39 -27q32 -25 80 -25q25 4 84 20 q80 22 120 27q296 39 627 39l45 -7q46 -8 59 -8q20 -15 20 -21q0 -52 -86 -68l-111 -23q11 -5 31 -5q-280 -15 -391 -60q-34 -5 -183 -28q-198 -28 -364 -28q-14 0 -92 -7l-78 -6q-33 0 -66 21q0 18 -38 49q1 3 1 7q0 10 -6 31l-8 31q0 11 2 19q253 180 392 299l216 192 l92 101q21 10 53 31q107 99 252 296q94 176 94 254q0 37 -36.5 62.5t-87.5 25.5q-108 0 -559 -133q-23 -7 -175 -78q-38 -16 -140 -60q-2 -4 -13 -4q-27 0 -67 38q-41 36 -41 59z" />
<glyph unicode="3" horiz-adv-x="1483" d="M35 76q2 0 12 56q149 100 412 129q425 48 681 206q100 62 100 95q0 32 -83 82q-64 37 -101 47q-284 77 -345 77q-7 -3 -25 -15q-16 -2 -100 -2q-69 0 -174 18q-16 8 -41 23q0 5 12 60q7 35 13 57q62 33 146 64q263 92 392 174q116 74 241 207q9 9 28 60q-28 30 -125 30 q-7 0 -144 -20l-141 -21q-24 0 -44 16q-3 -5 -8 -21q-35 -9 -224 -62q-49 -14 -168 -54q-117 -39 -122 -39q-41 0 -68 46q-35 62 -48 71q16 18 40 48q215 77 300 98q99 25 349 75q209 42 229 42q4 0 22 -9q17 -8 20 -8q6 0 30 4q25 4 26 4q55 0 130 -29q32 -22 100 -61 q0 -1 18 -44q16 -43 16 -48q0 -34 -22 -89q-14 -6 -32 -25v-3q0 -43 -92 -122q-86 -73 -147 -98q-43 -39 -141 -108q-48 -19 -145 -71q13 -33 201 -64q114 -30 183 -59q231 -96 231 -276q0 -91 -228 -206q-109 -53 -128 -66q-114 -18 -467 -113q-109 -10 -257 -36 q-33 -6 -136 -51q-87 -38 -97 -38q-15 0 -47 28.5t-32 42.5v-2z" />
<glyph unicode="4" horiz-adv-x="1521" d="M45 807q0 64 35 159l53 145q7 5 20 17q18 39 69 169q10 29 41 114q36 98 67 98q32 0 74 -34q43 -35 43 -59q0 -5 -16 -25q-5 -46 -47 -138q-11 -24 -62 -168q-61 -171 -61 -212q0 -50 44 -50h613q170 0 190 37q43 114 106 348q10 40 40 153q8 14 132 233q47 81 84 109 q76 -33 116 -59q-75 -143 -183 -391q-65 -212 -107 -409q16 -12 44 -12q4 0 20 4q14 3 16 3q52 0 52 -52q0 -43 -42 -58q-95 -33 -101 -38q-25 -16 -31 -34q-25 -67 -48 -202q-2 -100 -8 -287q14 -18 18 -33q0 -24 -7 -68q-24 -16 -52 -49q-84 13 -110 58q-50 84 -50 175 q0 112 32 278q6 12 18 41l17 95q0 37 -35 37h-6l-637 -47q0 1 -282 24q-59 66 -59 128z" />
<glyph unicode="5" horiz-adv-x="1617" d="M36 1001q0 108 117 311q11 4 20 18q4 13 60 145q10 23 49 55q81 28 234 28q428 0 534 -12q114 -13 134 -13q5 0 32 8t28 8q42 0 76 -33q33 -32 33 -72q0 -89 -102 -89q-4 0 -47 5l-43 6q-357 21 -621 21q-82 0 -114 -28q-22 -19 -86 -139q-17 -19 -41 -55 q-11 -34 -39 -110q153 -21 173 -21q1 0 35 3q35 4 41 4q0 -2 64 -15q332 -22 473 -52q267 -56 433 -191q31 -25 65 -107q15 -36 15 -78v1q-5 0 -51 -112q-120 -75 -192 -128q-2 -13 -2 -18q0 -4 1 -5q-23 0 -194 -84q-97 -48 -209 -94q-404 -164 -490 -164q-34 0 -64 26 q-32 25 -32 53q0 46 70 77q159 51 467 179l182 78l21 10q50 21 222 133q76 64 76 90q0 43 -179 149q-46 27 -135 48q-158 36 -170 36h-520q-23 0 -155 22t-146 29q-23 39 -23 77z" />
<glyph unicode="6" horiz-adv-x="1767" d="M55 532q0 139 59 281q26 62 93 143q71 108 297 291q67 56 189 122q362 195 433 195q37 0 76 -27q39 -29 39 -57q0 -41 -42 -66q-23 -13 -138 -57q-26 -2 -66 -13q-225 -112 -353 -200q-50 -55 -115 -115q-193 -180 -243 -348q-49 -165 -52 -165v1q0 -165 243 -322 q16 -11 91 -26.5t109 -15.5q78 0 232.5 33.5t208.5 61.5q46 9 138 28q15 11 38 27q23 3 73 23q26 10 96 68q88 74 88 106q0 15 -20 33q-59 32 -161 89l-18 -16q-195 55 -252 55l-38 -6q-29 -3 -42 -3h-6h-29q-108 0 -213 -49q-73 -33 -187 -155q-28 -23 -69 -73 q-2 -10 -2 -66q-44 -10 -52 -10q-14 0 -37.5 24t-23.5 40q4 5 23 54q0 23 11 58q14 26 46 82q27 44 66 69q224 142 553 142q148 0 311 -26q211 -34 244 -90q16 -4 42 -25q33 -55 33 -95q0 -16 -92 -182q-46 -82 -49 -82v1q0 -8 9 -17q-34 -3 -151 -52q-32 -21 -86 -50l9 -12 q-129 -21 -129 -61v-1q-88 -7 -245 -30l-26 -11q-27 -11 -39 -11q-5 0 -15 4.5t-13 4.5t-75 -19.5t-77 -19.5l-26 1q-32 2 -66 3l-92 3q-24 0 -90 20q-76 22 -118 48q-12 7 -232 185q2 3 2 7q0 15 -17 42q-31 52 -34 62q-21 59 -21 167z" />
<glyph unicode="7" horiz-adv-x="1399" d="M63 1237q0 23 38 51q39 27 69 27q3 0 19 -9q16 -8 19 -8t24 11q19 10 22 10h3q40 0 162 18q145 22 161 23q581 43 659 43q122 0 122 -108q0 -77 -69 -148q-30 -28 -114 -112q-134 -138 -222 -281q-20 -13 -52 -43q-55 -95 -172 -274q-34 -68 -76 -143q-48 -87 -48 -149 q0 -18 3 -34q-56 -75 -84 -111q-118 54 -118 114q0 36 52 126q-1 5 -1 11q0 19 6 52q27 59 145 259l100 168q34 60 180 223q132 148 197 238q0 20 13 55q-16 10 -72 10q-4 0 -142 -23l-142 -22q-3 0 -16 3t-18 3q-3 0 -23 -8q-19 -8 -21 -8q-3 0 -33 -8t-35 -8q-3 0 -17 8 t-17 8q-12 0 -55 -16l-59 -22q-125 -34 -239 -34q-54 0 -102 34q-47 34 -47 74z" />
<glyph unicode="8" horiz-adv-x="1653" d="M56 415q0 72 41 162t92 129q31 25 204 105v23q-99 36 -186.5 131.5t-87.5 168.5q0 113 126 185q31 3 82 23q49 45 144 123q33 21 138 45l28 20q3 0 46.5 9t47.5 9q3 0 23.5 -3t24.5 -3q3 0 87 15.5t86 15.5q3 0 43.5 -8t44.5 -8q2 0 36 3q35 4 40 4q70 0 229 -63 q159 -62 192 -103q20 -23 49 -89.5t29 -86.5q-22 -85 -22 -89q-13 -14 -31 -33q-25 -86 -151 -147l-198 -96q3 -19 137 -62q43 -14 102 -81q59 -69 59 -105q-2 -11 -13 -55q-13 -44 -16 -66q-9 -66 -69 -120q-61 -44 -120 -90q-50 -20 -66 -29q-45 -26 -64 -70q-13 1 -24 1 q-22 0 -31 -4q-121 -54 -243 -100q-26 -4 -128 -30q-86 -22 -100 -22q-16 0 -83 4l-83 5q-104 6 -173 43q-115 61 -165 110q0 18 -14 48q-63 56 -63 181zM233 391q0 -37 1 -41q24 -36 75 -99q73 -57 218 -57h101q148 0 414 106q323 128 323 265q0 70 -198 126 q-154 44 -220 44q-310 0 -469 -65q-100 -40 -172 -123q-73 -82 -73 -156zM355 1010q21 -9 58 -27q75 -47 167 -62q62 -9 227 -9q91 0 367 81q47 29 121 62q171 75 171 151q0 53 -97 113q-40 25 -187 97q-26 5 -56 10q-82 11 -97 11l-86 5l-67 2h-13q-93 0 -236 -51 q-48 -18 -85 -42q-145 -94 -187 -341z" />
<glyph unicode="9" horiz-adv-x="1127" d="M63 1091q0 53 55 105q158 150 526 150q180 0 336 -124q34 -27 41 -73q11 -12 32 -31q25 -61 27 -66v-196q0 -4 -19 -41t-19 -41q0 -38 -31 -122q-109 -169 -186 -251q-50 -54 -124 -126q-55 -53 -208 -172q-25 -20 -105.5 -52t-106.5 -32q-23 0 -48 17t-25 31q0 11 27 34 l43 37q36 32 297 273q26 23 107 100q42 52 87 120q-9 21 -44 21q-11 0 -101 -18q-31 0 -112 24q-129 39 -183 64q-105 46 -180 124q-25 26 -55.5 112t-30.5 133zM250 1010q0 -51 113 -124q103 -66 151 -73q104 -2 196 -12q63 -7 115 -54q20 27 44 69q32 122 32 161 q0 117 -94 156q-88 35 -106 35q-184 0 -250 -13q-58 -13 -129.5 -63t-71.5 -82z" />
<glyph unicode=":" horiz-adv-x="542" d="M111 145q0 21 22 62q27 51 58 51q109 -16 131 -16q54 -51 54 -143q0 -23 -6 -50q-100 -49 -162 -49q-7 0 -38 24q-33 26 -37 27q-22 52 -22 94zM212 649q0 3 6 31q5 26 5 29q10 2 35 13q30 11 48 11q54 0 97.5 -34t43.5 -75q0 -125 -107 -125q-41 0 -85 52q-43 52 -43 98 z" />
<glyph unicode=";" horiz-adv-x="611" d="M-80 -267q26 45 84 124q41 39 131 128q22 21 71 97q16 8 40 27q32 41 117 140q30 35 77 35q1 0 43 -23.5t48 -24.5q0 -6 16 -68q0 -37 -65 -108q-202 -218 -326 -293q-91 -82 -135 -82q-40 0 -101 48zM319 527q0 78 98 120h40q24 -38 63 -67q24 -17 24 -65q0 -16 -14 -82 q-64 -35 -72 -35q-49 0 -80 9z" />
<glyph unicode="&#x3c;" horiz-adv-x="1004" d="M66 652v5q102 46 170 84q143 81 367 201q85 45 205 125q126 83 137 83q48 0 94 -44t46 -89q0 -25 -3 -34q-66 -52 -399 -233q-287 -155 -287 -180q0 -9 170 -148q228 -187 272 -228q80 -72 80 -112q0 -109 -72 -109l-36 15.5t-44 15.5q-5 0 -13 -3.5l-8 -3.5 q-13 0 -52 48q-46 55 -69 74q-141 122 -304 240l-115 61q-85 52 -117 104q-22 36 -22 128z" />
<glyph unicode="=" horiz-adv-x="1116" d="M78 284q0 73 41 84q186 11 186 13h-3q4 0 52 -8t51 -8l382 39l70 -5q44 -2 88 -3q51 -6 84 -28q41 -27 41 -53q0 -73 -201 -111q-53 -8 -232 -39q-40 -21 -114 -27q-11 -1 -25 -1q-38 0 -99 5l-73 5q-248 16 -248 137zM180 578q0 64 18 82q18 19 83 19q74 0 187 -3 l191 -5q2 0 24.5 8.5t26.5 8.5q3 0 22 -9q20 -8 24 -8q3 0 39.5 8.5t40.5 8.5q21 0 152 -13q33 -10 106 -30q12 -8 12 -39q0 -145 -770 -145q-156 0 -156 117z" />
<glyph unicode="&#x3e;" horiz-adv-x="991" d="M25 81q0 17 38 73.5t59 73.5q84 69 210 163q24 18 195 106q97 50 166 116q-79 83 -243 242q-30 15 -68 46q-19 21 -148 142q-56 52 -56 132q0 92 51 92q44 0 249 -193q134 -127 322 -311q42 -28 118 -90q41 -42 41 -113q0 -39 -222 -171q-21 -6 -54 -21 q-215 -111 -375 -241q-10 -24 -41 -63q-114 -98 -131 -98q-22 0 -62 9q-11 4 -30 44.5t-19 61.5z" />
<glyph unicode="?" horiz-adv-x="1234" d="M111 1396l11 95q51 23 254 111q31 14 223 53q192 40 226 40q132 0 170 -12q210 -67 210 -248q0 -165 -228 -320l-425 -237q-226 -125 -226 -223q0 -30 14 -60q4 -7 4 -59q-12 -10 -45 -10q-80 0 -121 82q-29 56 -29 110q0 81 21 128q26 58 132 119q80 45 315 177l30 5 q88 54 195 124q174 114 174 161q0 51 -90 60h-122q-6 0 -33 -6t-29 -7q-151 -9 -223 -37q-46 -19 -179 -81q-110 -52 -122 -52q-36 0 -71 30q-36 31 -36 57zM212 82q0 79 35 133l108 12q11 0 44 -33q41 -39 58 -51q-19 -16 -40 -91q-17 -58 -57 -58q-2 3 -41 21l-56 4 q-51 38 -51 63z" />
<glyph unicode="@" horiz-adv-x="1660" d="M59 442q0 13 24 94q1 30 15 83q75 127 225 272q34 32 232 126q25 17 77 42q67 21 176 57q144 62 433 62q69 -19 107 -38q104 -51 155 -135q1 -7 7 -40q11 -14 31 -33q39 -212 42 -212v2q0 -34 -18 -82v-10q0 -24 -5 -64q-30 -81 -103 -134q-74 -55 -161 -55 q-90 0 -197 53q-87 43 -87 51q1 1 4 1q1 0 1 -1q0 -3 -148 -47q-164 -49 -199 -49q-62 0 -84 12q-45 24 -72 103q-25 71 -25 108q0 65 84 163v28q-21 -6 -59 -21q-35 -19 -90 -60q-115 -128 -130 -149q-48 -70 -48 -155q0 -71 25.5 -104.5t129.5 -99.5q67 -42 236 -42 q4 0 152.5 28.5t152.5 28.5l18.5 -4t24.5 -4q3 0 72 16t72 16q60 0 60 -52q0 -42 -50 -72q-32 -19 -135 -55q-87 -31 -103 -31q-3 0 -37 -4.5t-39 -4.5q-1 0 -120 -8l-119 -8q-23 -1 -46 -1q-202 0 -343 114q-138 112 -138 315zM722 623q9 -1 19 -1q37 0 105 35l90 48 l-22.5 6t-29.5 6q-46 0 -149 -59q-3 -13 -13 -35zM853 914q243 -21 314 -139q34 -56 38 -94q-23 -21 -23 -54q0 -55 51 -55q90 0 144.5 64t54.5 169q0 89 -75 141.5t-200 52.5q-180 0 -304 -85z" />
<glyph unicode="A" horiz-adv-x="1674" d="M25 135q0 66 12 84q36 39 72 79q51 60 80 120q2 4 2 9q0 -4 -1 -4q-3 0 -15 68q-2 9 -2 16q0 29 22 46l76 34q72 33 91 62q5 4 83 135q24 21 65 68q100 168 294 473q4 19 15 53l133 224q0 15 5 45l70 96q28 10 28 12h-1q88 0 139 -153q0 -1 51 -158q34 -105 65 -218 q32 -208 69 -369q30 -130 128 -360q12 -17 49 -75q35 -55 35 -75q0 -80 -97 -80h-80q-8 0 -61 36q-61 40 -73 44q-119 51 -242 75q-282 56 -451 56q-18 0 -36 -15l-19 15q-84 -5 -153 -149q-28 -30 -73 -89q-4 -21 -14 -54q-10 -22 -37 -65q-43 -35 -121 -102q-36 23 -70 44 q-38 30 -38 72zM608 670q6 -5 170 -30q118 -6 338 -36q62 -27 89 -27h36q10 18 10 24q0 5 -24 55l-26 53q-31 140 -75 367q-4 7 -13 15q0 37 -5 97q-5 27 -20 98q-13 55 -59 93q-42 -54 -103 -199q-7 -28 -38 -62l-52 -56q-45 -89 -127 -225q-16 -12 -39 -38 q-7 -19 -62 -129z" />
<glyph unicode="B" horiz-adv-x="2075" d="M25 1310q0 65 34 83q151 87 493 200q24 3 64 7q489 135 845 135q1 0 35 -7.5t39 -7.5q114 0 290 -103q69 -105 69 -146q0 -127 -134 -245q-60 -53 -305 -206q0 -18 46 -25q78 -12 83 -14q32 -16 35 -21q5 0 12 5q8 3 11 3q13 0 36 -13q84 -13 191.5 -106.5t125.5 -173.5 q11 -51 11 -89t-31 -84q-26 -17 -69 -56q-14 -24 -41 -57q-272 -164 -330 -164q-10 0 -29 17l-24 -24q-24 -24 -31 -24t-14.5 4.5t-8.5 4.5q-12 0 -31 -32h-81l18 18q-13 14 -46 14q-26 0 -57 -15q3 -2 27 -23q-103 -59 -135 -59q-2 0 -14 4q-14 4 -18 4q-3 0 -41 -17 q-39 -16 -42 -16q-37 0 -48 25q-33 -25 -38 -25q-2 0 -15 4.5t-17 4.5q-37 0 -37 -30q0 -6 4 -17l-476 -106q-90 22 -100 26q-52 19 -69 61q2 12 2 28q0 32 -5 80q-32 117 -32 308q0 3 -5.5 44.5t-5.5 44.5q0 87 21 234q0 12 -7 32q11 43 32 198q20 146 20 164q0 29 -18 54 q-33 -9 -78 -9q-111 0 -111 108zM389 245q20 -75 66 -75q13 0 106 25q112 30 143 36q402 78 833 239q19 15 47 36q180 77 180 141q0 152 -566 152q-4 0 -71.5 -19.5t-70.5 -19.5q-8 0 -214 -38q-117 -23 -197 -23q-2 0 -31 -6q-28 -7 -31 -7q-20 3 -73 15q-45 9 -79 9 q-10 0 -19 -1q-7 -41 -23 -114v-350zM399 1297q9 -37 27 -101q19 -67 19 -75q-11 -60 -11 -67v-1q0 -6 -7 -78v-12q0 -33 20 -51h31q9 0 93 26q64 20 122 33q21 12 49 27q21 0 56 6q266 92 340 122q200 80 360 185q172 112 172 149q0 28 -95 54q-74 19 -120 19 q-460 0 -1056 -236zM1101 135q7 -10 10 -21h35l-10 39q-16 -6 -35 -18zM1465 271q0 -7 24 -29q0 19 14 31h-37q-1 -1 -1 -2z" />
<glyph unicode="C" horiz-adv-x="2142" d="M36 590q0 65 59 200q26 60 151 175q168 155 306 218q447 205 703 257q20 9 75 25l316 47q2 0 51 15t53 15q54 0 99 -36t45 -80q0 -28 -23 -66q-19 -16 -55 -33q-80 -2 -241 -23q-55 -19 -113 -34q-83 -19 -277 -66q-201 -49 -599 -272q-63 -34 -122 -70 q-112 -69 -176 -213q-10 -24 -10 -110q0 -97 117 -179q103 -73 226 -96q11 -2 79.5 -19t72.5 -17l57 4q56 4 81 4q10 0 66 -9l58 -8l90 13q84 13 112 14l821 54h4q36 0 44 -33q1 -5 4 -68q-15 -13 -50 -34q-362 -105 -505 -105q-3 0 -31 6q-28 7 -31 7q-2 0 -38 -14t-41 -14 q-69 -2 -278 -14q-37 -13 -48 -13q-4 0 -20 8t-18 8q-6 0 -36 -11t-31 -11q-12 -2 -88 -2q-88 0 -206 26q-62 14 -201 42q-54 9 -54 44v3q-92 35 -133 66q-146 110 -244 272q0 30 -5 82q-12 48 -15 51q-1 -1 -1 -6z" />
<glyph unicode="D" horiz-adv-x="2171" d="M25 1435q0 51 79 95q31 17 197 63q223 61 323 61h707q1 0 61 -15t70 -16q88 -7 170 -21q161 -29 343 -145q192 -123 241 -243q14 -27 36 -87q27 -80 27 -99v6q-2 0 -14 -143q-7 -8 -22 -24q4 -5 4 -11q0 -73 -86 -145l-27 -14q-18 -11 -18 -19q0 8 -20 24 q-25 -16 -60 -44q10 -6 27 -14q0 -7 -43 -46q0 -2 -1 -2q-7 5 -26 35h-26q-30 -25 -89 -78q12 -12 28 -12q17 0 23 7q-35 -61 -73 -64q-4 6 -17 21q10 3 28 16v23q-4 6 -18 6l-350 -185q-3 0 -10 3q-6 4 -9 4q-7 -2 -25 -15l-236 -79q-130 -43 -173 -96q15 -12 32 -12 q6 0 63 18q57 16 64 16q17 0 35 -5q-80 -34 -235 -100q-19 0 -57 -5q-103 -39 -206 -67q-323 -90 -472 -90q-25 0 -77 26q-54 27 -73 51q-19 25 -19 67q0 44 90 80q3 0 12 -3q8 -5 11 -5q15 0 40 15q96 10 147 20q78 15 122 34q-48 403 -48 464v2q1 10 20 185q24 221 26 292 q2 13 16 33q-5 12 -5 26q0 10 2 22q0 6 39 154q13 3 34 16q-27 19 -48 19q-5 0 -217 -48l-216 -48q-27 0 -67 44q-34 38 -34 52zM665 1442q0 -26 18 -52q20 -15 42 -39q21 -68 21 -119v-6q-1 -20 -21 -183q-24 -195 -28 -272l-15 -323q0 -8 28 -173q25 -8 32 -8 q53 0 418 137q313 116 434 173q209 98 400 270q88 80 88 142q-12 102 -12 103q-7 3 -10 11q-22 95 -175 207q-97 70 -207 98q-162 41 -534 65q-33 12 -38 12q-14 0 -39 -15q-189 0 -402 -28zM822 114q59 11 81 11h4q-3 0 -26 7q-23 5 -26 5q-33 0 -33 -23zM1253 203 q0 22 32 22v-2q0 -6 -32 -20zM1365 258v32l52 -8q0 -7 -52 -24zM1444 291q16 49 100 74l122 39q14 -13 24 -13q-1 0 -44 -19q-38 -17 -45 -17q-46 0 -53 -5q9 -6 30 -6q-33 -21 -134 -53zM1718 415q55 25 55 30h-4l7 -8q-6 0 -24 -15q0 -5 8 -7h-42z" />
<glyph unicode="E" horiz-adv-x="2012" d="M45 106q0 5 44 135q48 144 64 201l53 185q-1 -1 -2 -1q-5 0 -44 65q-1 23 -21 72q52 32 128 99q14 20 73 235v-3q-3 7 -3 50l14 16q12 13 12 23q0 19 -41 41q-38 20 -65 20h-5q-20 72 -20 100q0 52 59 74q120 44 301 44q4 0 13 -5q8 -4 9 -4q4 0 61 22q244 11 642 35 l401 24h1q27 0 165 -55q10 -3 73 -3q38 -3 59 -24q-59 -28 -96 -28q6 0 6 -1q-9 -5 -61 -15h2q-12 3 -79 3q-1 0 -26 -9t-29 -9q-83 -5 -223 -26l-283 -42q-2 0 -17.5 4t-20.5 4h1q0 -4 -577 -99q-80 -98 -111 -348q36 -21 90 -21q3 0 29 8q25 9 28 9q1 0 44 -14 q151 0 491 10l309 10h6q40 0 45 -20q8 -36 16 -75q-54 -38 -220 -79q-142 -35 -398 -35q-167 0 -480 -42q-36 -5 -45 -47l-12 -52q-69 -175 -69 -232v-46q14 -4 31 -8l769 105q23 0 136 6l16 2l115 8q10 0 32 -14q20 -2 148 -2q4 0 57 8t55 8q58 0 131 -28q18 -62 22 -65 q1 1 1 4q0 -32 -40.5 -65t-75.5 -33q-2 0 -25 5q-22 4 -28 4q-2 0 -47 -14.5t-49 -15.5l-421 -36q-137 -12 -497 -69l-316 -50q-20 0 -146 30q-118 27 -144 27h-3q-12 35 -12 39z" />
<glyph unicode="F" horiz-adv-x="1348" d="M28 609q13 33 35 82q29 68 72 68q1 0 23 -3q23 -3 29 -3q53 0 73 60q7 42 11 80q31 115 65 193q-7 10 -92 50q-67 30 -67 88q0 55 58 80q64 11 178 39q16 9 47 27q45 26 54 26q20 0 43 -14q1 0 26 3q23 3 28 3l516 59q123 0 127 -3q-18 -7 -35 -7q3 0 45 8t46 8 q2 0 29 -3t32 -3q4 0 28 7.5t27 7.5q114 0 114 3h-2q-29 2 -38 2q80 0 265 -43q50 -46 50 -94q-7 -54 -7 -57q-142 12 -418 12q-2 0 -23 -8q-20 -9 -25 -9q-2 0 -30 5q-27 4 -32 4q3 0 3 -1t-62 -14q-48 -10 -251 -28q-4 0 -39.5 -10t-40.5 -10q-4 0 -22 3t-22 3 q-28 -6 -242 -68q-19 -6 -49 -76q-7 -27 -21 -78q-34 -82 -69 -185v-54q34 -2 75 -2q133 0 334 26q99 13 418 27l18 -17q31 17 54 17h-1q0 -3 42 -26v-28q0 -14 -20 -65q-43 -5 -155 -21q-158 -25 -158 -30h8q-5 0 -20 3q-15 4 -18 4q-5 0 -30 -18q-24 -19 -25 -20 q-17 -5 -300 -49q-19 -3 -67 -14q-44 -10 -51 -10q-37 0 -143 -6q-20 -7 -42 -33q-19 -147 -37 -290q1 -11 1 -26q0 -31 -2 -80q-4 -91 -62 -91q-7 2 -30 12q-88 14 -133 54l56 453z" />
<glyph unicode="G" horiz-adv-x="2228" d="M26 588q0 128 43 237q30 75 129 246q106 131 178 185q133 102 327 220q55 16 167 54q44 22 141 60q358 83 403 83q5 0 28 -8t24 -8q3 0 20.5 4t21.5 4q134 0 134 -114q0 -104 -59 -104q-3 0 -81 11.5t-84 11.5q-53 0 -187 -38q-53 -6 -161 -29q-23 -16 -75 -42 q-191 -64 -392 -204q-248 -173 -318 -352q-62 -94 -62 -181q0 -66 74 -150.5t167 -126.5q31 -27 101 -60q24 -5 172 -41q105 -25 170 -25h139q106 0 365 46q229 41 263 53l175 63q108 38 146 78q21 22 21 75q0 34 -30.5 81.5t-65.5 66.5q-53 36 -161 84q-69 16 -241 21 q-4 16 -31 34l-208 11h5q0 -2 -148 -18q-28 -3 -58 -30q-32 27 -32 64q0 25 32 45q58 35 92 42q203 37 348 37q33 0 62 -2q3 0 39 7.5t40 7.5q103 -31 111 -31h4q148 0 270 -100q180 -147 180 -410q0 -9 -17 -29q0 -34 -17 -88q-110 -133 -308 -184q-30 -8 -334 -83 q-24 0 -76 -6q-50 -21 -58 -21q-3 0 -25 8t-24 8h3q-9 -6 -65 -21q-122 -35 -211 -35q-420 0 -716 181q-71 55 -205 153q-145 219 -145 259z" />
<glyph unicode="H" horiz-adv-x="1642" d="M43 437q0 162 21 280q13 73 55 218q34 46 90 145q33 87 49 118q28 60 51 79q18 -18 79 -18l29 -159q0 -4 -52 -116t-52 -114v-54q26 -9 82 -14q7 -1 19 -1q20 0 55 3q63 4 65 4q11 0 29 -6l27 -9q26 -1 238 -1q129 13 155 13q17 0 84 -1l115 -2l132 -1q68 0 83 116 q4 33 11 97q11 75 39 154q49 133 132 251q19 27 66.5 67.5t61.5 40.5q9 -3 42 -21q41 -88 41 -137q0 -48 -59 -132q-147 -211 -190 -626q-9 -76 -35 -300q-13 -120 -19 -233q-4 0 -12 -9q-3 -36 -5 -70q-8 -36 -29 -59q-30 -10 -38 -10q-33 0 -86 74q-14 20 -14 63v19 l39 605q-5 2 -19 2q-7 0 -52 -20l-55 -25q-205 -51 -408 -51q-1 0 -61 4q-59 5 -64 5t-113 -11l-112 -12l-41 3q-42 4 -47 4q-92 0 -100 -13q-48 -80 -48 -180q0 -9 1 -19q1 -21 1 -41q0 -134 -44 -173q-137 17 -137 273z" />
<glyph unicode="I" horiz-adv-x="450" d="M59 303q0 790 159 1066q86 147 140 147q79 0 79 -161q0 -19 -45 -236q-49 -233 -80 -332q-1 -13 -27 -161q-40 -233 -108 -557q-13 -9 -49 -35q-19 15 -48 44q-21 36 -21 225z" />
<glyph unicode="J" horiz-adv-x="1607" d="M43 461q0 30 58 81h34q31 -60 76 -87q41 -18 129 -61q70 -44 215 -109q133 -40 219 -40h19q6 0 38 2q32 0 95 2l134 3q42 1 103 56q20 18 71 111l23 24q49 140 55 194q5 38 21 152v185q0 124 -40 426q-2 3 -31 62q-23 44 -23 72q0 49 15 59l84 63q68 -44 113 -222 q16 -66 40 -313q20 -228 20 -271q0 -55 -18 -78q13 -49 13 -102q0 -59 -64 -334q-28 -116 -112 -204q-126 -129 -416 -129q-285 0 -532 124q-136 68 -278 209q-61 60 -61 125z" />
<glyph unicode="K" horiz-adv-x="1541" d="M42 90q0 3 6 27q7 24 7 26v144q44 265 214 816q2 6 32 49q5 5 5 13q0 10 -7 23q25 85 34 104q36 75 108 122q10 -9 19 -9q11 0 19 9q58 -93 58 -164q0 -50 -39 -149q-99 -251 -121 -413q-14 -9 -34 -39q-49 -206 -131 -604q-35 -23 -111 -60zM399 675q5 8 34 43 q3 17 17 48q46 59 267 203q20 20 58 53q47 30 289 169q51 16 141 53q73 45 175 104q167 96 220 96q27 0 46 -43q13 -31 13 -46q0 -80 -24 -94q-134 -80 -585 -345q-43 -23 -167 -94q-214 -126 -214 -191q0 -40 96 -95q77 -44 115 -55q255 -72 587 -178q43 -14 43 -52 q0 -88 -177 -88q-78 0 -182 29q-35 3 -95 12q-445 125 -585 323q-38 54 -47 99q-19 49 -24 52q-1 0 -1 -3z" />
<glyph unicode="L" horiz-adv-x="1888" d="M35 192q31 117 31 140q4 30 12 95q36 100 100 297q14 20 41 66q44 118 118 292q27 63 232 434q17 9 42 33l72 102q51 70 94 70q23 0 47 -28l23 -114q0 -15 -4 -43q-31 -38 -86 -104q-14 -39 -101 -192q-20 -23 -48 -65q-73 -150 -202 -445q-10 -39 -28 -104 q-30 -45 -69 -129q-41 -140 -41 -177q0 -74 210 -74q18 0 320 31l321 32q2 0 34 -5q32 -4 35 -4q4 0 57 13t55 13h-3q0 -1 163 -6q187 -6 233 -6l163 -48v-45q-38 -20 -99 -71q-91 -28 -129 -28q-107 0 -397 -32q-301 -35 -397 -43q-72 -19 -131 -26q-146 -18 -290 -18 q-81 0 -207 42q-64 21 -104 56q-67 60 -67 91z" />
<glyph unicode="M" horiz-adv-x="1954" d="M36 182q0 45 180 362q170 299 303 503q2 18 15 50q93 128 280 386q6 1 12 1q54 0 106 -40q56 -45 56 -100v-195q-3 -2 -15 -16q-3 -14 -20 -290q-9 -159 -11 -159v2l10 -156q5 -6 19 -6q22 0 61 50q20 25 43 58q41 59 187 261q63 84 244 331q187 257 344 399 q30 36 87 102q41 -9 113 -35q16 -28 31 -55q29 -50 29 -54q0 -29 -39 -190q-40 -60 -72 -123q-27 -115 -63 -225q-19 -55 -75 -217q-17 -119 -38 -210q-57 -245 -57 -314q0 -2 18 -114t18 -115q-1 -8 -11 -45q-19 -12 -41 -12q-16 0 -59 31q-42 30 -55 52q-47 81 -47 259 q0 23 1 49q-7 27 -10 28q-1 0 -1 -3q1 6 9 43t12 63q30 231 139 532q-8 25 -10 25l48 148q-56 -36 -179 -202q-19 -43 -52 -103q-99 -175 -410 -581q-15 -19 -96 -93q-95 -87 -126 -87q-158 0 -158 457v407q-32 -16 -140 -174q-10 -24 -211 -413l-196 -378q-19 -36 -56 -36 q-117 0 -117 142z" />
<glyph unicode="N" horiz-adv-x="1749" d="M36 389l327 663q2 2 164 310q13 34 53 130q39 90 106 90q43 0 83 -40q54 -54 76 -102q80 -174 149 -376q7 -20 62 -235q8 -10 22 -30q41 -129 58 -176q41 -113 101 -209q29 33 90 155q86 170 162 350q32 122 118 367q18 23 48 60q2 21 8 54q15 26 48 83q25 18 60 57 q14 39 47 89q7 2 26 2q68 0 68 -59q0 -24 -70 -187v-10q0 -28 -8 -72l-38 -114q-34 -70 -86 -191q-17 -39 -55 -178q-6 -46 -25 -129l-109 -240q-64 -139 -78 -236q-35 -88 -35 -104q0 -15 9 -26q-17 -6 -79 -34q-53 -24 -60 -24q-19 0 -59.5 24t-51.5 43q-63 102 -228 507 q-11 56 -48 170q-15 24 -39 81q-3 54 -16 104q-23 88 -125 296q-46 -18 -87 -118q-30 -72 -107 -259q-60 -98 -171 -306q-29 -78 -99 -235q-31 -25 -62 -71q-15 -3 -28 -3q-38 0 -79.5 45.5t-41.5 83.5z" />
<glyph unicode="O" horiz-adv-x="2180" d="M25 735q0 3 14 45q13 43 13 48q7 68 13 114q37 52 80 122q36 58 210 239q7 8 58 24q13 10 45 34q10 5 207 71q47 15 104 33q396 60 599 60q415 0 682 -189q176 -125 176 -402q0 -57 -8 -123q24 -10 24 -27l-64 -103q0 -5 10 -16v1q-4 0 -44 -97q-13 -13 -31 -33 q-105 -171 -546 -394q-98 -50 -316 -111q-248 -70 -360 -70q-63 0 -244 61q-385 130 -514 320q-108 158 -108 393zM194 720l14 -9q-3 -20 -3 -41q0 -231 232 -368q208 -123 482 -123t685 217q461 242 461 489q0 4 9 33.5t9 31.5q0 85 -80 192q-46 60 -219.5 133t-272.5 73 q-3 0 -38.5 -4.5t-38.5 -4.5q-7 0 -69 12.5t-63 12.5q-4 0 -39 -12q-34 -13 -35 -13t-101 -7l-100 -7h-2q-5 0 -25 7q-22 7 -26 7q-13 -5 -76 -38q-54 -13 -198.5 -48t-211.5 -93q0 -3 11 -39q0 -21 -86 -78q-73 -30 -146 -137t-73 -186z" />
<glyph unicode="P" horiz-adv-x="1434" d="M42 1270q0 11 28.5 58t41.5 55q39 18 111 57q12 2 38 7q50 38 186 71q193 47 328 65q187 23 243 23q121 0 358 -76q42 -13 56 -45q19 -2 55 -15q31 -28 75 -88q52 -102 52 -139q0 -89 -34 -134q-204 -274 -820 -457q-4 -8 -19 -20q-54 -17 -308 -87q-73 -21 -89 -72 q0 -39 -1 -82q-4 -151 -34 -277q-7 -59 -25 -108h-34q-23 12 -53 54t-36 69l-1 198q-12 138 -66 182q-4 2 -4 48q0 47 22 51q39 7 68 60q14 68 43 200q12 20 31 64q51 236 145 348v3q0 15 -31 15q-35 -12 -177 -82q-8 -4 -23 -28q-39 -18 -47 -18q-37 0 -79 100zM399 742h58 q28 0 490 172l40 23q83 44 398 236q41 79 41 86q0 67 -145 123q-121 47 -187 47q-92 0 -262 -20q-55 -15 -141 -34q-84 -3 -285 -72q113 -41 113 -105q0 -38 -92 -281q-5 -58 -28 -175z" />
<glyph unicode="Q" horiz-adv-x="2161" d="M46 754q0 186 68 347q69 161 180 233q23 14 99 36q72 21 88 21q2 0 24 -13.5t25 -13.5q24 17 98 71q108 81 173 101q178 57 338 57q5 0 29 -9q33 7 75 7q22 0 50 -1q-1 -2 -1 -4q0 -10 17 -10q8 0 12 14q23 3 130 3q222 0 355 -53q204 -82 320 -305q0 -13 5 -39 q30 -65 30 -161q0 -210 -84 -416q-25 -62 -128 -171q-87 -93 -93 -103q0 -5 84 -106t84 -107q0 -17 -16 -42q-15 -26 -27 -26q-2 0 -17 8.5t-20 8.5q-28 0 -268 149q-38 -16 -107 -48q-115 -53 -181 -78q-320 -120 -344 -120q-20 -1 -113 -8l-116 -9q-27 0 -166 32 q-69 16 -160 40q-93 44 -153 119q-13 6 -31 12q-174 165 -230 434q-5 18 -17 80q-12 53 -12 70zM197 780q0 -365 284 -520q4 -1 7 -1q5 0 8 1q132 -74 350 -74q118 0 198 21q44 23 130 56q101 21 296 112q17 13 17 37q-94 70 -263 212q-12 31 -46 80q-3 5 -3 26 q0 107 52 107q27 0 127 -65q29 -35 183 -166q124 -103 147 -103q93 0 290 274q6 9 36.5 98t30.5 102q0 157 -62.5 240.5t-221.5 139.5q-142 51 -154 51h-238q-3 0 -25 10q-21 8 -24 8q-9 -2 -47 -18q-43 -3 -244 -3q-1 0 -22 -12q-21 -11 -25 -11q-1 0 -8 4q-8 5 -11 5 q-18 0 -107 -37q-93 -39 -153 -83q-139 -103 -242 -273q0 -6 -20 -66q-8 -25 -8 -46q0 -16 4 -29q-17 -33 -27 -58v-6q0 -17 13 -73q-9 -32 -26 -76q-8 4 -25.5 42t-17.5 49v248l16 72q17 72 18 89q-19 0 -40 -11q-88 -113 -115 -170q-32 -70 -32 -183z" />
<glyph unicode="R" horiz-adv-x="1690" d="M69 1193q0 107 59 174q41 46 181 142q15 10 260 58q251 47 342 47q200 0 382 -18q13 -11 44 -20q95 -1 224 -105t150 -195q0 -2 14 -31t14 -32q0 -4 7 -45q6 -43 6 -47q0 -85 -120 -253q-24 -34 -159 -99q-32 -39 -125 -96q-69 -21 -197 -67q-43 -25 -126 -65 q-13 -3 -203 -33q-152 -24 -152 -62q0 -35 131 -128q107 -76 146 -93q107 -47 356 -161l172 -57q115 -52 118 -124q-18 -33 -54 -33q-1 0 -40 7.5t-47 7.5q-138 0 -254 53q-7 1 -227 104q-45 28 -135 87q-74 48 -107 91q-13 1 -36 7q-33 51 -184 143q-127 79 -127 125l38 95 q199 43 506 118q31 6 152 35q78 19 272 150q243 165 243 274q0 97 -85 177.5t-208 99.5q-57 23 -69 23q-20 0 -74 1q-66 1 -107 1l-122 1q-14 0 -14 -3q0 -10 -3 -13q-28 1 -51 1q-69 0 -91 -6q-49 -15 -162 -62q-57 -15 -142 -40q-74 -33 -84 -65q-59 -192 -80 -455 q4 -54 4 -165v-38q-7 -16 -21 -51q-21 -95 -21 -167q0 -19 1 -36l6 -63q3 -38 3 -110q0 -156 -59 -156l-42 15q-43 16 -50 16q-21 111 -21 370q0 10 17 164q22 210 41 335q21 68 43 162v48q-15 15 -19 16l-31 -15q-30 -14 -37 -14q-19 0 -35 36q-11 23 -11 39z" />
<glyph unicode="S" horiz-adv-x="1333" d="M-4 109v5q17 13 49 31q582 133 877 256q204 86 204 144q0 46 -76 92q-29 16 -111 65q-94 58 -223 109q-201 81 -231 95q-63 31 -235 159q-218 163 -218 232q0 12 31 46l46 53l68 28q22 9 84 34q99 25 394 61q88 11 187 21q174 18 295 18q251 0 251 -100q0 -78 -107 -78 q-6 0 -82 8l-80 8q-11 0 -90 -8l-103 -13h-22h-39q-57 3 -69 3q-30 -3 -225 -24q-69 -15 -195 -33q-53 -3 -101 -35q9 -19 30 -52q52 -43 166 -127q45 -27 157 -76q21 -17 65 -44l21 -8q161 -62 425 -190q98 -47 159 -133t61 -175q0 -53 -59 -98q-87 -67 -104 -89 q-39 0 -73 -4q-68 -47 -76 -47l-8 4q-7 4 -14 4q-37 0 -183 -59q-113 -46 -271 -81l-16 -15q-16 -14 -32 -14q-3 0 -20 4t-22 4q-3 0 -123 -28t-125 -28q-75 0 -159 -16q-27 11 -54 44q-24 29 -24 47z" />
<glyph unicode="T" horiz-adv-x="1579" d="M104 1342q0 64 50 72q29 4 289 41l589 34q10 1 75 17q66 16 67 16t32 -16q32 -17 37 -17l922 42q5 0 88 -20q86 -22 88 -22q3 0 19 4.5t19 4.5q67 0 107 -59q-19 -46 -123 -46l-236 -1q-3 -1 -132 -19q-83 -12 -93 -12q-4 0 -19.5 8.5t-17.5 8.5q-226 -23 -281 -23 q-11 0 -222 -21q-74 -8 -102 -16q-58 -18 -82 -60q-86 -152 -160 -546q-17 -91 -33 -216q-3 -26 -11 -97q-21 -44 -48 -136v-8q0 -56 -25 -156q-48 -83 -97 -83q-95 0 -95 80q0 8 33 111q3 24 15 127q9 13 23 42q3 68 7 88q9 48 31 66v15q0 114 53 287l149 483 q-16 13 -33 13q-232 0 -374 -18q-66 -8 -239 -46q-152 -32 -160 -32l-88 36q-22 38 -22 74z" />
<glyph unicode="U" horiz-adv-x="2095" d="M35 870l12 13q-4 54 -7 80q18 94 86 248q100 223 197 223l77 -59q-17 -21 -22 -74q-66 -41 -90 -105l-41 -113q-42 -84 -42 -174q0 -223 28 -323q16 -61 72 -156q40 -69 108 -119q88 -65 114 -77q37 -17 110 -17h118q36 0 242 71q202 69 225 85q48 31 181 120 q90 79 273 231q23 41 132 200q44 65 91 173q41 95 41 117v200q0 87 -1 92q-2 -5 -3 -31q3 49 57 49q5 0 86 -33q0 -16 10 -73l11 -58q0 -5 -10 -26q-9 -23 -9 -24q0 -91 4 -94q2 2 3 4q-18 -78 -76 -210q-69 -158 -86 -209q-10 -12 -28 -32q-8 -47 -27 -78 q-59 -69 -170 -204q-52 -42 -152 -115q-3 -7 -14 -39q-46 -28 -176 -109q-114 -71 -208 -97q-12 -18 -45 -44q-119 -50 -208 -50q-12 -1 -70 -5l-73 -4q-136 0 -318 75q-202 82 -250 177q-109 216 -127 332q-25 155 -25 262z" />
<glyph unicode="V" horiz-adv-x="1334" d="M86 1419q0 28 13 31q39 12 52 12q83 0 97 -15q22 -21 55 -161q3 -3 11 -16q30 -115 87 -221l118 -289q23 -40 71 -120q19 -74 104 -247q17 0 29 14q2 27 30 104q29 58 125 234l17 32q80 147 208 344q82 127 298 346q114 117 156 117q19 0 54 -28q36 -29 36 -44 q0 -26 -131 -184q-20 -7 -27 -16q-11 -50 -81 -80q1 -5 1 -9q0 -23 -31 -51q-16 -15 -59 -54q-31 -44 -93 -96q-4 -30 -52 -103q-21 -15 -50 -49q-7 -27 -26 -75q-19 -18 -46 -62q-7 -45 -38 -138q-18 -12 -39 -39q-18 -68 -114 -368q0 -30 -3 -95q-19 -7 -114 -66 q-7 1 -40 9q-48 72 -131 212q-63 135 -163 356q-21 46 -85 218q-17 25 -49 81q-11 13 -48 84q-3 29 -14 81q-44 45 -44 113z" />
<glyph unicode="W" horiz-adv-x="1888" d="M35 1217q0 29 41 65l36 -12q28 -14 66 -56q33 -78 55 -212l28 -173q4 -26 9 -51q33 -104 93 -320q20 -70 42 -106h3q21 0 43 37l66 108l61 135q32 15 63 85q50 115 73 151l128 208q23 21 67 21q76 0 137 -132q14 -12 29 -41q21 -61 64 -168q8 -19 105 -202q31 -79 41 -99 q26 -53 53 -77q21 0 30 15q133 225 398 597q13 31 50 89q77 122 215 301q20 21 64 90q39 62 81 81q0 1 1 1q3 0 30 -45q-82 -130 -170 -267q-29 -34 -44 -73q-28 -69 -80 -150q-155 -239 -215 -362q-9 -18 -41 -102q3 -6 3 -14q0 -6 -3 -13q-87 -134 -116 -185 q-53 -96 -73 -177q-23 -9 -59 -32q-12 -31 -72 -77q-16 10 -39 27q-79 125 -193 358q-41 129 -84 223q-34 30 -74 163q-2 13 -32 29q-55 -21 -56 -68q-43 -121 -121 -212q-1 -3 -1 -5q0 -8 15 -8q-61 -68 -69 -107q-22 -108 -84 -203q-44 -69 -111 -167q-8 -12 -104 -52h-29 q-32 32 -74 99q-25 62 -56 197l-45 198q-33 79 -50 136q-29 98 -67 339q-28 178 -28 215z" />
<glyph unicode="X" horiz-adv-x="1777" d="M35 230q0 89 23 117q46 61 74 152q69 70 206 198q41 30 169 120q135 94 135 120q0 23 -183 139q-124 78 -263 185q-22 27 -22 87q0 10 1 22q19 15 89 33l547 -363q31 8 84 43q78 51 96 59q205 84 540 251q17 0 48 3q67 33 156 33q159 0 159 -74q0 -34 -44 -78 q-151 -15 -257 -53q-41 -26 -85 -44q-538 -218 -538 -269q0 -13 84 -83l144 -122q18 -33 62 -93q38 -26 108 -90q7 -11 35 -65q21 -15 58 -57q45 -69 143 -209q24 -11 53 -42q13 -29 13 -68q0 -19 -31 -42.5t-53 -23.5q-11 3 -69 20l-13 24l-322 388q-169 204 -313 336h-10 q-107 0 -250 -105q-188 -104 -311 -242q-58 -65 -111 -185q-13 -187 -65 -187q-46 0 -70 73q-17 53 -17 92z" />
<glyph unicode="Y" horiz-adv-x="1080" d="M60 1214q0 74 31 148h79q3 -7 55 -44l29 -215q57 -199 214 -199q131 0 395 196q94 70 364 267q40 29 76 29q28 0 62 -39q32 -35 32 -51q0 -36 -42 -87q-34 -42 -142 -148q-127 -125 -199 -206q-35 -41 -144 -161q-43 -47 -171 -184q-66 -93 -169 -259q-10 -15 -37 -80 q-18 -57 -29 -87q-30 -78 -65 -78q-18 8 -105 57q-1 8 -1 18q0 26 5 59q113 247 185 356q13 21 51 41q3 12 6 31q12 21 115 139q0 10 13 28q-13 14 -52 14q-2 0 -102 -20q-99 -21 -102 -21q-71 0 -142 46t-104 111q-66 134 -93 241q-13 49 -13 98z" />
<glyph unicode="Z" horiz-adv-x="1767" d="M36 191q0 70 62 115q59 33 116 67q13 18 47 52q39 26 152 104q42 31 167 123q186 83 448 269q183 131 225 164q68 54 194 177q-51 35 -387 35l-513 -47q-166 0 -228 36q0 7 -31 93q0 73 52 73q4 0 80 -11.5t79 -11.5l63 13q69 15 96 16.5t330 14.5l215 10q18 1 39 1 q107 0 249 -26q52 -16 110 -26q107 -16 107 -101q0 -84 -126 -192q-93 -80 -141 -110q-32 -18 -100 -64l-78 -59q-5 -3 -113 -80q-172 -122 -470 -314q-215 -138 -374 -266q44 -51 221 -51q15 0 153 8l154 9q-3 0 -3 1q0 2 49 12q80 10 301 38q103 13 312 13q107 0 148 -34 v-29q-25 -19 -79 -42l-280 -21q-69 -18 -204 -39q-8 -7 -28 -18q-93 -25 -208 -41q-150 -22 -226 -24l-36 -1h-272q-58 0 -230 42q-42 35 -42 122z" />
<glyph unicode="[" horiz-adv-x="863" d="M88 -72v-1q1 0 30 237q13 125 52 494q8 63 27 376q7 110 7 144q0 215 4 389q8 29 19 80q16 13 78 18l91 8q64 22 207 56q50 11 88 11t46 -13q36 -57 61 -128v-26q-139 -45 -342 -81q-30 -5 -48 -25q-2 -162 -13 -274q-2 -20 -25 -220q0 -139 -6 -268q-4 -83 -22 -304 q-16 -197 -16 -316v-38q72 -7 130 -7q53 0 96 6l227 32q32 0 43 -59q7 -41 10 -68q-84 -56 -246 -83q-57 -10 -216 -36q-19 0 -51 -6q-8 -3 -25 -3q-17 -1 -44 3l-56 6h-49q-57 0 -57 96z" />
<glyph unicode="\" horiz-adv-x="1466" d="M74 -91q0 52 55 212q50 143 66 173q57 107 134 241q52 92 316 467q87 125 229 308q25 33 272 274q153 150 187 150q17 0 38 -69q18 -59 18 -77q0 -56 -39 -102q-16 -16 -59 -65q-14 -30 -54 -82q-247 -221 -405 -436q-561 -763 -620 -1120h-93q-2 14 -25 64 q-20 44 -20 62z" />
<glyph unicode="]" horiz-adv-x="977" d="M46 -142v-5q0 36 17 80q69 28 283 46q94 8 104 8q56 -8 59 -8q56 0 56 20q-4 25 -4 73q31 110 60 257q5 221 49 518l88 605q0 6 -2 13q-40 31 -142 31q-37 -8 -39 -8q-16 0 -37 13l-135 15q-129 15 -129 133q0 88 76 88q0 -1 514 -42q85 -7 85 -207q0 -87 -79 -593 q3 -13 4 -43q-63 -501 -63 -691v-8v-12q0 -88 -10 -159q-25 -172 -36 -197q-27 -66 -110 -66l-178 21l-178 21q-3 0 -26 -4.5t-26 -4.5q-2 0 -51 5.5t-54 5.5q-10 13 -31 36q-21 10 -56 28q-7 29 -9 31z" />
<glyph unicode="^" horiz-adv-x="769" d="M73 1455q0 20 42 52q32 20 53 35q8 7 102 120q67 80 116 80q17 -9 65 -49l79 -67q3 -9 10 -24q76 -58 136 -127q38 -46 38 -74q0 -16 -8 -35q-2 -9 -38 -9q-54 0 -92 13q-167 172 -188 172q-1 0 -116.5 -101.5t-132.5 -101.5q-49 0 -59 31q0 -2 1 -2q2 9 2 58 q-10 24 -10 29z" />
<glyph unicode="_" horiz-adv-x="2764" d="M56 -237q43 -41 66 -47q44 -12 120 -12q49 8 105 15q50 2 357 2h27l56 -2h86l72 -3l71 -3l457 -3h38q251 0 530 17l256 16h214q112 0 125 -6q23 17 63 42v6q0 29 -24 112q-59 49 -289 49q-15 -1 -57 -3q-88 -4 -149 -6l-234 -7l-463 7q-8 0 -141 -1l-269 -1 q-36 -1 -77 -1q-82 0 -179 2q-88 2 -244 9q-39 8 -39 9h1h-260q-171 0 -210 -42q0 -6 -5 -75q-4 -34 -4 -74z" />
<glyph unicode="`" horiz-adv-x="737" d="M43 1577q0 70 39 70q21 0 102 -36l245 -110q74 -33 221 -104q28 -38 28 -59q0 -33 -28 -78q-254 66 -597 248q-10 6 -10 69z" />
<glyph unicode="a" horiz-adv-x="1119" d="M50 218q0 63 41 168q9 25 58 48l62 29q216 132 395 132q51 0 133 -30q24 -9 59 -69q36 -60 36 -89q0 -50 -59 -87q-123 69 -192 69q-74 0 -152 -37q-98 -46 -157 -101q7 -30 71 -30q-5 0 -5 1q0 7 133 48q158 50 235 50q21 0 149 -107q138 -116 197 -146q24 -21 24 -31 q0 -36 -21.5 -66t-48.5 -30q-39 7 -225 106q-107 56 -117 60q-42 0 -118 -34q-101 -45 -117 -51q-67 -22 -133 -22q-84 0 -206 112q-42 60 -42 107z" />
<glyph unicode="b" horiz-adv-x="1239" d="M42 69q0 14 53 46l54 32q0 16 -37 77q-22 37 -22 87q0 9 12.5 93t12.5 95q0 36 -50 79q0 6 -11.5 45t-11.5 42q0 32 103 95q6 63 15 117q59 333 139 590q20 62 100 88q42 -22 89 -164q-3 -13 -28 -87q-30 -85 -41 -121q-4 -51 -20 -190q-2 -8 -20.5 -77t-18.5 -70 q0 -51 95 -51q361 0 568 -57q68 -19 132 -96q65 -77 65 -139q0 -126 -229 -269q-202 -126 -328 -133q-12 -10 -46 -26q-39 -15 -159 -39q-275 -57 -326 -57q-31 0 -60.5 30.5t-29.5 59.5zM273 300q35 -106 35 -126h36q67 27 160 54q169 49 340 130q185 87 185 151 q0 54 -193 89q-140 25 -253 25q-77 -17 -89 -17h-1q-49 6 -75 6q-14 0 -22 -1q-56 -12 -73 -55q-1 -14 -10 -63q-35 -197 -39 -197q-1 0 -1 4z" />
<glyph unicode="c" horiz-adv-x="1105" d="M42 242q0 76 31 130q48 82 169 176q58 44 147 83q176 75 256 75q3 0 41.5 -4.5t42.5 -4.5q92 0 123 -22.5t31 -91.5v1q-2 0 -31 -60q-18 -12 -54 -12q-5 0 -28 4q-25 4 -28 4q-126 0 -395 -148q-66 -37 -91 -130q120 -86 253 -86h-1q0 1 128 9l126 8q3 0 98 15 q96 13 99 13q38 0 62 -18q2 -15 2 -30q0 -89 -101 -89q-3 0 -15.5 4t-15.5 4q-7 0 -59 -25q-59 -27 -70 -29q-166 -37 -239 -37q-6 0 -31 4q-9 1 -19 1q-11 0 -23 -1q-26 -13 -49 -13q-105 0 -205 60q-102 62 -131 144q-22 66 -23 66z" />
<glyph unicode="d" horiz-adv-x="1510" d="M50 323q0 50 59 120q96 116 353 168q16 8 38 20q104 15 216 39q78 18 234 18q263 0 287 3q7 189 38 455q-15 43 -17 130q4 16 4 81q0 41 -2 101v36q0 119 18 168q13 36 87 36q13 0 48 -18q11 -129 13 -129v6q0 -400 -14 -516q7 -70 7 -174q0 -131 -10 -311 q-23 -33 -65 -101l-38 9h1q0 1 -187 17l-187 16q-120 0 -319 -36q-217 -39 -249 -81q-3 -2 -57 -23q-54 -23 -54 -58q0 -13 33 -49q33 -35 59 -50q88 -49 202 -49q63 0 393 51l330 52h27q12 0 12 -20t-23 -58q-23 -37 -44 -47q-48 -23 -339 -98q-226 -58 -328 -58 q-8 -1 -30 -2q-24 0 -75 -2l-110 -3l-48 21q-25 1 -76 20q-71 51 -109 107q-26 39 -54 118q-24 71 -24 91z" />
<glyph unicode="e" horiz-adv-x="1040" d="M21 327q0 84 21 124q149 293 605 293q148 0 222 -68q58 -52 114 -129q7 -23 7 -67q0 -25 -2 -58q-8 -98 -43 -116q-54 0 -235 -24l-180 -24h1q0 -2 -94 -22q-11 9 -55 9l-15 -15q0 -28 211 -87q58 -3 132 -11q124 -15 124 -62q0 -13 -77 -52q-3 -3 -41 -40q-71 -7 -71 -9 h2q-5 0 -102 7l-105 8q-33 0 -108 35q-16 8 -87 45q-85 30 -154.5 112.5t-69.5 150.5zM319 451q0 -18 11 -18h317q111 0 131 33q-15 47 -22 76q-3 10 -55 36q-114 -10 -246 -33q-33 -5 -85 -40q-51 -35 -51 -54z" />
<glyph unicode="f" horiz-adv-x="1333" d="M36 333q0 18 29 53q30 36 49 41q64 19 77 19q2 0 10 -3t11 -3q54 0 73 11q47 30 52 129q28 549 478 854q57 39 132 46q47 9 113 18q20 3 173 3q150 0 266 -44q27 -5 101 -39q49 -33 59 -64q38 -120 38 -155q0 -43 -3 -57l-9.5 -10.5t-9.5 -18.5q0 -6 18 -6l-54 -7 q-10 0 -69 55q-74 68 -111 88q-105 58 -327 58q-5 0 -57 -10q-51 -12 -52 -12q-143 -16 -341 -211q-41 -41 -99 -191q-62 -162 -62 -258q9 -84 9 -95q29 -13 73 -13h-1q0 3 288 49q200 32 313 32q48 0 93 -27q-4 -26 -52 -68t-90 -57q-102 -12 -291 -46q-101 -37 -306 -107 q4 -44 40 -124q55 -60 55 -80t-28 -66.5t-41 -46.5q-74 0 -159 141l-84 141q-193 -40 -201 -40q-42 0 -72.5 37t-30.5 84z" />
<glyph unicode="g" horiz-adv-x="1073" d="M-521 -496q0 167 330 263q172 25 355 60q313 59 544 65q23 9 23 80v168q0 13 -2 13q-2 -3 -4 -8q-3 4 -5 23q-11 123 -78 228q-19 1 -35 1q-34 0 -55 -6q-174 -44 -216 -44q-3 0 -21 8t-23 8q-72 0 -128.5 42t-56.5 94q0 79 46 143q52 76 151 101q24 7 129 31 q83 28 256 28q36 0 63 -15q6 1 13 1q22 0 54 -5q57 -27 57 -78q-6 -8 -34 -60q-93 15 -138 15q-83 0 -227.5 -50t-144.5 -80q13 -1 26 -1q69 0 165 31q37 12 160 12q49 0 69 -22q99 -114 122 -248l27 -160v-66q0 -56 -5 -61l-5 -5q2 -9 15 -67q13 -54 13 -57t-14 -29.5 t-14 -27.5q-24 -238 -175 -531q-123 -147 -285 -241t-292 -94q-176 0 -372 113q-183 106 -248 222q-40 68 -40 206zM-334 -533q0 -86 143 -158q49 -41 141 -92q100 -35 220 -35q6 0 59 7l56 7q44 0 156 81q98 71 141 125q63 81 90 153q39 104 39 229v17q-45 17 -69 17 q-56 0 -123 -18q-17 -13 -48 -28q-40 -2 -111 -14q-77 -28 -177 -58q-35 -10 -281 -72l-83 -42q-153 -59 -153 -119z" />
<glyph unicode="h" horiz-adv-x="1428" d="M63 161q0 103 96 420q11 20 32 66q15 89 34 161q55 216 243 844v10q0 21 10 57q22 42 90 42q30 0 38 -17q28 -80 28 -97q0 -15 -89 -329q-85 -300 -105 -358q-45 -131 -108 -383q-54 -219 -54 -245v-24q13 -12 39 -12q11 0 61 21l72 30q87 27 320 87q265 69 300 69h24 q198 0 198 -224q0 -34 -9 -111v-3q0 -16 15 -62l18 -51q0 -19 -33 -76q-17 -4 -61 -16q19 -5 47 -17l-22 -19q-104 18 -145 139q4 77 4 225q-5 9 -31 30q-142 -19 -277 -51q-65 -15 -392 -153q-206 -86 -253 -86q-43 0 -70 58q-20 44 -20 75z" />
<glyph unicode="i" horiz-adv-x="458" d="M131 178q0 31 8 124q16 189 46 340q27 36 67 36q44 0 65 -67q3 -12 13 -482v-2q0 -18 -22 -108l-26 -6q-1 -1 -4 -1q-20 0 -87 25q1 3 1 7q0 21 -22 55q-34 51 -38 66q-1 3 -1 13zM223 1056q0 53 40 122q21 2 87 11q31 -65 31 -124q0 -25 -59 -92q-99 28 -99 83z" />
<glyph unicode="j" horiz-adv-x="686" d="M-159 -771l12 95q43 -31 126 -87q99 -66 154 -66q45 0 64 49q10 33 22 92q6 28 44 234q7 35 50 154q4 9 4 36v12q0 25 6 48q0 -2 -1 -2v2q0 19 14 101q7 46 31 282v15q0 105 26 284q6 21 34 52q29 32 41 32q7 -2 69 -12q39 -38 39 -113q0 -7 -11 -51l-15 -54 q9 -52 9 -105v-9q-3 -203 -55 -451q0 -27 -46 -255q0 -35 -4 -105q-58 -226 -96 -339q-9 -10 -67 -66.5t-73 -56.5h1q0 4 -59 30q-31 5 -84 21q-114 48 -150 95q-24 50 -85 138zM343 969q0 132 98 132q16 0 59 -16v-33q0 -143 -87 -143q-17 0 -43.5 22.5t-26.5 37.5z" />
<glyph unicode="k" horiz-adv-x="1348" d="M64 117q6 -6 55 -60q29 -33 51 -33q34 0 44 39q14 46 53 62q24 90 70 253q52 -51 196 -105q35 -13 143 -51q44 -14 181 -59q110 -39 151 -49q64 -15 138 -54q66 -35 74 -38q10 0 55 21q13 7 48 22v52q0 38 -166 140q-140 86 -169 93l-274 72q-58 2 -123 20q44 37 265 106 q236 74 279 97q43 24 43 82v75q-91 39 -91 42h1q-10 0 -159 -60q-182 -74 -207 -80q-67 -19 -170 -55q-51 -19 -51 -23q1 -2 3 -2q-3 0 -14 -5.5t-14 -5.5q-31 0 -91 -36l142 524q1 111 95 361q12 34 12 102q0 65 -65 65q-53 0 -80 -50q-17 -45 -34 -88q-4 -7 -41 -83 q3 -15 3 -39q-17 -32 -41 -81q-35 -154 -100 -436q-39 -86 -87 -243q-1 -31 -28 -114q-29 -93 -31 -114q-8 -103 -66 -264z" />
<glyph unicode="l" horiz-adv-x="583" d="M168 233v242l143 924q17 66 18 80v1q0 11 -7 56l-7 49l59 119l27 15q33 0 90 -53q56 -52 56 -81v-194q-34 -111 -72 -366q-7 -43 -62 -247q3 -21 4 -64q-18 -74 -41 -224q-2 -56 -2 -102q0 -127 14 -179q-7 -12 -12 -32q23 -24 23 -60q0 -45 -26 -80.5t-62 -35.5 q-18 0 -60 27.5t-54 49.5q-3 10 -13 129q-16 20 -16 26z" />
<glyph unicode="m" horiz-adv-x="2095" d="M81 213q0 69 33 219q44 197 102 197q56 0 85 -54l46 -84q94 69 224 161q210 147 305 147q68 0 151 -97q67 -79 71 -101q21 -118 21 -225v-32q7 -5 18 -5q37 0 104 60q42 27 301 187q127 59 254 59h30q18 -36 54 -52q43 -51 95 -153q7 -44 7 -107t-7 -145q-2 -15 -2 -34 q0 -43 8 -100q14 -99 14 -132q-4 0 -41.5 -5t-40.5 -5q-40 0 -90 57q1 3 1 6q0 13 -8 35q-50 86 -57 379q-6 9 -20 22q-124 -5 -321 -159l-310 -240q-27 -21 -83 -21q-127 0 -137 94q-1 4 -1 13q0 30 6 121q8 115 8 195q0 86 -10 145q-11 22 -38 22q-45 0 -174 -104 q-40 -31 -149 -124q-37 -36 -142 -138q-133 -127 -191 -127q-36 0 -79 59q-37 52 -37 66z" />
<glyph unicode="n" horiz-adv-x="1109" d="M55 399q0 28 43 115q0 18 9 58q6 23 53 109q2 0 30 7q28 5 32 5q3 -14 44 -47t56 -33q3 0 184 80q180 81 185 81q102 0 220 -150q26 -33 76 -118q55 -138 55 -361q0 -145 -68 -145q-9 0 -46 18q-43 21 -63 25q-57 89 -57 178q0 99 -66 306q-11 14 -49 14q-33 0 -86 -29 q-9 -5 -29 -16l-57 -30q-39 -28 -149 -157q-126 -148 -154 -148q-72 0 -121 91q-42 76 -42 147z" />
<glyph unicode="o" horiz-adv-x="1239" d="M40 363q0 19 23 94t38 99q19 34 93 68l98 46q104 60 245 117l76 5l38 19q6 0 65 6t63 6q297 0 384 -253q43 -123 43 -138q0 -121 -59 -194q-61 -73 -232 -160q-121 -61 -271 -96q-38 -9 -87 -21q-125 0 -282 84q-176 93 -201 216q-4 12 -17 50q-17 46 -17 52zM254 344 q0 -60 107 -117q94 -50 155 -50q103 0 282 89q204 102 204 206q0 149 -187 149q-136 0 -315 -59q-15 -12 -38 -29q-43 -3 -74 -21q-134 -131 -134 -168z" />
<glyph unicode="p" horiz-adv-x="1428" d="M80 317l24 33q-4 12 -4 30q0 8 1 19q54 115 259 225q206 109 367 111q4 3 19 10q33 12 117 12q189 0 333 -84q39 -23 131 -140q70 -87 70 -200q0 -109 -160 -237q-139 -113 -264 -148q-34 -30 -58 -30l-7.5 4.5t-14.5 4.5q-4 0 -128.5 -28t-127.5 -28t-34 -4t-34 -4 q-39 0 -101 55q-4 -3 -13 -14q-1 -15 -46 -329q-5 -31 -20 -227q-13 -170 -52 -236q-3 1 -5 2q-10 0 -24 -4q-24 -5 -27 -5q-59 0 -117 84v192q0 6 14 26q-1 25 -1 56q0 95 8 243q12 28 31 90q13 159 72 482q62 74 90 74q47 0 85 -46q37 -48 37 -102q0 -72 -38 -216 q16 -13 23 -13q46 0 316 118q128 55 243 117q76 56 144 134q13 16 13 45q0 13 -37.5 59.5t-62.5 63.5q-71 50 -182 50q-162 0 -336 -54q-189 -59 -220 -74q-107 -50 -107 -129q0 -6 4 -12q-16 -29 -35 -81q-7 -5 -57 -29q-88 63 -88 134z" />
<glyph unicode="q" horiz-adv-x="1413" d="M64 417q0 53 86 161t131 113q190 59 540 146q62 9 284 9q14 0 164 -59q24 -10 63 -56q37 -46 37 -69q0 -72 -81 -72q-10 4 -107 36q-89 28 -224 28q-43 0 -161 -30q-51 -13 -126 -33q-347 -62 -347 -215q0 -28 38 -52q39 -24 84 -24q99 0 343 96l245 97q21 0 130 -115 q5 -10 5 -33q0 -16 -25 -79q-34 -84 -41 -108q-49 -183 -77 -344q-19 -113 -101 -610v-10q0 -26 19 -54q-11 -28 -42 -93q-36 -79 -84 -79q-61 0 -85 34q-38 53 -38 118q0 3 10 23t10 23q15 281 15 466l75 510q4 1 4 3q-4 2 -22 2q-213 -49 -221 -49h-101q-63 0 -180 48 q-134 55 -169 118q-51 89 -51 153z" />
<glyph unicode="r" horiz-adv-x="1306" d="M59 132q3 21 15 141q14 140 20 211q55 124 100 124l26 -11q27 -11 34 -11q3 0 78 59q79 43 174 88q92 44 216 44q36 0 532 -84q3 -5 17 -18l104 -12q0 -67 11 -75q-3 -2 -90 -52l-18 17q-20 -17 -37 -17q-10 0 -229 20l-229 21q-299 0 -420 -194q-30 -48 -55 -168 q-7 -6 -23 -23q0 -67 -25 -179q-44 -17 -92 -17q-109 0 -109 136z" />
<glyph unicode="s" horiz-adv-x="1070" d="M40 90q0 6 31 47l307 57q197 36 269 79q0 6 -2 12q-34 26 -216 101q-191 79 -220 96q-36 12 -114 63q-22 21 -22 87q0 -5 -2 -5t-7 17q-2 6 -2 12q0 42 96 79q115 45 343 84.5t375 39.5q40 0 52 -13q60 -66 60 -96q0 -57 -39 -75q-34 -9 -302 -38q-51 -21 -57 -21 q-3 0 -17 4q-16 4 -19 4q-55 0 -128 -36q14 -26 46 -43q33 -5 139 -36q26 -10 109 -39l15 -5q16 -5 97 -40q50 -21 89 -70q16 -18 27 -74q0 -2 12.5 -22t12.5 -25q0 -17 -39 -47.5t-76 -41.5q-68 -21 -262 -81q-220 -67 -328 -67q-3 0 -42 8t-41 8q-4 0 -39 -8l-35 -8 q-16 0 -43 38q-28 36 -28 55z" />
<glyph unicode="t" horiz-adv-x="1108" d="M-36 722q0 35 27 63t61 28q3 0 56.5 -5.5t57.5 -5.5q2 0 46.5 4t47.5 4t25 -9q21 -8 24 -8q5 0 59 4q52 4 54 4q51 0 64 51q11 41 33 131l69 195q4 39 16 105q26 37 51 89q117 245 198 245q35 0 99 -114q0 -20 -37 -92q-20 -24 -52 -74q-26 -82 -111 -308 q-25 -65 -41 -207q75 -21 87 -21l54 7q69 9 98 9q73 0 125 -12l52 -12q123 0 123 -55q0 -35 -29.5 -53t-111.5 -33q-70 -14 -91 -30q-85 -11 -90 -11q-83 0 -246 -23q-51 -6 -61 -34q-20 -57 -43 -178q-2 -103 -38 -330q-34 -47 -34 -50q-110 6 -136 34q-12 14 -12 76 q0 76 47 464q-25 22 -48 22h-6q-29 -4 -46 -4q-11 0 -17 2q-101 5 -200 8q-124 21 -124 124z" />
<glyph unicode="u" horiz-adv-x="1380" d="M71 530q0 132 85 239h52q63 -46 63 -143q0 -5 -3.5 -67t-3.5 -69q0 -173 186 -224q66 -18 66 -20q0 -1 -2 -1q2 0 34.5 3.5t37.5 3.5q99 0 271 113q102 68 203 199q102 130 115 210q3 15 37 45q35 31 48 31q52 0 52 -126q0 -67 -14 -102q-28 -72 -64 -164q-10 -3 -22 -18 q-7 -35 -51 -83l-70 -78q-3 -9 -7 -25q-104 -104 -280 -191q-169 -51 -245 -51q-48 0 -140 28q-348 105 -348 490z" />
<glyph unicode="v" horiz-adv-x="1220" d="M50 598q47 122 89 122q11 0 145 -201q135 -202 150 -202q14 0 94.5 47.5t103.5 68.5q65 34 176 103q24 24 85 68q95 40 246 84q42 -31 42 -65q0 -25 -24 -53q-25 -20 -162 -124q-1 -12 -4 -31q-519 -388 -554 -388q-16 0 -74 38q-59 39 -69 54q-138 236 -210 419 q-6 8 -19 24q-15 20 -15 36z" />
<glyph unicode="w" horiz-adv-x="1850" d="M35 701q0 11 49 88q30 12 38 12q28 0 69 -44t46 -79q0 -18 5 -56q36 -101 50 -164q2 -52 48 -158h25q57 0 256 194l238 233q18 17 59 17q67 0 124 -122q39 -82 52 -99q17 -31 67 -119q60 -104 97 -104q28 0 151 128q40 42 153 159q44 45 370 306q25 2 90 21 q32 -55 32 -97q0 -40 -122 -121q-9 -21 -33 -56q-32 -24 -78 -71q-13 -27 -51 -81q-31 -25 -72 -64q-33 -50 -60 -90q-22 -30 -149 -160q-154 -156 -197 -156q-91 0 -326 300l-82 104q-10 0 -104 -88q-120 -111 -152 -135q-259 -196 -299 -196q-60 0 -97 42q-67 75 -138 380 q-59 249 -59 276z" />
<glyph unicode="x" horiz-adv-x="1269" d="M52 224v3q0 72 134 227q125 145 136 145v-1l-112 126q-113 126 -113 149q0 21 35 66t55 45q40 0 198 -140l157 -140q14 5 90 45q94 49 114 55q243 78 356 78q135 0 135 -104q0 -51 -28 -64q-41 -18 -256 -56q-26 -4 -125 -53q-114 -57 -114 -79q0 -9 47 -57 q59 -60 61 -62q57 -69 128 -159q73 -93 73 -163q0 -3 -5.5 -36.5t-5.5 -35.5q-1 -12 -21 -12q-80 0 -117 35q-23 22 -204 224q-137 152 -161 152q-99 0 -287 -200q-8 -6 -16 -48q-50 -27 -66 -27h-46q-39 0 -42 87z" />
<glyph unicode="y" horiz-adv-x="1231" d="M42 470q0 105 13 135q36 74 66 74q85 0 111 -152q6 -34 18 -155q55 -96 151 -96q16 3 80 20q84 23 107 27q113 20 223 91q49 31 186 119q15 21 47 57h100q49 -70 49 -136q0 -17 -44.5 -110t-73.5 -135q-21 -15 -48 -44q-16 -40 -84 -174l-4 -12v-3q-4 -1 -21 -33 q-17 -11 -42 -42q-6 -15 -16 -80q-26 0 -38.5 -33t-48.5 -127q-16 -42 -70 -125q3 -17 3 -48q-15 -20 -41 -65q0 -9 -41 -173q-17 -42 -49 -123q-2 -11 -35 -129q-10 -35 -65 -35q-53 0 -90.5 39t-37.5 94q0 38 52 180q7 19 34 108q12 12 31 41q15 69 268 676l-14 13 q-149 -63 -237 -63q-3 0 -49 12q-47 13 -50 13q-2 0 -15 -5q-13 -4 -17 -4q-44 0 -125 47q-66 40 -86 62q-47 51 -63 130q4 5 4 11q-2 6 -4 10q-34 41 -34 143z" />
<glyph unicode="z" horiz-adv-x="1390" d="M112 106q5 44 33 109q5 9 109 100q92 52 263 161q40 26 111 114q-12 29 -36 29l-164 -16l-164 -16q-114 0 -114 86t79 98q276 42 575 42q9 0 46 -21l41 -24q24 -39 24 -64q0 -193 -440 -474q29 -27 111 -27l496 40h-6q0 2 84 6q21 1 39 1q41 0 63 -7q23 -13 40 -30 q4 -10 4 -34q0 -60 -82 -83q-30 -3 -146 -20q-141 -21 -318 -39q-363 -36 -469 -36q-41 0 -97 20q-3 25 -82 85z" />
<glyph unicode="{" horiz-adv-x="1023" d="M36 828v6q2 45 6 93q3 38 3 41l25 18q10 -8 24 -8q47 0 243 122q56 34 56 93q0 24 -139 215q-4 11 -4 67q0 129 42 169q31 29 242 78q20 12 58 28q42 3 281 3q46 0 81.5 -40.5t35.5 -88.5q0 -28 -6 -46q-11 -10 -39 -32q-24 -19 -45 -19q1 0 1 1q0 2 -67 21q-19 2 -78 2 q-99 0 -264 -50q-35 -11 -35 -43q139 -198 139 -226v3q-2 0 -16 -75q-7 -84 -84 -185q-62 -82 -74 -82q-3 2 -3 5q6 -10 43 -43q42 -48 42 -132q0 -17 -94 -220q-93 -204 -93 -227q0 -15 13 -34q18 -89 63 -139l75 -87q42 -20 120 -64q16 -14 53 -29h280q11 -19 11 -58 t-3 -46q-25 -33 -110 -71q-46 -20 -118 -20q-101 0 -268 78t-206 145q-44 73 -63 127l-22 33q-30 168 -30 200q0 105 61 203q78 126 97 201q-25 15 -156 39q-78 15 -78 74z" />
<glyph unicode="|" horiz-adv-x="363" d="M35 -3l23 396q26 478 25 641q0 345 8 639q1 20 29 51q28 29 50 31h3q23 0 57 -39q38 -43 38 -65v-2v-13q0 -31 -5 -132q-9 -187 -9 -207l7 -606q-14 -69 -19 -132q-13 -196 -13 -327q0 -98 8 -160q3 -30 3 -56q0 -40 -8 -74q-24 -69 -24 -95q0 -7 1 -11q-5 -7 -31 -22 q-41 16 -90 79t-53 104z" />
<glyph unicode="}" horiz-adv-x="817" d="M-10 -342q0 42 31 54q111 42 153 61q85 37 177 92q69 36 113 66q50 48 50 111q0 3 -15 31q-14 28 -14 36q0 5 3 13l-83 195q-69 164 -69 204v-1q1 0 21 135q25 49 25 51q0 9 -30 45q-11 13 -33 38q-20 45 -20 99q0 78 61 161q21 28 140 155q9 18 27 46q85 91 108 117 q71 83 85 142q-27 36 -180 36q-3 0 -85.5 -8.5t-87.5 -8.5q-69 0 -83 45q-6 61 -14 123q26 23 139 43q85 16 118 16q86 0 253 -44q26 -7 68 -43.5t45 -53.5q14 -75 14 -122q0 -115 -149 -276q-244 -264 -244 -310q0 -41 66 -54q13 0 81 -13q32 -17 91 -53q13 -18 13 -39 q0 -92 -33 -120q-8 -5 -108 -32q-74 -20 -74 -74q0 -33 53 -128q15 -28 56 -109q68 -141 68 -294q0 -105 -44 -169q-43 -64 -164 -136q-74 -30 -225 -94q-9 -10 -26 -28q-156 -29 -156 -33h3q-125 0 -125 128z" />
<glyph unicode="~" horiz-adv-x="1137" d="M36 1380q0 59 2 64q21 37 166 144q159 116 215 116q51 0 156 -73l107 -73q43 0 378 179q49 -12 49 -65q0 -31 -62 -102q-5 -19 -26 -51q-227 -177 -374 -177q-15 0 -113.5 68t-106.5 68q-40 0 -150 -82q-29 -21 -78 -92q-19 -27 -70 -27q-20 0 -91 42v11q7 21 7 32 q0 13 -9 18z" />
<glyph unicode="&#xa1;" horiz-adv-x="542" d="M43 -409v-1q4 0 26 27q19 329 192 991q4 16 30 39q24 23 38 23q11 -4 64 -21q44 -61 44 -113q0 -6 -41 -179q-38 -169 -38 -199v-3q-39 -17 -38 -145q-3 -6 -14 -16q-3 -54 -38 -177q-31 -111 -31 -167q0 -31 10 -56q-17 -34 -56 -91q-42 -10 -42 -12h2q-15 0 -49 37 q-26 29 -59 63zM313 1055l14 30q10 22 10 44q0 8 -1 15h84q13 0 72 -26q8 -58 8 -63v1q-1 0 -12 -76l-28 -24q-15 -14 -27 -14q-40 0 -80 38q-40 39 -40 75z" />
<glyph unicode="&#xa2;" horiz-adv-x="880" d="M56 619q0 34 59 114q11 15 45 33l26 23q67 27 213 68h6q33 0 88 16q28 28 99 164q7 13 7 23q0 5 -2 10q82 92 121 92q6 0 27 -8q-1 -10 -1 -17q0 -20 4 -24q27 -46 29 -51q-7 -22 -48 -185q29 -7 69 -39q27 -49 27 -78q-8 -9 -35 -49q-22 -30 -97 -30q-2 0 -7 4 q-4 3 -7 3q-58 0 -76 -33q-9 -14 -17 -86q20 -16 69 -16q2 0 57 6t57 6q39 0 39 -57q0 -38 -4 -44l-39 -53q-72 -46 -269 -61q-36 -38 -52 -113q-19 -87 -37 -120q12 -21 12 -36q0 -16 -36 -44q-37 -27 -54 -27q-40 0 -65 57q-17 42 -17 71q0 5 23 100t23 96q0 36 -101 83 q-46 21 -91 88.5t-45 113.5zM293 604q16 -14 77 -32q23 47 26 51q0 14 -10 24q-67 -21 -93 -43z" />
<glyph unicode="&#xa3;" horiz-adv-x="1378" d="M50 273q0 95 31 128q159 165 318 165q6 0 36 -3.5l30 -3.5q23 0 49 54q23 47 23 62q0 29 -35 33.5t-108 13.5q-71 15 -95 49q-14 20 -14 79q0 69 21 92q12 1 51 9q44 9 48 9q6 0 63 -3l63 -4q73 0 93 2q11 20 73 205q13 38 111 248q24 52 57 83q45 41 168 97 q24 11 124 11q56 0 180 -53q18 -5 79 -34q57 -26 57 -86q0 -39 -31.5 -79t-70.5 -47q-155 105 -232 105q-40 0 -89 -28t-63 -58q-34 -71 -76 -208q-38 -121 -38 -142q0 -48 56 -58q6 0 89 -8q40 -12 112 -43q31 -13 31 -43q0 -2 -5 -34.5t-5 -37.5q-14 -1 -95.5 -29 l-81.5 -28l-75 3l-78 3h-3q-45 0 -72 -80q-11 -32 -27 -91q-33 -42 -33 -53t36 -43q48 -41 54 -51q102 -140 297 -140q33 0 134 37l99 36q51 0 51 -61q0 -72 -41 -116q-24 -25 -132 -86q-63 -36 -157 -36q-19 0 -115 27q-107 30 -157 57q-41 35 -111 88q-16 19 -56 54 q-30 -21 -157 -151q-73 -75 -170 -75q-211 0 -211 263zM247 254l13 -9q16 3 33 23t17 35q0 4 -2 6q-20 -10 -61 -33v-22z" />
<glyph unicode="&#xa4;" horiz-adv-x="1777" d="M38 493q0 10 27 87q63 0 94 -3l32 -3q10 2 80 18q11 9 28 57q-80 6 -91 13q-59 26 -59 128q0 88 88 88q3 0 65 -8t66 -8q51 0 141 72q128 101 146 112q213 127 405 173q48 25 149 61q80 18 253 18q48 0 77 -58q21 -41 21 -67q0 -35 -35 -67q-34 -33 -70 -33q-2 0 -26 4.5 t-26 4.5q-221 0 -525 -183q13 -21 41 -21q71 13 244 31q303 18 412 18q15 0 132 -36q40 -12 73 -48q5 -6 5 -32q0 -31 -35 -54q-34 -22 -81 -22q-2 0 -48.5 3.5t-51.5 3.5q-124 0 -489 -36q-13 -6 -48 -15q-149 -3 -419 -23q-20 -5 -54 -57q19 -6 85 -6l721 57q25 0 105 -4 l105 -3q3 0 32 7.5t32 7.5h-2q0 -2 123 -18q26 -4 72 -41q-7 -36 -54 -100q-71 -17 -147 -24q-51 -4 -374 -23q-146 -8 -262 -22q-83 -17 -83 -20h3q-1 0 -36 3q-34 3 -40 3q-32 0 -155 -19q-124 -21 -144 -28h-3q-4 0 -4 -13q0 -54 183 -98q9 -6 29 -18q181 -42 353 -42 q23 0 205 8l205 9h9q66 0 173 -36q29 -30 29 -70q0 -76 -70 -84q-532 -59 -669 -59q-283 0 -481 131q-16 16 -49 41q-28 8 -66 21q-33 29 -79 98q3 18 3 32q0 49 -35 61q-75 26 -124 26q-4 0 -9 -4t-8 -4q-62 0 -94 113z" />
<glyph unicode="&#xa5;" horiz-adv-x="1250" d="M53 548q0 4 15 33.5t16 30.5t71 7q71 6 80 6h56l74 -1h90q95 0 95 90q0 76 -33 111q-118 123 -339 373q-39 45 -39 94q0 74 39 119q44 -6 113 -36q32 -18 87 -69q169 -233 218 -233l184 120q6 11 16 31q237 195 409 315q14 10 53 10q94 0 94 -105q0 -65 -29 -84 q-238 -159 -395 -323q-14 -5 -45 -21q-17 -13 -79 -61q-41 -33 -56 -72q-21 -54 -21 -189q0 -49 66 -49h5q23 1 141 5l139 5h13q93 0 93 -54q0 -67 -78 -98q-211 -81 -285 -81q-3 0 -21 3.5t-21 3.5q-37 0 -61 -22q-1 -3 -1 -6q0 -21 32 -21h-1q0 1 157 13l155 11 q79 0 79 -63q-7 -17 -45 -78q-59 -29 -137 -59q-112 -13 -289 -54q-16 -5 -59 -105q-44 -17 -72 -44h-62q-32 98 -32 115q-6 12 -21 30q-34 -17 -121 -17q-97 0 -179 29q-37 94 -41 94v-1q20 84 20 88q8 5 20 13l190 5q92 1 174 23v1q0 11 -35 20q-72 10 -329 13 q-68 52 -68 134z" />
<glyph unicode="&#xa6;" horiz-adv-x="540" d="M53 111v4q0 22 21 53q0 20 -11 65q11 12 25 34q16 56 38 152q2 33 14 96q13 26 30 71q46 20 84 20h-2q0 -1 59 -10q14 -13 49 -69q39 -63 39 -81q-1 -4 -17 -22v1q-3 0 -60 -257v-3q0 -20 -11 -48q-4 -26 -4 -78q-6 -9 -16 -26q2 -16 2 -37q0 -56 -10 -146 q-10 -7 -23 -34q-1 -29 -6 -87q-7 -62 -57 -100q-33 15 -96 65q-7 38 -38 101q4 10 4 21q0 25 -14 43q10 7 10 75t-10 197zM166 990l94 693q0 54 124 54q98 0 98 -234v1q-2 0 -12 -12q-5 -3 -5 -9q0 -10 10 -25q0 -3 -0.5 -7t0.5 -7q-1 -94 -36 -259q-10 -48 -10 -95 q0 -17 1 -35q-22 -33 -29 -81v-96q0 -34 -8 -65q-11 -12 -15 -26q-13 -83 -77 -83q-29 0 -69 53l-41 56q-25 90 -25 177z" />
<glyph unicode="&#xa7;" horiz-adv-x="995" d="M57 1211q0 98 12 123q56 110 217 174q145 60 322 60q18 0 36 -1q58 23 62 23q0 -2 49 -12q133 -146 133 -175q0 -81 -66 -81q-3 0 -96 22q-93 23 -96 23q-151 0 -303 -54l-46 -46q61 -42 287 -71q48 -7 135 -47q29 -18 101 -70q6 -9 24 -56q24 -24 55 -72q21 -42 21 -105 q0 -74 -21 -113q-2 -3 -41 -39q-41 -37 -41 -39q12 -10 58 -60q105 -117 105 -259q0 -119 -124 -217q-124 -97 -271 -97q-127 0 -250 48q-159 61 -225 176q3 15 3 45q-18 26 -22 26h-1q0 59 68 59q28 0 126 -43l43 -19q35 -17 50 -24q72 -23 111 -27q1 0 23 -10t28 -10 q66 0 132 27q86 36 86 92q0 42 -66 102q-85 79 -248 124q-32 2 -87 13q-170 75 -204 103q-62 48 -62 146q0 77 9 100q5 12 31 63q19 36 19 43q0 4 -38 79t-38 76zM281 906q0 -45 84 -72q15 -4 106 -24q77 -24 216 -71q12 53 12 60q0 79 -82.5 134.5t-196.5 55.5 q-79 0 -94 -18q-45 -53 -45 -65z" />
<glyph unicode="&#xa8;" horiz-adv-x="779" d="M81 1515q0 66 52 109q35 -13 89 -34q76 -30 76 -72q0 -40 -33 -72q-32 -33 -74 -33q-43 0 -77 32q-33 32 -33 70zM531 1515q0 57 11 84h67q99 0 99 -124q0 -77 -71 -77q-106 0 -106 117z" />
<glyph unicode="&#xa9;" horiz-adv-x="1239" d="M45 608q0 76 33 217q20 34 62 99q16 13 43 36q67 86 195 137q105 32 221 71q34 10 136 10q270 0 397 -267q43 -88 43 -166q-20 -114 -20 -137q-11 -247 -295 -363q-41 -25 -125 -57q-94 -21 -152 -21q-120 0 -254 60t-170 132q-31 34 -81 105q-33 80 -33 144zM240 608 q0 -101 88 -166.5t220 -65.5q51 0 97 18q69 27 113 38q7 11 25 22q92 18 146 129q44 88 44 183q0 71 -41 166q-24 55 -212 55q-140 0 -277 -117q161 23 237 23q14 0 47 -23l48 -36q1 0 19 -78q0 -24 -46 -44q-16 -7 -44 -7q-4 0 -35 4q-31 2 -32 2q-28 0 -69 -18 q-56 -23 -56 -56q0 -26 59 -26q4 0 94 13t93 13q13 0 36 -25t23 -38q0 -152 -239 -152q-110 0 -185 49q-74 49 -74 124q0 210 115 255q-8 6 -18 9q-176 -99 -176 -251z" />
<glyph unicode="&#xaa;" horiz-adv-x="666" d="M35 1509q0 30 31 91q15 11 38 31q3 8 7 16q25 23 150 72q7 2 38 2q83 0 166 -54q10 -11 24 -37q-6 -15 -14 -49q0 -1 77 -72q78 -70 78 -83q0 -19 -31 -38q-31 -18 -61 -18h-59q-73 62 -109 62q-1 0 -87 -21q-86 -20 -89 -20q-39 0 -114 33q-45 19 -45 85zM209 1553 q0 -29 33 -29q16 0 39 6q52 14 52 37q0 29 -36 29q-15 0 -37 -6q-51 -13 -51 -37z" />
<glyph unicode="&#xab;" horiz-adv-x="1511" d="M43 365q0 74 115 143q44 27 116 98l121 121l119 80q82 55 123 55q43 0 80 -33q38 -32 38 -69l-71 -120q-70 -17 -173 -95q-36 -37 -118 -117q-3 -6 -3 -22q0 -32 16 -34q73 -13 211 -106q147 -98 147 -157q0 -36 -50 -94q-27 1 -69 12q-236 101 -543 216q-19 7 -39 50 q-20 41 -20 72zM722 359q0 70 115 140q46 28 116 100l118 121q39 27 117 79q85 56 128 56q42 0 79 -33.5t37 -68.5l-70 -122q-69 -17 -174 -93l-117 -116q-3 -8 -3 -24q0 -33 17 -35q77 -13 211 -105q146 -100 146 -159q0 -34 -52 -93q-25 1 -67 12q-269 115 -542 216 q-20 8 -39.5 49t-19.5 76z" />
<glyph unicode="&#xac;" horiz-adv-x="1794" d="M81 482q0 29 51 54q41 20 59 20h-1q0 -2 74 -15q44 -2 383 -2q3 0 80 12t81 12q-6 0 -6 -1q7 -5 51 -14q16 -1 34 -1q37 0 81 3l130 6q7 0 64 -9l54 -8q4 0 51 8q46 9 49 9t26 -9q22 -8 26 -8q3 0 40 8q36 9 39 9q21 0 116 -12q12 -3 41 -15q12 -5 23 -5q12 0 22 6 q79 -113 79 -139q0 -5 -21 -83q-24 -91 -31 -122q-7 -7 -21 -23q0 -77 -99 -288q-29 -25 -71 -67q-5 -8 -15 -50q-23 -10 -77 -33q-12 7 -36 63q-23 53 -23 65q0 44 149 464q0 24 -32 27q-99 8 -182 8q-43 0 -521 -10l-521 -13h-2q-47 0 -96 52q-48 53 -48 101z" />
<glyph unicode="&#xad;" horiz-adv-x="706" d="M53 442q0 94 96 94q164 0 174 -3q59 -9 158 -9l28 6q39 0 88 -16q34 -42 34 -74q0 -23 -40 -42q-10 -12 -31 -33q-18 -16 -62 -16q-11 0 -23 1q-34 -9 -94 -17q-35 1 -135 1q-9 0 -135 16q-10 4 -48 28q-10 39 -10 64z" />
<glyph unicode="&#xae;" horiz-adv-x="1239" d="M74 623q0 56 35 245l23 23q3 15 17 46q50 62 218 146q14 7 42 20q2 0 12 -1.5t12 -1.5q-4 0 -4 1q5 4 39 14q193 53 236 53q4 -1 18 -11q10 1 20 1q146 0 252 -142q16 -21 67 -78q9 -17 27 -50q0 -3 11 -44q19 -15 68 -168q1 -3 1 -50q0 -126 -67 -204t-259 -176 q-58 -29 -155 -29q-57 -7 -59 -7q-45 9 -58 9h-1q-10 -1 -21 -1q-105 0 -266 81q-61 30 -115 99q-54 67 -63 125q-1 0 -30 100zM233 652q0 -33 9 -107q8 -21 21 -57q164 -112 246 -112l29 7q2 0 20 -5.5t20 -5.5q3 0 44 9l46 12q140 13 327 181q17 25 17 86q0 81 -37 145 q-15 17 -36 47q-55 155 -228 155q-81 0 -236 -57q-2 0 -12.5 3t-12.5 3q-32 0 -101 -55t-86 -91q-30 -106 -30 -158zM399 688q4 3 13 14q-1 10 -1 22q0 38 9 93q12 7 80 53q92 64 168 64q84 0 136 -78q34 -50 34 -76q-71 -112 -73 -112q0 -19 90 -63v-9q0 -18 8 -51 q-31 -42 -84 -42q-78 0 -180 54q-6 6 -24 26q-6 -30 -20 -95q-13 -15 -46 -43q-31 21 -78 78q2 9 3 22q-26 66 -26 115q0 7 1 13q-8 13 -10 15zM557 709q0 -18 21 -18h8q51 51 51 78v3q-80 -27 -80 -63z" />
<glyph unicode="&#xaf;" horiz-adv-x="1042" d="M54 1608v31q0 18 1 30v6v-5q60 44 95 44q2 0 101 -17t106 -17q2 0 34 5q32 3 35 3q25 0 145 -10q56 -6 199 -27q118 -18 131 -18q5 0 28 4t24 4q42 0 42 -36v3q-2 0 -12 -78q-50 -14 -68 -47q-6 0 -70.5 -9t-66.5 -9q-3 0 -54 -9t-56 -9q-52 0 -341 21h4q0 -1 -108 -3 h-10q-159 0 -159 143z" />
<glyph unicode="&#xb0;" horiz-adv-x="651" d="M52 1467q0 156 116 237q41 10 116 21q7 6 21 15q74 9 77 9q40 0 97 -28q58 -28 72 -54.5t41 -82.5q11 -22 11 -60q0 -61 -11 -74q-126 -155 -224 -159q-9 -6 -25 -15q-25 -14 -30 -14q-116 0 -189 57q-72 56 -72 148zM218 1462q34 -18 67 -18q50 0 65 6q46 22 74 60 q11 16 11 34q0 6 -1 13q-46 25 -73 25q-21 0 -70 -28q-31 -18 -41 -58q-25 -14 -31 -14q-1 0 -1 1v-21z" />
<glyph unicode="&#xb1;" horiz-adv-x="863" d="M63 142q0 39 22 79q90 28 132 28h-8q0 -1 28 -2q41 -2 93 -4q43 -1 176 -1q4 1 10 1q21 0 67 -25q59 -32 59 -65q0 -36 -95 -71q-175 -66 -284 -66h-103q-97 0 -97 126zM85 686q0 30 52 59q54 29 109 29q2 0 20 -4t22 -4q10 0 78 108.5t85 108.5q32 0 76 -53 q8 -125 53 -125q3 0 85 9q80 8 84 8q28 0 58.5 -29t30.5 -52q0 -14 -17 -44.5t-28 -36.5q-105 -55 -194 -55q-4 0 -12 4t-11 4q-60 0 -81 -32q-10 -37 -24 -103q-17 -38 -55 -115h-80q-31 51 -37 100q0 15 -6 87q-27 22 -98 25q-110 4 -110 111z" />
<glyph unicode="&#xb2;" horiz-adv-x="1139" d="M63 984q2 6 13 20q23 25 77 60q13 8 24 28q27 8 63 47q46 12 117 75q9 9 9 18q0 2 -1 6q13 0 40 33q4 2 8 18q12 6 30 17q29 38 108 161q54 85 54 105q0 28 -55 28q-61 0 -157 -48q-7 0 -99 -60q-91 -60 -100 -60q-49 0 -83 62q-14 25 -14 48q0 25 94 87q84 56 122 67 q107 43 182 43q26 0 47 1l44 2h7q35 0 68 -20q12 -10 40 -26q9 -16 37 -45q30 -39 30 -70q-9 -26 -9 -32q-5 -1 -14 -6q1 -4 1 -7q0 -38 -39 -102q-15 -41 -57 -92q0 -9 -36 -62q-39 -54 -39 -58q-41 -33 -103 -107q0 -5 6 -6q-10 0 -23 -11q5 -1 20 -1q24 0 29 12 q65 15 182 45q51 1 146 37q5 0 41 10t38 10q3 0 13.5 -3.5t11.5 -3.5q62 0 101 22q17 -10 53 -35q-7 -28 -48 -84q-31 -7 -96 -21q4 -3 19 -3q-26 -7 -78 -16q-4 -18 -101 -41q-63 0 -63 -10q1 -3 5 -6q-59 -20 -174 -39q-3 -3 -4 -5q2 -3 11 -3q-16 -10 -52 -21 q-26 -3 -75 -10q-5 -3 -5 -5q1 -1 4 -3q-1 1 -4 1q-6 0 -17 -6q10 -8 10 -13q-72 0 -72 -10q0 -5 10 -5l-186 -13h-13q-98 0 -98 106z" />
<glyph unicode="&#xb3;" horiz-adv-x="853" d="M59 1486q0 30 10 72q42 43 139 59q9 2 204 30q29 12 38 12q134 0 222 -44q24 -12 44 -70q31 -84 31 -101q0 -27 -51 -93q-18 -23 -69 -89q37 -24 96 -73q29 -40 34 -71q0 -2 6 -30.5t6 -32.5q0 -105 -267 -211q-226 -90 -329 -90q-7 0 -61 20v70q45 29 230 109 q126 55 216 132q-56 43 -159 43q-3 0 -13 -4q-10 -3 -12 -3q-46 0 -103 34q-31 18 -31 61q0 49 16 61q7 5 107 41q18 16 45 36q84 39 136 111q-13 21 -69 21q-42 0 -184 -39l-144 -39q-88 0 -88 78z" />
<glyph unicode="&#xb4;" horiz-adv-x="686" d="M36 1450q0 2 5 30q4 26 4 29q90 40 249 105q23 17 43 27q207 98 246 98q17 0 40.5 -14t23.5 -27q0 -47 -210 -168q-25 -9 -76 -29q-201 -122 -246 -122q-79 0 -79 71z" />
<glyph unicode="&#xb5;" horiz-adv-x="2632" d="M42 550q0 46 52 54q166 27 233 27q3 0 25 -4q23 -4 26 -4q46 0 86 21q1 20 1 36q0 31 -5 43q-34 91 -34 234q0 132 21 275q5 37 57 161q27 39 55 103q93 100 178 138q42 10 122 31q100 39 208 39q154 0 290 -70q105 -53 168 -128q78 -94 78 -144v-67q-20 -19 -41 -19 q-11 0 -125 85q-159 117 -200 131l-204 18q-8 0 -25 -9l-25 -15q-360 -67 -360 -552q0 -287 74 -287q4 0 83 20.5t80 20.5q5 0 20.5 -5t17.5 -5q31 0 381 63q122 4 141 7q99 15 143 68q20 138 52 272q52 216 227 354q60 46 233 109q131 48 169 48q172 0 233 -83 q14 -18 44 -107q28 -83 31 -83v4q0 -18 -14 -26q29 -10 29 -49q0 -177 -274 -354q-106 -69 -342 -147l-118 -39q-62 -29 -62 -92q0 -31 14 -75q16 -54 38 -54l44 8q41 7 50 7h2q9 0 467 -34q59 -47 59 -86q0 -16 -21 -31q-23 -17 -45 -17q-4 0 -21 4q-18 2 -21 2h2 q0 -2 -67 -21q-164 0 -210 -4q-110 -11 -170 -52q1 -7 27 -110q20 -84 21 -93q0 -12 -62 -66q-13 33 -60 33q-23 0 -31 -7q-7 6 -69 115q-46 78 -99 118q-44 -32 -87 -32q-13 -4 -66 -18q-24 -6 -44 -6q-82 0 -82 111q0 26 8 63q12 54 35 72q28 8 120 10q70 3 91 30 q-14 47 -45 141h-24q-125 -35 -496 -119q-41 -1 -111 -13q-173 -59 -173 -101l41 -62q33 -112 33 -157q0 -89 -71 -89q-17 0 -53 30t-50 59q-13 28 -36 91q-16 20 -40 57q0 28 -14 79q-87 29 -87 31q-12 0 -149 -12l-149 -13q-10 0 -97 28q0 10 -15 60zM1790 909 q0 -36 14 -44q143 33 338 136q265 142 265 270q0 51 -32 89q-33 36 -82 36q-1 0 -59 -14.5t-65 -14.5q-89 -10 -225 -112q-49 -36 -101.5 -154t-52.5 -192z" />
<glyph unicode="&#xb6;" horiz-adv-x="1174" d="M73 934q0 124 61.5 193t251.5 155q23 11 132.5 45.5t118.5 34.5q3 0 26 -5q24 -6 26 -6q2 3 25 15q117 30 170 30q35 0 107 -8q11 -5 53 -33q0 -7 3 -22q17 -14 37 -39q4 -51 4 -178v-37q0 -142 -4 -219l-6 -109q-7 -135 -15 -538q-3 -193 -16 -212q-35 -19 -70 -19 q-55 0 -56 48q-1 64 -1 140q0 196 9 472l13 374q1 39 1 71q0 88 -10 130q-7 27 -49 27q-19 0 -32 -15v1l5 -44v-154q0 2 -1 2q-2 0 -18 -69q0 -59 -4 -108q-14 -197 -59 -715q-27 -31 -72 -31q-48 0 -51 249q0 -36 1 -37q2 44 2 303q0 3 3 62t3 68l-12 10l-25 -16 q-187 -20 -248 -20q-125 0 -214 59t-89 145zM471 909q0 -32 77 -32q104 8 115 8q30 14 30 45v51q1 4 11 84l7 56q0 12 -20 83h-36q-41 0 -117 -41q0 -13 -34 -103q-33 -85 -33 -151z" />
<glyph unicode="&#xb8;" horiz-adv-x="735" d="M2 -490q0 89 109 115q63 2 181 10q27 6 78 18q105 15 157 50q-59 37 -90 37q-4 0 -56 -5l-55 -5q-59 0 -94 40q-6 18 -27 53q7 1 10 29q4 38 7 47q2 7 5 13l27 58q6 34 37 95q8 5 74 20q52 -49 59 -132q-5 -13 -5 -43q5 1 12 1q16 0 40 -4q116 -37 157 -60 q86 -46 90 -110q17 -15 17 -34q0 -8 -44 -91q-36 -69 -121 -93q-10 -3 -146 -30q-140 -28 -140 -31h2q-25 4 -30 4q-1 0 -91.5 -13.5t-94.5 -13.5q-26 0 -47 24t-21 51z" />
<glyph unicode="&#xb9;" horiz-adv-x="500" d="M98 948v159q0 14 58 143l43 150q25 91 68 103q18 -6 60 -23q48 -72 48 -87q0 -8 -74 -208q0 -17 -4 -46q-19 -42 -47 -122q-4 -37 -36 -111q-15 -5 -37 -28q-22 8 -50 33q-29 26 -29 37z" />
<glyph unicode="&#xba;" horiz-adv-x="731" d="M73 1552q7 33 31 92q25 33 157 77q14 -2 41 -2q50 9 50 10t-2 1q55 0 173 -53q7 -10 22 -21q25 0 48 -18q66 -52 66 -99t-35 -93q-34 -46 -79 -58q-48 -28 -50 -28q-3 0 -57 -7t-57 -7q-64 0 -152 34q-27 12 -82 49q-11 24 -42 62q-4 25 -32 61zM294 1540q36 -33 90 -33 h-1q0 2 75 21q-53 48 -122 48q-27 0 -42 -13v-23z" />
<glyph unicode="&#xbb;" horiz-adv-x="1437" d="M-1 76q0 59 146 158q136 92 212 107q13 1 13 34q0 14 -2 21q-41 49 -118 116q-85 77 -172 94l-70 121q0 36 36.5 69t77.5 33q55 0 125 -55q47 -29 120 -78q78 -87 237 -220q114 -70 114 -143q0 -32 -20 -73q-20 -43 -39 -50q-296 -109 -544 -216q-23 0 -69 -10 q-47 56 -47 92zM673 83q0 61 147 160q135 91 212 104q17 3 17 36q0 15 -3 21q-41 46 -117 117q-105 78 -174 93l-72 122q0 37 38 70q36 32 80 32q54 0 125 -55q47 -29 120 -78q77 -86 232 -221q115 -70 115 -142q0 -34 -20 -75q-19 -41 -39 -49q-264 -97 -540 -217 q-25 0 -69 -10q-52 58 -52 92z" />
<glyph unicode="&#xbc;" horiz-adv-x="1503" d="M21 186q0 88 156 286q2 3 121 144l53 62q27 32 111 130l421 486q15 25 53 76q44 40 97 95q211 218 245 218q38 0 67.5 -34.5t29.5 -76.5q0 -8 -103 -120q-139 -151 -192 -215q-18 -22 -48 -67q-96 -110 -377 -435q-28 -34 -113 -137q-25 -18 -74 -59q-14 -20 -90 -115 q-8 -2 -32 -56q0 -16 -2 -32q-7 -27 -45 -63q-3 -13 -7 -27q-18 -58 -76 -109q-20 -16 -81 -16q-2 4 -51 32q-8 0 -38 -3q-8 6 -15 6q-10 23 -10 30zM111 828v195q0 114 34 275q-5 18 -5 37q0 27 10 56q19 53 56 53q111 0 111 -165q0 -182 -44 -384q-12 -22 -33 -63 q-8 -36 -31 -87q-5 -3 -14 -10q-7 1 -35 9q-49 70 -49 84zM703 446q0 72 36 155q45 108 118 108q19 0 62 -46q7 -52 34 -137q7 -3 76 -3q75 0 82 4q13 8 71 110q-4 8 -4 21q38 81 111 183q9 3 32 3q107 0 107 -121q0 -7 -73 -167q-83 -183 -114 -260q-2 -23 -25 -108 q-15 -24 -27 -56q-7 -17 -22 -90q-51 -36 -79 -36q-59 0 -67 43v-2q2 0 2 64q0 26 21 173q6 41 6 61t-21 36q-159 -27 -235 -27q-8 0 -80 50q-9 46 -10 46t-1 -4z" />
<glyph unicode="&#xbd;" horiz-adv-x="1906" d="M78 58q0 28 136 211q18 9 33 25q131 176 357 444q28 32 112 129q39 70 158 225q2 9 6 26q16 9 43 55l30 52q67 77 139 189l82 128l25 64q6 2 17 14q41 111 96 111q30 0 62 -36q31 -38 31 -69q0 -50 -17 -81q-58 -78 -156 -232q0 -9 -9 -31q-59 -81 -163 -238 q-44 -45 -89 -133q-42 -47 -137 -158q-9 -23 -30 -65q-29 -18 -82 -64q-31 -55 -98 -170q3 -3 21 -3q32 0 118 36q32 14 125 51q174 67 282 67q56 0 85 -22q54 -42 54 -68q0 -71 -52 -168l-55 -99l1 -38q0 1 243 37q247 37 285 37q77 0 77 -60q0 -57 -204 -120 q-137 -41 -260 -62q-32 -6 -87 -20q-61 -16 -68 -16l-26 4q-15 3 -27 3q-5 0 -9 -1q-52 -13 -54 -13t-13 7q-13 6 -15 6q-72 0 -78 1q0 18 6 27q-90 24 -90 82q0 81 24 108q72 82 142 159v17q-5 5 -20 5q-44 0 -141 -46l-128 -58q-97 -50 -210 -130q-148 -105 -206 -134 q1 -2 1 -4q0 -4 -2 -9q-93 -75 -152 -75q-34 0 -87 45q-26 22 -26 58zM206 834v159q0 15 57 143l45 150q28 92 66 104q21 -8 63 -21q44 -77 44 -92q0 -6 -72 -207q-3 -17 -6 -44q-23 -73 -81 -233q-16 -7 -37 -27q-19 4 -49 29.5t-30 38.5z" />
<glyph unicode="&#xbe;" horiz-adv-x="1965" d="M38 1400q0 21 12 70q9 13 23 19q115 35 320 71q29 12 38 12q136 0 220 -44q24 -12 46 -70q32 -80 32 -101q0 -26 -50 -93q-14 -17 -72 -89q38 -23 96 -74q31 -39 36 -70q0 -2 6 -31q7 -29 7 -32q0 -103 -271 -211q-225 -89 -328 -89q-14 2 -59 20v69q51 31 229 110 q130 57 215 131q-55 42 -157 42q-3 0 -13.5 -3t-12.5 -3q-45 0 -103 34q-30 18 -30 61q0 46 15 60q5 6 107 43q17 14 45 35q86 39 138 111q-15 22 -70 22q-43 0 -187 -40l-144 -39q-88 0 -88 79zM282 129q0 91 85 186q165 182 343 363q140 141 281 282q173 177 454 445 q129 122 290 242q56 41 114 41q78 0 78 -109q0 -14 -1 -28q-189 -111 -648 -574l-136 -138q-113 -89 -318 -307q-40 -32 -108 -92q-12 -16 -148 -189q-25 -32 -128 -187q-20 0 -27 5q-42 -12 -45 -12q-16 0 -51 30t-35 42zM1137 531q0 78 56 181q51 98 116 155q8 7 79 8 q55 -47 55 -116q0 -27 -35 -73q-38 -53 -41 -67q4 -5 23 -5q85 0 193 41l55 56q1 11 4 27q25 21 48 69q22 46 66 66q10 2 29 2q82 0 82 -139q-9 -18 -56 -105q-64 -115 -82 -159q-2 -14 -11 -40q-51 -92 -107 -295q-39 -146 -94 -146q-83 0 -83 105q0 76 34 201 q45 166 51 166v-5q0 8 -13 18h-21q-15 -9 -44 -18l-149 -15q-76 0 -153 54q-2 17 -2 34z" />
<glyph unicode="&#xbf;" horiz-adv-x="1212" d="M8 -83q0 11 14 32q-3 9 -3 21q0 29 21 67q93 171 345 259q65 22 420 102q13 2 32 19q16 41 37 121q2 93 24 273q9 29 31 90q4 10 4 23q0 18 -7 41l27 27q138 0 138 -130q-12 -37 -24 -93q-6 -155 -49 -394q1 -6 1 -12q0 -47 -25 -127q-23 -42 -80 -42q-3 0 -13 3.5 t-13 3.5q-10 -1 -63 -15q-46 -3 -138 -18q-112 -36 -253 -82q-39 -21 -116 -68q-105 -68 -105 -117q0 -95 304 -95q19 -2 69 -5q41 -2 58 -2q8 0 11 1l395 23h3q38 0 104 -42q-11 -17 -21 -66q-58 -45 -111 -65q-114 -44 -183 -44h-254q-401 0 -566 175l-8 72q-5 64 -6 64z M960 1295q0 2 15 41q16 38 16 42q23 25 41 25q17 0 104 -20q59 -12 59 -61q0 -34 -43.5 -77.5t-78.5 -43.5q-28 0 -70.5 34.5t-42.5 59.5z" />
<glyph unicode="&#xc0;" horiz-adv-x="1194" d="M19 104q0 51 8 64q28 31 56 61q39 47 62 93q2 2 2 7q0 -4 -1 -4q-2 0 -12 53q-2 7 -2 13q0 22 17 34q29 14 59 27q55 25 70 47q3 4 64 105q18 15 50 51q77 130 227 364q3 16 10 41l104 172q0 12 4 35l53 75q21 6 21 8v1q67 0 106 -119q4 -11 40 -121q27 -81 50 -167 q25 -161 53 -284q24 -100 99 -277q9 -14 37 -59q27 -41 27 -57q0 -61 -73 -61h-63q-6 0 -47 27q-46 31 -56 35q-91 38 -186 57q-217 43 -347 43q-14 0 -27 -12l-15 12q-65 -4 -118 -114q-22 -24 -56 -69q-3 -17 -11 -42q-8 -16 -28 -50q-33 -27 -94 -79q-27 18 -54 34 q-29 23 -29 56zM467 515q5 -4 131 -22q90 -5 261 -28q48 -21 68 -21h28q7 14 7 19q-2 9 -17 42l-21 40q-23 108 -58 283q-3 5 -10 11q0 29 -4 75q-13 69 -14 70q-15 51 -47 77q-31 -42 -79 -152q-5 -23 -29 -49l-40 -43q-35 -69 -98 -173q-12 -10 -30 -29q-5 -15 -48 -100z M487 1595q0 67 37 67q21 0 98 -34l233 -104q69 -32 208 -100q28 -36 28 -56q0 -31 -27 -74q-241 62 -568 235q-9 5 -9 66z" />
<glyph unicode="&#xc1;" horiz-adv-x="1194" d="M19 104q0 51 8 64q28 31 56 61q39 47 62 93q2 2 2 7q0 -4 -1 -4q-2 0 -12 53q-2 7 -2 13q0 22 17 34q29 14 59 27q55 25 70 47q3 4 64 105q18 15 50 51q77 130 227 364q3 16 10 41l104 172q0 12 4 35l53 75q21 6 21 8v1q67 0 106 -119q4 -11 40 -121q27 -81 50 -167 q25 -161 53 -284q24 -100 99 -277q9 -14 37 -59q27 -41 27 -57q0 -61 -73 -61h-63q-6 0 -47 27q-46 31 -56 35q-91 38 -186 57q-217 43 -347 43q-14 0 -27 -12l-15 12q-65 -4 -118 -114q-22 -24 -56 -69q-3 -17 -11 -42q-8 -16 -28 -50q-33 -27 -94 -79q-27 18 -54 34 q-29 23 -29 56zM467 515q5 -4 131 -22q90 -5 261 -28q48 -21 68 -21h28q7 14 7 19q-2 9 -17 42l-21 40q-23 108 -58 283q-3 5 -10 11q0 29 -4 75q-13 69 -14 70q-15 51 -47 77q-31 -42 -79 -152q-5 -23 -29 -49l-40 -43q-35 -69 -98 -173q-12 -10 -30 -29q-5 -15 -48 -100z M468 1365q0 2 4.5 27.5t4.5 28.5q86 38 237 99q20 17 40 26q196 93 234 93q16 0 38.5 -13.5t22.5 -24.5q0 -46 -201 -160q-23 -9 -71 -27q-191 -117 -233 -117q-76 0 -76 68z" />
<glyph unicode="&#xc2;" horiz-adv-x="1194" d="M19 104q0 51 8 64q28 31 56 61q39 47 62 93q2 2 2 7q0 -4 -1 -4q-2 0 -12 53q-2 7 -2 13q0 22 17 34q29 14 59 27q55 25 70 47q3 4 64 105q18 15 50 51q77 130 227 364q3 16 10 41l104 172q0 12 4 35l53 75q21 6 21 8v1q67 0 106 -119q4 -11 40 -121q27 -81 50 -167 q25 -161 53 -284q24 -100 99 -277q9 -14 37 -59q27 -41 27 -57q0 -61 -73 -61h-63q-6 0 -47 27q-46 31 -56 35q-91 38 -186 57q-217 43 -347 43q-14 0 -27 -12l-15 12q-65 -4 -118 -114q-22 -24 -56 -69q-3 -17 -11 -42q-8 -16 -28 -50q-33 -27 -94 -79q-27 18 -54 34 q-29 23 -29 56zM409 1403q64 15 173 105l170 139h5q33 0 103 -32q74 -36 98 -65q58 -38 153 -108q100 -76 100 -144q0 -52 -64 -52q-3 0 -31.5 5.5t-30.5 5.5q-9 0 -140.5 99.5t-140.5 99.5q-31 0 -52 -22q-7 -11 -27 -34q-76 -60 -134 -100q-18 -13 -83 -13q-53 0 -75 41 q-13 38 -24 75zM467 515q5 -4 131 -22q90 -5 261 -28q48 -21 68 -21h28q7 14 7 19q-2 9 -17 42l-21 40q-23 108 -58 283q-3 5 -10 11q0 29 -4 75q-13 69 -14 70q-15 51 -47 77q-31 -42 -79 -152q-5 -23 -29 -49l-40 -43q-35 -69 -98 -173q-12 -10 -30 -29q-5 -15 -48 -100z " />
<glyph unicode="&#xc3;" horiz-adv-x="1194" d="M19 104q0 51 8 64q28 31 56 61q39 47 62 93q2 2 2 7q0 -4 -1 -4q-2 0 -12 53q-2 7 -2 13q0 22 17 34q29 14 59 27q55 25 70 47q3 4 64 105q18 15 50 51q77 130 227 364q3 16 10 41l104 172q0 12 4 35l53 75q21 6 21 8v1q67 0 106 -119q4 -11 40 -121q27 -81 50 -167 q25 -161 53 -284q24 -100 99 -277q9 -14 37 -59q27 -41 27 -57q0 -61 -73 -61h-63q-6 0 -47 27q-46 31 -56 35q-91 38 -186 57q-217 43 -347 43q-14 0 -27 -12l-15 12q-65 -4 -118 -114q-22 -24 -56 -69q-3 -17 -11 -42q-8 -16 -28 -50q-33 -27 -94 -79q-27 18 -54 34 q-29 23 -29 56zM360 1431q0 5 30 31q37 53 180 160q5 2 18 3q40 27 75 27q89 0 172 -74q95 -84 127 -84t193 77q147 71 147 76h-1q7 0 28 -6v-40q0 -16 -37 -39q0 -15 -3 -42q-221 -171 -332 -171q-37 0 -165 81q-114 72 -114 81h3q-27 0 -134 -92l-107 -93q-3 0 -26 5 q-25 3 -26 3q-28 66 -28 97zM467 515q5 -4 131 -22q90 -5 261 -28q48 -21 68 -21h28q7 14 7 19q-2 9 -17 42l-21 40q-23 108 -58 283q-3 5 -10 11q0 29 -4 75q-13 69 -14 70q-15 51 -47 77q-31 -42 -79 -152q-5 -23 -29 -49l-40 -43q-35 -69 -98 -173q-12 -10 -30 -29 q-5 -15 -48 -100z" />
<glyph unicode="&#xc4;" horiz-adv-x="1194" d="M19 104q0 51 8 64q28 31 56 61q39 47 62 93q2 2 2 7q0 -4 -1 -4q-2 0 -12 53q-2 7 -2 13q0 22 17 34q29 14 59 27q55 25 70 47q3 4 64 105q18 15 50 51q77 130 227 364q3 16 10 41l104 172q0 12 4 35l53 75q21 6 21 8v1q67 0 106 -119q4 -11 40 -121q27 -81 50 -167 q25 -161 53 -284q24 -100 99 -277q9 -14 37 -59q27 -41 27 -57q0 -61 -73 -61h-63q-6 0 -47 27q-46 31 -56 35q-91 38 -186 57q-217 43 -347 43q-14 0 -27 -12l-15 12q-65 -4 -118 -114q-22 -24 -56 -69q-3 -17 -11 -42q-8 -16 -28 -50q-33 -27 -94 -79q-27 18 -54 34 q-29 23 -29 56zM465 1511q0 62 49 103q34 -12 85 -32q72 -30 72 -68q0 -39 -30.5 -69.5t-70.5 -30.5q-41 0 -72 30q-33 30 -33 67zM467 515q5 -4 131 -22q90 -5 261 -28q48 -21 68 -21h28q7 14 7 19q-2 9 -17 42l-21 40q-23 108 -58 283q-3 5 -10 11q0 29 -4 75 q-13 69 -14 70q-15 51 -47 77q-31 -42 -79 -152q-5 -23 -29 -49l-40 -43q-35 -69 -98 -173q-12 -10 -30 -29q-5 -15 -48 -100zM893 1511q0 54 10 80h65q93 0 93 -119q0 -72 -67 -72q-101 0 -101 111z" />
<glyph unicode="&#xc5;" horiz-adv-x="1194" d="M19 104q0 51 8 64q28 31 56 61q39 47 62 93q2 2 2 7q0 -4 -1 -4q-2 0 -12 53q-2 7 -2 13q0 22 17 34q29 14 59 27q55 25 70 47q3 4 64 105q18 15 50 51q77 130 227 364q3 16 10 41l104 172q0 12 4 35l53 75q21 6 21 8v1q67 0 106 -119q4 -11 40 -121q27 -81 50 -167 q25 -161 53 -284q24 -100 99 -277q9 -14 37 -59q27 -41 27 -57q0 -61 -73 -61h-63q-6 0 -47 27q-46 31 -56 35q-91 38 -186 57q-217 43 -347 43q-14 0 -27 -12l-15 12q-65 -4 -118 -114q-22 -24 -56 -69q-3 -17 -11 -42q-8 -16 -28 -50q-33 -27 -94 -79q-27 18 -54 34 q-29 23 -29 56zM467 515q5 -4 131 -22q90 -5 261 -28q48 -21 68 -21h28q7 14 7 19q-2 9 -17 42l-21 40q-23 108 -58 283q-3 5 -10 11q0 29 -4 75q-13 69 -14 70q-15 51 -47 77q-31 -42 -79 -152q-5 -23 -29 -49l-40 -43q-35 -69 -98 -173q-12 -10 -30 -29q-5 -15 -48 -100z M561 1458q9 66 9 93v9v2q0 32 80 85q53 34 154 34q36 0 100 -19q25 -8 87 -50q32 -87 32 -98q0 -32 -12 -70q-8 -24 -53 -61q-28 -13 -74 -31q-62 -25 -121 -25q-58 0 -125 35q-77 41 -77 96zM675 1474q11 -7 36 -22q11 -6 46 -6q40 0 85 13q69 20 69 57t-136 51 q-22 -1 -36 -1q-4 -4 -20 -11q-44 -41 -44 -62v-19z" />
<glyph unicode="&#xc6;" horiz-adv-x="1982" d="M46 106q0 38 39 86q55 68 69 98q40 80 103 150q36 37 131 148q76 98 305 380q62 70 246 275q47 65 155 224q24 35 56 40q110 19 282 33q23 2 296 2q177 0 177 -67q0 -88 -210 -105q-61 -4 -233 -16q-179 -15 -249 -74q13 -64 34 -128q-2 -6 -13 -16q5 -34 17 -176 l11 -123q11 -126 40 -126q15 0 166 27l29 19q47 6 173 26q111 18 121 18q132 0 132 -84q0 -42 -58 -60q-169 -51 -393 -113q-76 -14 -191 -56q-10 -99 -10 -126q0 -108 55 -119l465 72q11 8 21 8q24 0 53 -23.5t29 -39.5q0 -77 -280 -159q-235 -67 -331 -67q-189 0 -189 169 q0 39 11 93q-6 46 -25 144q-10 14 -26 14q-8 0 -184 -20l-184 -20q-13 0 -67 3l-69 5q-31 0 -79 -57q-24 -18 -59 -54q-20 -29 -119 -169q-99 -139 -140 -139h-69q-38 82 -38 103zM701 631h153q6 3 48 13q76 8 180 44q0 10 -4 39l-5 27v203q0 47 -31 101 q-40 -30 -190.5 -204.5t-150.5 -188.5v-34z" />
<glyph unicode="&#xc7;" horiz-adv-x="1885" d="M34 560q0 63 56 190q24 57 144 167q159 147 290 207q426 195 668 244q19 9 71 24l301 45q1 0 47.5 14t50.5 14q52 0 95 -35q43 -34 43 -75q0 -26 -22 -63q-18 -14 -53 -32q-76 -1 -228 -21q-53 -18 -108 -33q-78 -18 -262 -62q-192 -47 -571 -258q-59 -33 -115 -67 q-106 -65 -167 -203q-10 -23 -10 -104q0 -92 111 -170q98 -69 215 -91q10 -2 75 -18t69 -16l54 4q54 3 77 3q10 0 63 -7l55 -9l86 13q79 11 106 13l780 51h5q33 0 41 -31q0 -5 4 -66q-15 -12 -48 -31q-344 -100 -480 -100q-2 0 -29 6t-30 6q-2 0 -35 -13q-35 -14 -40 -14 q-65 -1 -264 -13q-35 -12 -46 -12q-3 0 -18 7.5t-18 7.5q-5 0 -33.5 -10t-29.5 -10q-12 -3 -84 -3q-83 0 -195 25q-59 13 -191 40q-52 9 -52 43v2q-87 34 -126 63q-139 104 -232 258q0 28 -4 78q-12 45 -15 47q-1 0 -1 -5zM584 -485q0 84 104 109q60 2 172 9q26 7 75 18 q99 15 148 48q-55 35 -85 35q-4 0 -53 -5l-53 -5q-56 0 -88 38q-7 17 -27 50q6 2 9 28q5 36 7 44t5 13l26 56q5 31 35 90q8 4 70 18q50 -47 57 -126q-5 -11 -5 -39h9q15 0 40 -3q110 -36 150 -57q80 -44 85 -105q16 -25 16 -32q0 -8 -42 -87q-35 -65 -115 -88 q-9 -3 -138 -29q-134 -27 -134 -29h2q-23 4 -27 4q-2 0 -88 -13t-89 -13q-25 0 -45.5 22.5t-20.5 48.5z" />
<glyph unicode="&#xc8;" horiz-adv-x="1435" d="M35 81q5 20 34 105q37 110 50 154l40 143q0 -2 -1 -2q-4 0 -34 50q-1 19 -17 56q40 24 99 76q11 15 57 181q0 -2 -2 -2q-1 5 -1 38l10 12q11 11 11 19q0 14 -32 31q-29 15 -50 15h-4q-16 56 -16 78q0 39 45 56q93 33 231 33l18 -5q2 0 46 15q188 10 495 28l307 18h2 q21 0 126 -42q8 -2 57 -2q29 -2 46 -18q-46 -22 -75 -22q5 0 5 -1q-7 -4 -48 -12h3q0 3 -61 3q-19 -7 -43 -14q-63 -4 -171 -20l-217 -33q-2 0 -14 3.5t-16 3.5h1q0 -3 -444 -76q-62 -76 -85 -269q27 -15 68 -15q3 0 22.5 6t21.5 6t35 -10q116 0 377 9l239 6h5q29 0 33 -15 q5 -28 12 -58q-40 -29 -168 -60q-110 -27 -307 -27q-129 0 -370 -33q-27 -4 -34 -36l-9 -40q-53 -135 -53 -179v-35q10 -3 24 -6l591 80q18 0 105 6l12 1l88 7q8 0 25 -12q15 -2 114 -2q0 1 86 14q46 0 101 -23q14 -49 17 -49q1 0 1 3q0 -25 -31.5 -50.5t-58.5 -25.5 q-1 0 -19 4q-17 3 -21 3q-2 0 -36 -10q-36 -12 -38 -13l-323 -28q-107 -9 -384 -53l-243 -38q-15 0 -111 22q-90 21 -111 21h-2zM468 1511q0 67 37 67q20 0 97 -34l233 -105q69 -31 209 -99q27 -36 27 -56q0 -32 -26 -74q-241 62 -567 235q-10 5 -10 66z" />
<glyph unicode="&#xc9;" horiz-adv-x="1435" d="M35 81q5 20 34 105q37 110 50 154l40 143q0 -2 -1 -2q-4 0 -34 50q-1 19 -17 56q40 24 99 76q11 15 57 181q0 -2 -2 -2q-1 5 -1 38l10 12q11 11 11 19q0 14 -32 31q-29 15 -50 15h-4q-16 56 -16 78q0 39 45 56q93 33 231 33l18 -5q2 0 46 15q188 10 495 28l307 18h2 q21 0 126 -42q8 -2 57 -2q29 -2 46 -18q-46 -22 -75 -22q5 0 5 -1q-7 -4 -48 -12h3q0 3 -61 3q-19 -7 -43 -14q-63 -4 -171 -20l-217 -33q-2 0 -14 3.5t-16 3.5h1q0 -3 -444 -76q-62 -76 -85 -269q27 -15 68 -15q3 0 22.5 6t21.5 6t35 -10q116 0 377 9l239 6h5q29 0 33 -15 q5 -28 12 -58q-40 -29 -168 -60q-110 -27 -307 -27q-129 0 -370 -33q-27 -4 -34 -36l-9 -40q-53 -135 -53 -179v-35q10 -3 24 -6l591 80q18 0 105 6l12 1l88 7q8 0 25 -12q15 -2 114 -2q0 1 86 14q46 0 101 -23q14 -49 17 -49q1 0 1 3q0 -25 -31.5 -50.5t-58.5 -25.5 q-1 0 -19 4q-17 3 -21 3q-2 0 -36 -10q-36 -12 -38 -13l-323 -28q-107 -9 -384 -53l-243 -38q-15 0 -111 22q-90 21 -111 21h-2zM514 1255q0 2 4.5 27.5t4.5 28.5q86 38 236 99q21 16 40 26q197 93 234 93q17 0 39 -13.5t22 -24.5q0 -46 -201 -160q-23 -9 -71 -28 q-190 -116 -233 -116q-75 0 -75 68z" />
<glyph unicode="&#xca;" horiz-adv-x="1435" d="M35 81q5 20 34 105q37 110 50 154l40 143q0 -2 -1 -2q-4 0 -34 50q-1 19 -17 56q40 24 99 76q11 15 57 181q0 -2 -2 -2q-1 5 -1 38l10 12q11 11 11 19q0 14 -32 31q-29 15 -50 15h-4q-16 56 -16 78q0 39 45 56q93 33 231 33l18 -5q2 0 46 15q188 10 495 28l307 18h2 q21 0 126 -42q8 -2 57 -2q29 -2 46 -18q-46 -22 -75 -22q5 0 5 -1q-7 -4 -48 -12h3q0 3 -61 3q-19 -7 -43 -14q-63 -4 -171 -20l-217 -33q-2 0 -14 3.5t-16 3.5h1q0 -3 -444 -76q-62 -76 -85 -269q27 -15 68 -15q3 0 22.5 6t21.5 6t35 -10q116 0 377 9l239 6h5q29 0 33 -15 q5 -28 12 -58q-40 -29 -168 -60q-110 -27 -307 -27q-129 0 -370 -33q-27 -4 -34 -36l-9 -40q-53 -135 -53 -179v-35q10 -3 24 -6l591 80q18 0 105 6l12 1l88 7q8 0 25 -12q15 -2 114 -2q0 1 86 14q46 0 101 -23q14 -49 17 -49q1 0 1 3q0 -25 -31.5 -50.5t-58.5 -25.5 q-1 0 -19 4q-17 3 -21 3q-2 0 -36 -10q-36 -12 -38 -13l-323 -28q-107 -9 -384 -53l-243 -38q-15 0 -111 22q-90 21 -111 21h-2zM397 1357q63 16 173 105l169 140h5q33 0 103 -32q74 -36 98 -65q58 -38 153 -109q100 -76 100 -143q0 -52 -64 -52q-3 0 -31 5q-29 6 -31 6 q-9 0 -140 99q-132 100 -141 100q-31 0 -52 -23q-7 -10 -27 -33q-76 -60 -134 -100q-18 -13 -83 -13q-53 0 -75 41q-12 38 -23 74z" />
<glyph unicode="&#xcb;" horiz-adv-x="1435" d="M35 81q5 20 33 105q38 110 50 154l40 143v-2q-4 0 -34 50q-2 19 -18 56q41 24 99 76q11 15 57 181q0 -2 -1 -2q-1 5 -1 38l10 12q10 11 10 19q0 14 -32 31q-29 15 -50 15h-4q-16 56 -16 78q0 39 46 56q93 33 231 33l18 -5q2 0 46 15q188 10 495 28l307 18h2q21 0 126 -42 q8 -2 57 -2q29 -2 46 -18q-46 -22 -75 -22q5 0 5 -1q-7 -4 -48 -12h3q0 3 -61 3q-19 -7 -43 -14q-63 -4 -171 -20l-217 -33q-2 0 -14 3.5t-16 3.5h1q0 -3 -444 -76q-62 -76 -86 -269q28 -15 69 -15q3 0 22.5 6t21.5 6t35 -10q116 0 377 9l239 6h5q29 0 33 -15q5 -28 12 -58 q-40 -29 -168 -60q-110 -27 -307 -27q-129 0 -370 -33q-27 -4 -34 -36l-10 -40q-53 -135 -53 -179v-35q11 -3 25 -6l591 80q18 0 105 6l12 1l88 7q8 0 25 -12q15 -2 114 -2q0 1 86 14q46 0 101 -23q14 -49 17 -49q1 0 1 3q0 -25 -31.5 -50.5t-58.5 -25.5q-1 0 -19 4 q-17 3 -21 3q-2 0 -36 -10q-36 -12 -38 -13l-323 -28q-107 -9 -384 -53l-243 -38q-15 0 -111 22q-90 21 -111 21h-3q-9 27 -9 30zM491 1381q0 63 49 103q34 -11 85 -32q72 -29 72 -68q0 -38 -30 -68q-31 -32 -71 -32q-41 0 -72 31q-33 29 -33 66zM919 1381q0 54 10 79h64 q94 0 94 -118q0 -72 -67 -72q-101 0 -101 111z" />
<glyph unicode="&#xcc;" horiz-adv-x="634" d="M41 1478q0 66 37 66q20 0 97 -33l233 -105q69 -31 208 -100q28 -36 28 -55q0 -32 -27 -74q-241 62 -567 235q-9 5 -9 66zM137 233q0 608 123 820q65 114 107 114q61 0 61 -125q0 -14 -35 -181q-37 -179 -61 -255q-1 -10 -21 -125q-31 -178 -84 -428q-9 -7 -37 -27 q-15 11 -37 34q-16 28 -16 173z" />
<glyph unicode="&#xcd;" horiz-adv-x="595" d="M27 1268q0 2 4.5 27.5t4.5 28.5q86 38 237 99q21 16 41 26q196 93 233 93q16 0 38.5 -13.5t22.5 -25.5q0 -45 -200 -159q-23 -9 -71 -28q-191 -116 -234 -116q-76 0 -76 68zM96 233q0 608 123 820q65 114 107 114q61 0 61 -125q0 -14 -35 -181q-37 -179 -61 -255 q-2 -10 -21 -125q-31 -178 -83 -428q-10 -7 -37 -27q-15 11 -38 34q-16 28 -16 173z" />
<glyph unicode="&#xce;" horiz-adv-x="822" d="M40 1344q64 16 173 105l170 140h5q33 0 103 -32q74 -36 98 -65q58 -38 152 -109q100 -76 100 -143q0 -52 -63 -52q-3 0 -31 5q-29 6 -31 6q-10 0 -141 99q-131 100 -140 100q-31 0 -52 -23q-7 -10 -27 -33q-76 -60 -134 -100q-18 -13 -83 -13q-53 0 -75 41q-13 38 -24 74 zM208 233q0 608 122 820q66 114 108 114q61 0 61 -125q0 -14 -35 -181q-37 -179 -61 -255q-2 -10 -21 -125q-32 -178 -83 -428q-11 -7 -38 -27q-15 11 -37 34q-16 28 -16 173z" />
<glyph unicode="&#xcf;" horiz-adv-x="627" d="M38 1303q0 63 49 103q34 -11 85 -31q72 -30 72 -69q0 -38 -31 -68.5t-71 -30.5t-72 30t-32 66zM137 233q0 608 123 820q65 114 107 114q61 0 61 -125q0 -14 -35 -181q-37 -179 -61 -255q-1 -10 -21 -125q-31 -178 -84 -428q-9 -7 -37 -27q-15 11 -37 34q-16 28 -16 173z M466 1303q0 54 9 80h65q93 0 93 -118q0 -72 -67 -72q-100 0 -100 110z" />
<glyph unicode="&#xd0;" horiz-adv-x="2408" d="M7 1501q0 80 39 90q71 17 204 23q154 7 210 15q211 30 656 30q39 0 345 -35q53 -22 80 -22q3 0 13 4q9 5 13 5q18 0 172 -42q180 -49 266 -84q59 -36 129 -80q91 -58 138 -120q21 -26 59 -118t38 -114q0 -64 -48 -165q-41 -83 -237 -238t-313 -196q-18 -20 -45 -43 q-67 -28 -197 -85q-23 -17 -67 -44q-91 -37 -288 -121l-68 -14q-71 -37 -142 -66q-58 -24 -210 -68q-163 -47 -195 -47q-47 0 -64 19q-102 113 -149 201q-2 5 -2 51q2 13 11 70q8 54 10 82q3 5 13 17q18 122 59 384q-15 14 -32 14q-4 0 -110 -16l-110 -17q-160 0 -160 161 q0 88 149 88q6 0 26.5 -3t22.5 -3q107 0 235 33q21 12 34 27q58 259 58 301q0 33 -51 33l-366 -33q-39 0 -82.5 45t-43.5 81zM596 291q0 -33 11 -51l79 6q84 0 461 153q325 130 373 157q109 60 288 162q16 18 45 42q48 21 155 115q129 115 129 171q0 324 -910 388l-181 13 l-101 -8q-100 -7 -131 -7q-77 -265 -77 -286q1 0 9 -51q9 0 78 -16h-1q0 1 116 6q129 6 159 6q3 0 38 -3q34 -2 40 -2q15 0 67 -18t59 -28q11 -69 13 -69q1 0 1 2q0 -49 -41 -49q-5 0 -15 5q-12 3 -16 3q0 -2 -533 -83q-5 -5 -28 -32q-20 -84 -34 -177q-8 -49 -19 -186 q-6 -8 -14 -17q0 -23 -10 -85z" />
<glyph unicode="&#xd1;" horiz-adv-x="1247" d="M28 300l252 509q1 2 126 240q10 26 40 99q30 69 81 69q33 0 64 -31q42 -41 59 -77q61 -135 115 -290q5 -15 48 -181q6 -8 16 -23q31 -99 45 -136q32 -86 77 -161q24 26 70 119q66 132 125 269q24 95 91 284q14 17 37 46q1 16 6 41q11 21 36 65q20 13 46 43q11 30 37 68 q5 2 20 2q53 0 53 -46q0 -18 -54 -144v-4q0 -22 -6 -58l-29 -88q-26 -54 -67 -147q-13 -30 -42 -137q-5 -35 -19 -100l-85 -184q-49 -107 -59 -182q-26 -68 -26 -79q0 -13 6 -21q-13 -4 -62 -26q-40 -18 -46 -18q-14 0 -45 18.5t-40 32.5q-48 78 -176 391q-8 43 -36 130 q-12 18 -31 63q-2 41 -12 80q-17 67 -96 227q-36 -13 -67 -90q-23 -56 -82 -199q-46 -76 -132 -237q-23 -59 -76 -179q-24 -21 -48 -56q-11 -2 -21 -2q-29 0 -61 35t-32 65zM555 1398q2 6 15 18l15 14q37 53 180 160q4 1 18 3q39 27 74 27q89 0 172 -74q95 -84 128 -84 q31 0 192 77q147 70 147 75v1q6 -1 27 -7v-39q0 -16 -37 -40q0 -14 -3 -41q-221 -172 -332 -172q-37 0 -165 82q-113 72 -113 80q0 1 2 1q-27 0 -133 -92l-108 -93q-2 0 -26 4t-26 4q-27 65 -27 96z" />
<glyph unicode="&#xd2;" horiz-adv-x="1555" d="M19 565q0 3 10 35.5t11 36.5q5 53 10 87q28 41 61 95q28 45 162 184q5 6 45 18q10 8 34 26q8 4 159 54q36 13 80 26q305 46 461 46q320 0 526 -145q136 -96 136 -310q0 -43 -8 -94q19 -8 19 -20l-49 -80q2 -5 8 -13q0 1 -1 1q-3 0 -33 -75q-11 -9 -24 -25 q-81 -131 -420 -303q-76 -39 -244 -86q-190 -54 -276 -54q-49 0 -187 47q-298 101 -397 247q-83 122 -83 302zM149 554l11 -7q-2 -16 -2 -32q0 -177 179 -283q159 -94 370 -94q212 0 527 166q355 187 355 377q0 3 6.5 25.5t6.5 25.5q0 64 -61 146q-35 47 -168.5 103 t-210.5 56q-2 0 -29 -3.5t-30 -3.5l-101 20q-4 0 -29 -10q-27 -10 -28 -10l-78 -5l-77 -6q-4 0 -20 6q-18 5 -20 5q-11 -4 -59 -29q-42 -10 -153 -36q-111 -28 -162 -72q0 -1 7 -30q0 -17 -65 -60q-56 -24 -112.5 -106t-56.5 -143zM548 1559q0 67 38 67q20 0 97 -34 l233 -104q69 -32 208 -100q28 -36 28 -56q0 -31 -26 -74q-242 62 -568 235q-10 5 -10 66z" />
<glyph unicode="&#xd3;" horiz-adv-x="1555" d="M19 565q0 3 10 35.5t11 36.5q5 53 10 87q28 41 61 95q28 45 162 184q5 6 45 18q10 8 34 26q8 4 159 54q36 13 80 26q305 46 461 46q320 0 526 -145q136 -96 136 -310q0 -43 -8 -94q19 -8 19 -20l-49 -80q2 -5 8 -13q0 1 -1 1q-3 0 -33 -75q-11 -9 -24 -25 q-81 -131 -420 -303q-76 -39 -244 -86q-190 -54 -276 -54q-49 0 -187 47q-298 101 -397 247q-83 122 -83 302zM149 554l11 -7q-2 -16 -2 -32q0 -177 179 -283q159 -94 370 -94q212 0 527 166q355 187 355 377q0 3 6.5 25.5t6.5 25.5q0 64 -61 146q-35 47 -168.5 103 t-210.5 56q-2 0 -29 -3.5t-30 -3.5l-101 20q-4 0 -29 -10q-27 -10 -28 -10l-78 -5l-77 -6q-4 0 -20 6q-18 5 -20 5q-11 -4 -59 -29q-42 -10 -153 -36q-111 -28 -162 -72q0 -1 7 -30q0 -17 -65 -60q-56 -24 -112.5 -106t-56.5 -143zM561 1266q0 2 5 27q4 26 4 28 q85 39 237 100q21 16 40 26q197 93 234 93q16 0 38.5 -13t22.5 -26q0 -45 -200 -159q-23 -9 -72 -28q-190 -116 -233 -116q-76 0 -76 68z" />
<glyph unicode="&#xd4;" horiz-adv-x="1555" d="M19 565q0 3 10 35.5t11 36.5q5 53 10 87q28 41 61 95q28 45 162 184q5 6 45 18q10 8 34 26q8 4 159 54q36 13 80 26q305 46 461 46q320 0 526 -145q136 -96 136 -310q0 -43 -8 -94q19 -8 19 -20l-49 -80q2 -5 8 -13q0 1 -1 1q-3 0 -33 -75q-11 -9 -24 -25 q-81 -131 -420 -303q-76 -39 -244 -86q-190 -54 -276 -54q-49 0 -187 47q-298 101 -397 247q-83 122 -83 302zM149 554l11 -7q-2 -16 -2 -32q0 -177 179 -283q159 -94 370 -94q212 0 527 166q355 187 355 377q0 3 6.5 25.5t6.5 25.5q0 64 -61 146q-35 47 -168.5 103 t-210.5 56q-2 0 -29 -3.5t-30 -3.5l-101 20q-4 0 -29 -10q-27 -10 -28 -10l-78 -5l-77 -6q-4 0 -20 6q-18 5 -20 5q-11 -4 -59 -29q-42 -10 -153 -36q-111 -28 -162 -72q0 -1 7 -30q0 -17 -65 -60q-56 -24 -112.5 -106t-56.5 -143zM596 1330q0 18 41 49q30 19 49 33 q9 7 98 114q63 77 109 77q17 -10 63 -48l75 -62q3 -10 10 -24q71 -54 128 -121q36 -42 36 -69q0 -15 -7 -35q-2 -8 -36 -8q-51 0 -87 13q-159 163 -179 163q-1 0 -110 -96q-111 -97 -127 -97q-46 0 -56 30l1 -2q2 8 2 54q-10 24 -10 29z" />
<glyph unicode="&#xd5;" horiz-adv-x="1555" d="M19 565q0 3 10 35.5t11 36.5q5 53 10 87q28 41 61 95q28 45 162 184q5 6 45 18q10 8 34 26q8 4 159 54q36 13 80 26q305 46 461 46q320 0 526 -145q136 -96 136 -310q0 -43 -8 -94q19 -8 19 -20l-49 -80q2 -5 8 -13q0 1 -1 1q-3 0 -33 -75q-11 -9 -24 -25 q-81 -131 -420 -303q-76 -39 -244 -86q-190 -54 -276 -54q-49 0 -187 47q-298 101 -397 247q-83 122 -83 302zM149 554l11 -7q-2 -16 -2 -32q0 -177 179 -283q159 -94 370 -94q212 0 527 166q355 187 355 377q0 3 6.5 25.5t6.5 25.5q0 64 -61 146q-35 47 -168.5 103 t-210.5 56q-2 0 -29 -3.5t-30 -3.5l-101 20q-4 0 -29 -10q-27 -10 -28 -10l-78 -5l-77 -6q-4 0 -20 6q-18 5 -20 5q-11 -4 -59 -29q-42 -10 -153 -36q-111 -28 -162 -72q0 -1 7 -30q0 -17 -65 -60q-56 -24 -112.5 -106t-56.5 -143zM452 1345q2 6 14 17l15 14q38 53 181 161 q4 1 18 2q39 28 74 28q89 0 173 -74q94 -85 127 -85q32 0 192 77q147 71 147 76v1q6 -1 27 -7v-39q0 -17 -37 -40q0 -14 -3 -42q-221 -171 -332 -171q-37 0 -165 81q-113 72 -113 81q0 1 2 1q-27 0 -133 -92l-107 -93q-3 0 -27 4t-26 4q-27 65 -27 96z" />
<glyph unicode="&#xd6;" horiz-adv-x="1555" d="M19 565q0 3 10 35.5t11 36.5q5 53 10 87q28 41 61 95q28 45 162 184q5 6 45 18q10 8 34 26q8 4 159 54q36 13 80 26q305 46 461 46q320 0 526 -145q136 -96 136 -310q0 -43 -8 -94q19 -8 19 -20l-49 -80q2 -5 8 -13q0 1 -1 1q-3 0 -33 -75q-11 -9 -24 -25 q-81 -131 -420 -303q-76 -39 -244 -86q-190 -54 -276 -54q-49 0 -187 47q-298 101 -397 247q-83 122 -83 302zM149 554l11 -7q-2 -16 -2 -32q0 -177 179 -283q159 -94 370 -94q212 0 527 166q355 187 355 377q0 3 6.5 25.5t6.5 25.5q0 64 -61 146q-35 47 -168.5 103 t-210.5 56q-2 0 -29 -3.5t-30 -3.5l-101 20q-4 0 -29 -10q-27 -10 -28 -10l-78 -5l-77 -6q-4 0 -20 6q-18 5 -20 5q-11 -4 -59 -29q-42 -10 -153 -36q-111 -28 -162 -72q0 -1 7 -30q0 -17 -65 -60q-56 -24 -112.5 -106t-56.5 -143zM525 1341q0 62 49 103q34 -12 85 -33 q72 -28 72 -68q0 -38 -30.5 -68.5t-71.5 -30.5q-40 0 -72 30t-32 67zM953 1341q0 53 9 79h65q94 0 94 -118q0 -72 -67 -72q-101 0 -101 111z" />
<glyph unicode="&#xd7;" horiz-adv-x="1061" d="M63 99q0 45 35 89q47 60 52 70q93 42 156 115q8 15 35 46q-28 27 -40 27q-7 0 -15 -3q9 0 20 8q-11 3 -21 7q-34 47 -99 155q-8 24 -21 73q37 43 143 43q24 0 50 -11q26 -27 79 -81q76 -77 96 -77q1 3 36 21q10 0 113 56q92 51 150 51q104 -9 115 -9q0 -4 10.5 -42.5 t10.5 -40.5q0 -15 -23 -48q-24 -32 -43 -42q-86 -46 -195 -138l168 -200q-21 -39 -29 -64q-27 -28 -76 -28q-36 0 -118 59q-20 17 -81 62q-40 10 -67 33q-23 -24 -33 -27q-26 -7 -55 -24q-11 -18 -38 -50q-13 -4 -37 -20q-22 -31 -71 -94q4 10 8 24q9 19 17 19q2 0 5 -1 q-60 -15 -60 -49q0 -6 1 -12q-1 0 -35 -9q-36 -9 -40 -9q-56 0 -82 74q-17 50 -21 52v-5z" />
<glyph unicode="&#xd8;" horiz-adv-x="1541" d="M35 637q0 328 398 561q32 6 90 21q132 57 237 57q2 0 40.5 -4.5t41.5 -4.5q74 16 80 16q3 0 34.5 -7.5t34.5 -7.5q97 0 125 -4q4 -1 56 -24t54 -23q224 163 254 163q87 0 87 -110q0 -39 -42 -82q-17 -18 -83 -70q-51 -41 -51 -53q0 5 1 5q7 0 55 -125q56 -148 56 -248 q0 -106 -79 -290q-34 -48 -149 -129q-1 0 -139 -54q-44 -18 -159 -64q-84 -31 -166 -31q-164 0 -250 18q-129 27 -129 31h5q-87 0 -191 -157q-28 -43 -72 -43q-28 0 -60.5 37t-32.5 67q0 39 113 214q0 8 -55 72q-62 74 -82 110q-22 40 -22 159zM223 613q0 -12 41 -77 q49 -76 83 -76q5 0 300 252q54 45 208 174q189 157 189 176q0 8 -21 27h-84q-86 0 -208 -36q-9 4 -19 4t-21 -4q-90 -31 -234 -97q-102 -63 -168 -160.5t-66 -182.5zM606 373q73 -26 143 -26q146 0 303 68q127 55 174 112q81 99 81 244q0 135 -70 166q-182 -159 -491 -411 q-140 -114 -140 -127v-26z" />
<glyph unicode="&#xd9;" horiz-adv-x="1494" d="M27 670l9 9q-2 42 -5 62q14 73 66 191q77 171 152 171l59 -44q-13 -17 -17 -58q-51 -31 -69 -81l-32 -87q-32 -64 -32 -133q0 -172 21 -249q12 -47 56 -120q31 -53 83 -92q68 -51 88 -60q28 -13 85 -13h90q28 0 187 55q154 53 173 65q37 25 138 93q69 61 211 178 q18 32 101 154q34 50 70 133q32 73 32 90v154q0 67 -1 71q-1 -4 -2 -25q2 39 43 39q4 0 67 -26q0 -12 8 -56l8 -45q0 -3 -8 -19q-7 -18 -7 -19q0 -70 3 -72q2 1 3 3q-14 -60 -59 -162q-53 -121 -65 -161q-8 -9 -23 -24q-5 -37 -20 -61q-45 -52 -131 -156q-40 -33 -117 -89 q-3 -5 -11 -30q-35 -21 -136 -83q-87 -55 -159 -76q-9 -14 -35 -32q-91 -40 -160 -40q-9 -1 -54 -3l-56 -3q-104 0 -245 57q-155 63 -192 136q-84 167 -98 256q-19 119 -19 202zM494 1452q0 68 37 68q20 0 97 -35l233 -104q69 -31 209 -100q27 -35 27 -55q0 -32 -27 -74 q-241 62 -566 235q-10 5 -10 65z" />
<glyph unicode="&#xda;" horiz-adv-x="1494" d="M27 670l9 9q-2 42 -5 62q14 73 66 191q77 171 152 171l59 -44q-13 -17 -17 -58q-51 -31 -69 -81l-32 -87q-32 -64 -32 -133q0 -172 21 -249q12 -47 56 -120q31 -53 83 -92q68 -51 88 -60q28 -13 85 -13h90q28 0 187 55q154 53 173 65q37 25 138 93q69 61 211 178 q18 32 101 154q34 50 70 133q32 73 32 90v154q0 67 -1 71q-1 -4 -2 -25q2 39 43 39q4 0 67 -26q0 -12 8 -56l8 -45q0 -3 -8 -19q-7 -18 -7 -19q0 -70 3 -72q2 1 3 3q-14 -60 -59 -162q-53 -121 -65 -161q-8 -9 -23 -24q-5 -37 -20 -61q-45 -52 -131 -156q-40 -33 -117 -89 q-3 -5 -11 -30q-35 -21 -136 -83q-87 -55 -159 -76q-9 -14 -35 -32q-91 -40 -160 -40q-9 -1 -54 -3l-56 -3q-104 0 -245 57q-155 63 -192 136q-84 167 -98 256q-19 119 -19 202zM586 1235q0 2 4 27.5t4 28.5q86 38 236 100q21 16 40 25q197 94 234 94q17 0 39 -14 q22 -13 22 -25q0 -45 -200 -160q-23 -8 -72 -28q-190 -115 -233 -115q-74 0 -74 67z" />
<glyph unicode="&#xdb;" horiz-adv-x="1494" d="M27 670l9 9q-2 42 -5 62q14 73 66 191q77 171 152 171l59 -44q-13 -17 -17 -58q-51 -31 -69 -81l-32 -87q-32 -64 -32 -133q0 -172 21 -249q12 -47 56 -120q31 -53 83 -92q68 -51 88 -60q28 -13 85 -13h90q28 0 187 55q154 53 173 65q37 25 138 93q69 61 211 178 q18 32 101 154q34 50 70 133q32 73 32 90v154q0 67 -1 71q-1 -4 -2 -25q2 39 43 39q4 0 67 -26q0 -12 8 -56l8 -45q0 -3 -8 -19q-7 -18 -7 -19q0 -70 3 -72q2 1 3 3q-14 -60 -59 -162q-53 -121 -65 -161q-8 -9 -23 -24q-5 -37 -20 -61q-45 -52 -131 -156q-40 -33 -117 -89 q-3 -5 -11 -30q-35 -21 -136 -83q-87 -55 -159 -76q-9 -14 -35 -32q-91 -40 -160 -40q-9 -1 -54 -3l-56 -3q-104 0 -245 57q-155 63 -192 136q-84 167 -98 256q-19 119 -19 202zM451 1295q0 15 55 40q40 15 67 27q10 5 130 92q85 61 148 61q22 -7 84 -38l101 -51 q4 -7 13 -19q96 -43 172 -97q49 -35 49 -56q0 -12 -8 -28q-5 -6 -49 -6q-69 0 -118 9q-215 133 -241 133q-2 0 -149.5 -78t-170.5 -78q-61 0 -74 23q5 6 5 44q-13 18 -14 22z" />
<glyph unicode="&#xdc;" horiz-adv-x="1494" d="M27 670l8 9q-2 42 -5 62q14 73 67 191q77 171 152 171l58 -44q-13 -17 -16 -58q-51 -31 -70 -81l-32 -87q-31 -64 -31 -133q0 -172 20 -249q13 -47 57 -120q31 -53 83 -92q68 -51 88 -60q28 -13 85 -13h90q28 0 187 55q154 53 173 65q37 25 138 93q69 61 211 178 q18 32 101 154q34 50 70 133q32 73 32 90v154q0 67 -1 71q-1 -4 -2 -25q2 39 43 39q4 0 67 -26q0 -12 8 -56l8 -45q0 -3 -8 -19q-7 -18 -7 -19q0 -70 3 -72q2 1 3 3q-14 -60 -59 -162q-53 -121 -65 -161q-8 -9 -23 -24q-5 -37 -20 -61q-45 -52 -131 -156q-40 -33 -117 -89 q-3 -5 -11 -30q-35 -21 -136 -83q-87 -55 -159 -76q-9 -14 -35 -32q-91 -40 -160 -40q-9 -1 -54 -3l-56 -3q-104 0 -245 57q-155 63 -192 136q-85 167 -99 256q-18 119 -18 202zM524 1329q0 63 49 103q33 -11 84 -31q72 -30 72 -69q0 -38 -30.5 -68t-70.5 -30t-72 29 q-32 30 -32 66zM951 1329q0 54 10 80h65q93 0 93 -118q0 -72 -67 -72q-101 0 -101 110z" />
<glyph unicode="&#xdd;" horiz-adv-x="770" d="M46 934q0 57 24 115h62q1 -7 41 -35l23 -165q44 -154 164 -154q100 0 305 151q72 54 280 206q30 22 58 22q18 0 44.5 -27.5t26.5 -41.5q0 -27 -32 -67q-26 -32 -109 -114q-98 -96 -153 -159q-28 -31 -111 -124q-33 -35 -131 -141q-51 -71 -130 -199q-7 -12 -29 -62 q-13 -43 -22 -67q-23 -60 -51 -60q-13 7 -79 44q-1 7 -1 16q0 19 3 44q88 190 142 273q11 17 40 32q2 9 5 24q8 15 88 107q0 8 10 21q-10 11 -40 11q-2 0 -78.5 -16t-78.5 -16q-54 0 -109 36t-80 86q-51 102 -72 184q-10 38 -10 76zM241 1209q0 2 4.5 27.5t4.5 28.5 q85 38 237 100q21 16 40 26q197 93 234 93q16 0 39 -14q22 -13 22 -25q0 -45 -200 -160q-23 -8 -72 -28q-190 -115 -233 -115q-76 0 -76 67z" />
<glyph unicode="&#xde;" horiz-adv-x="1552" d="M42 270q0 3 14 83.5t14 83.5v239q28 210 28 243q-8 61 -15 121q-3 31 -3 56q0 45 11 72q38 26 42 82q2 25 7 98q7 30 30 89q-4 0 -4 64q0 2 11 23q10 22 10 24q0 20 7 75q8 65 10 72q19 27 52 27q74 0 99 -39q50 -82 50 -131q0 -51 -45 -254q14 -28 52 -28q1 0 42 13 t48 14q46 4 122 18q48 9 80 9q14 0 25 -2q1 0 36 10.5t39 10.5q3 0 62 -8t63 -8q2 0 57 3.5t60 3.5q301 0 395 -141q67 -100 67 -164q0 -50 -67 -138q-38 -47 -273 -164q-62 -30 -131 -59q-92 -39 -149 -45q-15 -12 -56 -28q-72 -20 -437 -145l-86 -5q-17 -15 -17 -44 q0 -3 12 -56q9 -44 9 -52v-2v-131q0 -79 -32 -129q-116 -30 -116 -33q0 -1 3 -1q-126 0 -126 273zM302 729q0 -38 21 -80q176 42 509 147l214 92q120 61 191 138q20 22 46 56q0 27 -50 55l-219 10q-12 1 -12 2h7q-128 0 -336 -38q-118 -20 -209 -49q-51 -7 -121 -43 q-26 -42 -26 -110q0 -23 2 -102q0 -6 -8.5 -41.5t-8.5 -36.5z" />
<glyph unicode="&#xdf;" horiz-adv-x="1193" d="M28 72q14 36 29 89q1 30 39 180q20 76 39 150q10 161 56 361q33 141 69 246q11 13 32 41q27 57 82 159q15 15 42 45q24 64 103 140q31 28 121 83q91 55 108 55q39 0 91 -28h8q15 0 33 -3q103 -42 211 -120q5 -13 22 -49q38 -82 38 -139q0 -53 -60 -138q-21 -28 -182 -175 q-129 -116 -140 -203q183 -121 240 -171q118 -103 118 -188q0 -6 -73 -93q-25 -45 -94 -128q-16 -14 -107 -83q-76 -58 -80 -84q-87 -73 -114 -73q-29 0 -109 66v48q0 39 49 126q25 21 66 59q8 1 24 4q94 80 161 160q7 23 33 67q-14 14 -47 45q-5 6 -105 54q-52 25 -122 82 q-21 37 -76 85v96q19 14 32 40q0 28 21 79q37 52 222 210q131 112 131 200q0 68 -105 68q-32 0 -107 -53q-22 -17 -82 -60q-34 -39 -103 -123q-5 -18 -21 -55l-28 -28q-1 -33 -21 -99q-61 -119 -76 -195q-22 -112 -46 -302q-13 -11 -27 -36q-4 -47 -22 -150q-7 -16 -16 -47 q-12 -93 -50 -272q-2 -5 -47 -72q-31 -7 -31 -9q0 -1 3 -1q-41 0 -115 80q0 2 -8 29q-9 28 -9 30z" />
<glyph unicode="&#xe0;" d="M47 207q0 60 38 160q10 24 57 46l59 27q205 125 374 125q49 0 127 -28q22 -9 56.5 -66t34.5 -84q0 -48 -56 -83q-118 66 -183 66q-70 0 -145 -35q-94 -44 -150 -96q6 -29 67 -29q-5 0 -5 1q0 7 127 46q152 47 224 47q21 0 142 -101q131 -111 187 -140q23 -19 23 -29 q0 -34 -20.5 -63t-46.5 -29q-36 8 -213 102q-102 53 -111 56q-40 0 -112 -32q-96 -43 -112 -48q-63 -21 -126 -21q-79 0 -197 106q-39 58 -39 102zM197 850q0 68 38 68q20 0 97 -34l233 -105q69 -31 209 -99q27 -36 27 -56q0 -31 -26 -74q-241 62 -568 236q-10 5 -10 64z " />
<glyph unicode="&#xe1;" d="M47 207q0 60 38 160q10 24 57 46l59 27q205 125 374 125q49 0 127 -28q22 -9 56.5 -66t34.5 -84q0 -48 -56 -83q-118 66 -183 66q-70 0 -145 -35q-94 -44 -150 -96q6 -29 67 -29q-5 0 -5 1q0 7 127 46q152 47 224 47q21 0 142 -101q131 -111 187 -140q23 -19 23 -29 q0 -34 -20.5 -63t-46.5 -29q-36 8 -213 102q-102 53 -111 56q-40 0 -112 -32q-96 -43 -112 -48q-63 -21 -126 -21q-79 0 -197 106q-39 58 -39 102zM174 611q0 3 4 29q5 25 5 28q85 38 237 99q21 16 41 26q196 93 233 93q17 0 39.5 -13.5t22.5 -25.5q0 -45 -201 -159 q-23 -9 -71 -28q-191 -116 -234 -116q-76 0 -76 67z" />
<glyph unicode="&#xe2;" d="M47 207q0 60 38 160q10 24 57 46l59 27q205 125 374 125q49 0 127 -28q22 -9 56.5 -66t34.5 -84q0 -48 -56 -83q-118 66 -183 66q-70 0 -145 -35q-94 -44 -150 -96q6 -29 67 -29q-5 0 -5 1q0 7 127 46q152 47 224 47q21 0 142 -101q131 -111 187 -140q23 -19 23 -29 q0 -34 -20.5 -63t-46.5 -29q-36 8 -213 102q-102 53 -111 56q-40 0 -112 -32q-96 -43 -112 -48q-63 -21 -126 -21q-79 0 -197 106q-39 58 -39 102zM100 709q63 14 173 104l170 139h5q33 0 102 -32q75 -36 100 -65q58 -37 152 -108q100 -76 100 -143q0 -52 -65 -52 q-2 0 -30 5q-29 6 -32 6q-8 0 -139.5 99t-139.5 99q-32 0 -53 -22q-7 -11 -26 -34q-77 -60 -135 -100q-18 -13 -83 -13q-52 0 -75 41q-13 39 -24 76z" />
<glyph unicode="&#xe3;" d="M45 712q2 6 15 17l15 15q37 52 180 160q4 1 18 2q39 28 74 28q89 0 172 -74q95 -85 127 -85t193 77q147 71 147 76v1q6 -1 27 -7v-39q0 -16 -37 -40q0 -14 -3 -42q-221 -171 -332 -171q-37 0 -164 81q-114 72 -114 81q0 1 2 1q-26 0 -133 -92l-108 -93q-2 0 -26.5 4 t-25.5 4q-27 65 -27 96zM48 207q0 60 38 160q9 24 56 46l59 27q205 125 374 125q49 0 127 -28q22 -9 56.5 -66t34.5 -84q0 -48 -56 -83q-118 66 -183 66q-70 0 -145 -35q-92 -44 -149 -96q7 -29 67 -29q-5 0 -5 1q0 7 128 46q150 47 222 47q21 0 142 -101q131 -111 187 -140 q23 -19 23 -29q0 -34 -20.5 -63t-46.5 -29q-36 8 -213 102q-102 53 -111 56q-40 0 -112 -32q-96 -43 -112 -48q-63 -21 -126 -21q-79 0 -196 106q-39 58 -39 102z" />
<glyph unicode="&#xe4;" d="M47 207q0 60 39 160q9 24 56 46l59 27q205 125 374 125q49 0 127 -28q22 -9 56 -66t34 -84q0 -48 -55 -83q-118 66 -183 66q-70 0 -145 -35q-93 -44 -149 -96q6 -29 67 -29q-5 0 -5 1q0 7 127 46q151 47 223 47q21 0 142 -101q131 -111 187 -140q23 -19 23 -29 q0 -34 -20.5 -63t-46.5 -29q-36 8 -213 102q-102 53 -111 56q-40 0 -112 -32q-96 -43 -112 -48q-63 -21 -126 -21q-79 0 -197 106q-39 58 -39 102zM211 716q0 62 49 103q33 -12 85 -32q72 -29 72 -68q0 -38 -31 -69t-71 -31t-72 30.5t-32 66.5zM639 716q0 54 9 80h65 q93 0 93 -119q0 -72 -67 -72q-100 0 -100 111z" />
<glyph unicode="&#xe5;" d="M47 207q0 60 38 160q10 24 57 46l59 27q205 125 374 125q49 0 127 -28q22 -9 56.5 -66t34.5 -84q0 -48 -56 -83q-118 66 -183 66q-70 0 -145 -35q-94 -44 -150 -96q6 -29 67 -29q-5 0 -5 1q0 7 127 46q152 47 224 47q21 0 142 -101q131 -111 187 -140q23 -19 23 -29 q0 -34 -20.5 -63t-46.5 -29q-36 8 -213 102q-102 53 -111 56q-40 0 -112 -32q-96 -43 -112 -48q-63 -21 -126 -21q-79 0 -197 106q-39 58 -39 102zM216 688q11 75 11 105q0 8 -1 13v3q0 37 94 98q61 40 179 40q42 0 116 -23q30 -8 101 -56q38 -102 38 -116q0 -37 -15 -81 q-9 -28 -60 -70q-34 -16 -87 -37q-73 -28 -142 -28q-67 0 -144 40q-90 48 -90 112zM349 706q13 -8 43 -25q11 -8 53 -8q46 0 98 15q81 24 81 67t-159 60q-25 -1 -41 -1q-2 -3 -23 -13q-52 -48 -52 -73v-22z" />
<glyph unicode="&#xe6;" horiz-adv-x="1052" d="M36 529q0 24 4 40q13 18 40 40q94 38 122 38q7 -2 31 -10h10q156 0 278 -60q13 19 95 61.5t108 42.5l26 -10.5t30 -10.5q3 0 20 4t21 4q26 0 59 -28q40 -35 70 -60q36 -74 36 -122q0 -63 -36 -114q-10 -13 -126 -96q13 -13 95 -24q88 -12 92 -15q4 -12 4 -41 q0 -23 -1 -39q-11 -18 -41 -43q-80 -35 -121 -35h1q0 2 -32 9q-13 -3 -80 -3q-106 0 -210 62q-11 -17 -94 -60q-82 -44 -108 -44q-1 0 -26.5 10.5t-29.5 10.5l-18 -3t-22 -3q-32 0 -63 30q-51 47 -66 54q-35 78 -35 128q0 64 35 110q7 13 125 96q-14 16 -90 24q-84 9 -99 16 q-4 12 -4 41zM246 217q0 -13 18 -29h49q24 0 65 39q42 37 44 58h-34q-23 0 -77 -19q-65 -24 -65 -49zM631 411h34q19 0 77 21q65 23 65 47q0 12 -17 29h-49q-24 0 -66 -38q-42 -37 -44 -59z" />
<glyph unicode="&#xe7;" horiz-adv-x="973" d="M40 230q0 72 30 123q46 79 160 168q55 42 140 78q167 72 243 72q3 0 39 -4q37 -4 40 -4q88 0 117 -22q30 -22 30 -86q-2 0 -30 -57q-16 -12 -52 -12q-3 0 -26 5q-23 3 -26 3q-119 0 -374 -141q-63 -34 -87 -123q113 -81 240 -81h-1q0 1 122 8l119 8q3 0 93 13 q91 13 94 13q36 0 59 -17q2 -15 2 -28q0 -86 -96 -86q-3 0 -14 5q-12 3 -15 3q-8 0 -56 -23q-57 -26 -67 -28q-157 -35 -227 -35q-6 0 -30 4q-9 1 -18 1q-10 0 -21 -1q-26 -13 -47 -13q-99 0 -195.5 57.5t-122.5 137.5q-21 62 -23 62zM160 -452q0 77 95 101q54 1 157 7 q24 7 69 17q91 13 135 43q-51 32 -77 32q-11 0 -50 -4l-48 -4q-51 0 -81 34q-5 16 -23 46q6 2 9 31q4 36 9 47l24 50q5 30 32 84q7 3 64 16q45 -42 52 -115q-5 -11 -5 -37h8q15 1 38 -2q100 -33 136 -52q74 -40 79 -97q15 -22 15 -29t-40 -79q-31 -60 -104 -81 q-8 -3 -127 -26q-122 -24 -122 -27h1q-21 4 -25 4l-162 -24q-23 0 -41 21t-18 44z" />
<glyph unicode="&#xe8;" horiz-adv-x="916" d="M20 311q0 79 20 118q141 278 575 278q140 0 211 -65q54 -49 108 -123q7 -20 7 -61q0 -25 -2 -57q-7 -94 -41 -110q-51 0 -223 -23l-171 -23h1q0 -1 -89 -21q-11 9 -53 9q-11 -12 -13 -14q0 -27 200 -83q54 -3 125 -11q118 -14 118 -59q0 -12 -72 -49q-4 -3 -40 -38 q-67 -7 -67 -8h1q-4 0 -97 7l-99 7q-31 0 -103 33q-15 7 -82 42q-81 30 -147.5 108t-66.5 143zM173 1016q0 68 36 68q20 0 97 -34l234 -105q69 -31 208 -99q27 -36 27 -56q0 -31 -26 -74q-241 62 -566 235q-10 6 -10 65zM304 429q0 -18 10 -18h301q106 0 125 32 q-14 44 -22 72q-2 9 -53 34q-108 -10 -233 -31q-31 -6 -79.5 -39t-48.5 -50z" />
<glyph unicode="&#xe9;" horiz-adv-x="916" d="M20 311q0 79 20 118q141 278 575 278q140 0 211 -65q54 -49 108 -123q7 -20 7 -61q0 -25 -2 -57q-7 -94 -41 -110q-51 0 -223 -23l-171 -23h1q0 -1 -89 -21q-11 9 -53 9q-11 -12 -13 -14q0 -27 200 -83q54 -3 125 -11q118 -14 118 -59q0 -12 -72 -49q-4 -3 -40 -38 q-67 -7 -67 -8h1q-4 0 -97 7l-99 7q-31 0 -103 33q-15 7 -82 42q-81 30 -147.5 108t-66.5 143zM186 804q0 2 4.5 27.5t4.5 28.5q86 38 236 100q21 16 41 26q196 93 234 93q16 0 39 -14q22 -13 22 -25q0 -45 -201 -160q-23 -8 -71 -27q-191 -116 -234 -116q-75 0 -75 67z M304 429q0 -18 10 -18h301q106 0 125 32q-14 44 -22 72q-2 9 -53 34q-108 -10 -233 -31q-31 -6 -79.5 -39t-48.5 -50z" />
<glyph unicode="&#xea;" horiz-adv-x="916" d="M20 311q0 79 20 118q141 278 575 278q140 0 211 -65q54 -49 108 -123q7 -20 7 -61q0 -25 -2 -57q-7 -94 -41 -110q-51 0 -223 -23l-171 -23h1q0 -1 -89 -21q-11 9 -53 9q-11 -12 -13 -14q0 -27 200 -83q54 -3 125 -11q118 -14 118 -59q0 -12 -72 -49q-4 -3 -40 -38 q-67 -7 -67 -8h1q-4 0 -97 7l-99 7q-31 0 -103 33q-15 7 -82 42q-81 30 -147.5 108t-66.5 143zM87 890q63 15 173 105l169 139h5q33 0 103 -32q74 -36 98 -65q58 -38 153 -109q100 -76 100 -142q0 -53 -64 -53q-3 0 -31.5 6t-30.5 6q-10 0 -140 99q-132 99 -141 99 q-31 0 -52 -22q-7 -12 -27 -35q-76 -59 -134 -99q-18 -13 -83 -13q-53 0 -75 41q-12 38 -23 75zM304 429q0 -18 10 -18h301q106 0 125 32q-14 44 -22 72q-2 9 -53 34q-108 -10 -233 -31q-31 -6 -79.5 -39t-48.5 -50z" />
<glyph unicode="&#xeb;" horiz-adv-x="916" d="M19 311q0 79 21 118q141 278 575 278q140 0 211 -65q54 -49 108 -123q7 -20 7 -61q0 -25 -2 -57q-7 -94 -41 -110q-51 0 -223 -23l-171 -23h1q0 -1 -89 -21q-11 9 -53 9q-11 -12 -14 -14q0 -27 201 -83q54 -3 125 -11q118 -14 118 -59q0 -12 -72 -49q-4 -3 -40 -38 q-67 -7 -67 -8h1q-4 0 -97 7l-99 7q-31 0 -103 33q-15 7 -82 42q-81 30 -148 108t-67 143zM202 860q0 62 49 102q34 -11 85 -32q72 -29 72 -67q0 -39 -31 -69.5t-71 -30.5t-71 30q-33 30 -33 67zM304 429q0 -18 10 -18h301q106 0 125 32q-14 44 -22 72q-2 9 -53 34 q-108 -10 -233 -31q-31 -6 -80 -39q-48 -33 -48 -50zM630 860q0 54 10 79h64q94 0 94 -118q0 -72 -67 -72q-101 0 -101 111z" />
<glyph unicode="&#xec;" horiz-adv-x="622" d="M34 860q0 67 38 67q19 0 97 -34l232 -105q70 -31 209 -99q27 -36 27 -56q0 -31 -26 -73q-241 62 -567 234q-10 6 -10 66zM215 177q0 32 8 110q15 140 37 238q27 32 66 32t60 -62q14 -43 19 -373v-2q0 -16 -21 -102l-25 -6h-4q-18 0 -82 23q1 3 1 7q0 19 -22 52 q-31 48 -35 63q-2 6 -2 20z" />
<glyph unicode="&#xed;" horiz-adv-x="603" d="M40 636q0 1 5 27t5 29q85 37 236 99q20 16 40 25q196 94 234 94q16 0 38.5 -13.5t22.5 -25.5q0 -45 -201 -160q-23 -8 -71 -27q-191 -116 -233 -116q-76 0 -76 68zM226 177q0 32 8 110q14 140 36 238q27 32 67 32q38 0 59 -62q14 -43 19 -373v-2q0 -16 -21 -102l-25 -6 h-4q-18 0 -81 23q1 3 1 7q0 19 -22 52q-31 48 -36 63q-1 6 -1 20z" />
<glyph unicode="&#xee;" horiz-adv-x="816" d="M29 693q62 14 172 104l169 140h6q33 0 102 -33q75 -36 99 -65q59 -37 153 -108q100 -76 100 -143q0 -52 -65 -52q-2 0 -31 6q-28 5 -30 5q-9 0 -140.5 99t-140.5 99q-31 0 -53 -22q-6 -11 -25 -34q-77 -60 -135 -100q-18 -12 -83 -12q-52 0 -74 40q-14 39 -24 76z M296 177q0 32 8 110q15 140 38 238q26 32 65 32t60 -62q14 -43 19 -373v-2q0 -16 -21 -102l-25 -6h-3q-18 0 -82 23v7q0 19 -21 52q-32 48 -36 63q-2 6 -2 20z" />
<glyph unicode="&#xef;" horiz-adv-x="609" d="M32 711q0 62 49 103q33 -12 84 -32q72 -29 72 -68t-31 -69q-30 -31 -70 -31t-72 30.5t-32 66.5zM201 172q0 33 8 109q15 139 38 238q26 32 65 32t59 -63q15 -43 20 -372v-2q0 -17 -21 -102l-25 -6h-3q-18 0 -82 23v6q0 20 -21 52q-32 48 -36 63q-2 6 -2 22zM459 711 q0 54 10 80h65q92 0 92 -119q0 -72 -66 -72q-101 0 -101 111z" />
<glyph unicode="&#xf0;" horiz-adv-x="1178" d="M42 124q0 98 172 239q36 28 249 179q68 47 180 113q17 18 47 42q8 8 17 9h41q25 0 41 23q0 25 -3 31q-63 112 -217 313q-18 -8 -195 -113q-152 -90 -179 -90q-28 0 -46 26q-51 75 -51 115q0 31 44 56q18 9 70 39q13 9 143 90q88 55 88 71q-6 13 -50 66q-4 15 -15 39 q-156 138 -156 221q0 51 7 74q18 5 35 5q93 0 190 -109q20 -23 163 -193q28 9 101 44q66 40 158 90q110 60 191 60q59 0 59 -76q0 -17 -196 -163.5l-196 -146.5q5 0 218 -318q3 -11 6 -32q56 -69 104 -268q-7 -27 -10 -28q-2 0 -2 4l10 -7q10 -8 10 -17q0 -44 -31 -218 q-19 -116 -151 -208q-131 -93 -289 -104q-3 -5 -11 -12q-18 0 -100 -5l-82 -5q-32 -2 -62 -2q-302 0 -302 166zM417 186h58q6 0 29 11.5t26 11.5q6 0 14 -3q7 -5 8 -5q5 0 38 21q130 18 200 132q55 91 55 187v-1q-2 0 -31 105q-18 -23 -49 -68q7 -9 7 -18q0 -58 -118 -145 q-214 -162 -237 -183v-45z" />
<glyph unicode="&#xf1;" horiz-adv-x="977" d="M53 378q0 28 41 110q0 17 8 55q5 22 51 104l28 6q26 6 30 6q3 -14 42 -45.5t53 -31.5q3 0 174.5 76.5t175.5 76.5q98 0 209 -142q26 -32 72 -112q54 -131 54 -344q0 -137 -65 -137q-10 0 -44 17q-41 20 -60 24q-54 84 -54 169q0 94 -63 291q-11 13 -46 13q-32 0 -82 -28 q-9 -5 -28 -14l-54 -29q-37 -27 -142 -150q-120 -140 -146 -140q-68 0 -115 87q-39 72 -39 138zM63 883q2 6 15 18l14 13q37 54 181 160q5 2 18 3q39 27 74 27q89 0 172 -73q96 -84 128 -84q31 0 192 77q148 69 148 75q0 1 -2 1q7 -2 28 -7v-40q0 -16 -36 -39q0 -15 -4 -42 q-221 -171 -331 -171q-37 0 -165 81q-114 73 -114 80q0 1 2 1q-26 0 -133 -92l-107 -92q-3 0 -27 3.5t-26 3.5q-27 66 -27 97z" />
<glyph unicode="&#xf2;" horiz-adv-x="1092" d="M37 345q0 18 22.5 89t36.5 94q18 32 88 65l94 44q98 56 232 110l72 5q14 7 37 18q5 0 61.5 6t59.5 6q282 0 366 -240q40 -117 40 -132q0 -115 -57 -184t-219 -151q-115 -58 -258 -92q-37 -9 -83 -20q-118 0 -268 79q-167 89 -191 206q-3 12 -16 47q-17 45 -17 50z M241 327q0 -57 102 -111q89 -48 147 -48q98 0 267 84q195 98 195 197q0 141 -178 141q-129 0 -299 -56q-15 -12 -36 -28q-41 -2 -71 -20q-127 -124 -127 -159zM285 1101q0 67 38 67q19 0 97 -34l232 -105q70 -31 209 -100q27 -36 27 -55q0 -32 -26 -74q-241 62 -567 235 q-10 5 -10 66z" />
<glyph unicode="&#xf3;" horiz-adv-x="1092" d="M37 345q0 18 22.5 89t36.5 94q18 32 88 65l94 44q98 56 232 110l72 5q14 7 37 18q5 0 61.5 6t59.5 6q282 0 366 -240q40 -117 40 -132q0 -115 -57 -184t-219 -151q-115 -58 -258 -92q-37 -9 -83 -20q-118 0 -268 79q-167 89 -191 206q-3 12 -16 47q-17 45 -17 50z M241 327q0 -57 102 -111q89 -48 147 -48q98 0 267 84q195 98 195 197q0 141 -178 141q-129 0 -299 -56q-15 -12 -36 -28q-41 -2 -71 -20q-127 -124 -127 -159zM273 822q0 2 4 27.5t4 28.5q86 38 237 99q21 16 40 26q197 93 234 93q17 0 39 -13.5t22 -25.5q0 -45 -201 -159 q-22 -9 -71 -28q-190 -116 -233 -116q-75 0 -75 68z" />
<glyph unicode="&#xf4;" horiz-adv-x="1092" d="M37 345q0 18 22.5 89t36.5 94q18 32 88 65l94 44q98 56 232 110l72 5q14 7 37 18q5 0 61.5 6t59.5 6q282 0 366 -240q40 -117 40 -132q0 -115 -57 -184t-219 -151q-115 -58 -258 -92q-37 -9 -83 -20q-118 0 -268 79q-167 89 -191 206q-3 12 -16 47q-17 45 -17 50z M232 957q64 14 173 104l170 140h4q32 0 103 -33q75 -36 99 -64q58 -38 153 -109q100 -76 100 -143q0 -52 -65 -52q-2 0 -30.5 5.5t-31.5 5.5q-9 0 -139 99q-132 99 -141 99q-31 0 -52 -22q-7 -11 -27 -34q-76 -59 -134 -99q-18 -13 -83 -13q-53 0 -75 41q-13 38 -24 75z M241 327q0 -57 102 -111q89 -48 147 -48q98 0 267 84q195 98 195 197q0 141 -178 141q-129 0 -299 -56q-15 -12 -36 -28q-41 -2 -71 -20q-127 -124 -127 -159z" />
<glyph unicode="&#xf5;" horiz-adv-x="1092" d="M37 345q0 18 22.5 89t36.5 94q18 32 88 65l94 44q98 56 232 110l72 5q14 7 37 18q5 0 61.5 6t59.5 6q282 0 366 -240q40 -117 40 -132q0 -115 -57 -184t-219 -151q-115 -58 -258 -92q-37 -9 -83 -20q-118 0 -268 79q-167 89 -191 206q-3 12 -16 47q-17 45 -17 50z M122 943q2 6 14 17l15 14q37 53 181 160q5 2 18 3q39 28 74 28q89 0 172 -74q95 -85 128 -85q31 0 192 77q148 70 148 76q0 1 -2 1q7 -1 28 -7v-40q0 -16 -36 -40q0 -13 -4 -41q-221 -172 -332 -172q-37 0 -164 82q-114 73 -114 81q0 1 2 1q-27 0 -133 -93l-108 -92 q-2 0 -26 4t-26 4q-27 64 -27 96zM241 327q0 -57 102 -111q89 -48 147 -48q98 0 267 84q195 98 195 197q0 141 -178 141q-129 0 -299 -56q-15 -12 -36 -28q-41 -2 -71 -20q-127 -124 -127 -159z" />
<glyph unicode="&#xf6;" horiz-adv-x="1092" d="M37 345q0 18 22.5 89t36.5 94q18 32 88 65l94 44q98 56 232 110l72 5q14 7 37 18q5 0 61.5 6t59.5 6q282 0 366 -240q40 -117 40 -132q0 -115 -57 -184t-219 -151q-115 -58 -258 -92q-37 -9 -83 -20q-118 0 -268 79q-167 89 -191 206q-3 12 -16 47q-17 45 -17 50z M241 327q0 -57 102 -111q89 -48 147 -48q98 0 267 84q195 98 195 197q0 141 -178 141q-129 0 -299 -56q-15 -12 -36 -28q-41 -2 -71 -20q-127 -124 -127 -159zM322 950q0 62 49 102q33 -11 84 -31q73 -29 73 -69q0 -38 -31 -68.5t-71 -30.5t-72 30q-32 31 -32 67zM750 950 q0 53 9 80h65q93 0 93 -119q0 -72 -67 -72q-100 0 -100 111z" />
<glyph unicode="&#xf7;" horiz-adv-x="1672" d="M53 496q0 85 89 85q4 0 17.5 -3.5t14.5 -3.5q5 0 225 35l218 36l862 64h4q38 0 77 -45q40 -48 54 -114q-59 -24 -87 -57h-35q-74 0 -224 -10q-231 -16 -260 -16l-34 9h1q0 -2 -74 -15q-309 -25 -460 -52q-248 -44 -248 -46h1q-42 0 -91.5 48t-49.5 85zM699 135v90 q70 41 94 41q55 0 96.5 -40t41.5 -94q0 -108 -97 -108q-46 0 -90.5 36t-44.5 75zM724 909q0 23 3 51q19 15 50 15q42 0 173 -74q-35 -23 -59 -117q-8 -1 -70 -1q-97 0 -97 126z" />
<glyph unicode="&#xf8;" horiz-adv-x="1070" d="M25 455q0 28 82 125q109 127 185 165q58 29 141 29q3 0 42 -9q38 -8 41 -8t55 16q53 16 57 16q2 0 45.5 -7.5t48.5 -7.5q78 55 207 119q48 -80 48 -97q0 -3 -32 -64q-31 -60 -31 -62l33 -64q33 -62 36 -79q4 -32 15 -79l13 -14q15 -14 15 -23q-4 -7 -18 -22q3 -14 3 -34 q0 -32 -8 -79q-49 -82 -138 -131q-12 -8 -159 -72q-56 -26 -152 -26q-3 0 -15.5 4t-17.5 4q-46 0 -116 -101q-55 -50 -114 -115v1q0 39 -77 49q-40 30 -40 59q0 2 30 63q28 61 28 65q0 30 -54 77q-67 58 -98 104q-55 80 -55 198zM270 388q35 -20 59 -41q36 23 88 78 q60 65 64 98q-40 -9 -105 -27q-40 -29 -106 -71v-37zM578 308h32q70 11 126 54.5t56 83.5q0 14 -43 45q-104 -61 -171 -183z" />
<glyph unicode="&#xf9;" horiz-adv-x="1215" d="M67 504q0 125 81 227h49q61 -44 61 -137q0 -4 -3.5 -63t-3.5 -66q0 -164 177 -213q61 -16 61 -18q0 -1 -1 -1q3 0 33.5 3.5t34.5 3.5q95 0 258 107q97 64 193 188.5t109 199.5q3 15 36 43q32 29 46 29q49 0 49 -119q0 -64 -13 -97q-27 -69 -61 -156q-11 -3 -21 -17 q-7 -33 -49 -79l-66 -74q-3 -8 -8 -24q-98 -98 -264 -181q-162 -48 -234 -48q-45 0 -133 26q-331 100 -331 466zM351 1019q0 67 37 67q21 0 98 -34l233 -105q69 -31 208 -100q28 -36 28 -55q0 -32 -27 -74q-241 62 -568 235q-9 5 -9 66z" />
<glyph unicode="&#xfa;" horiz-adv-x="1215" d="M67 504q0 125 81 227h49q61 -44 61 -137q0 -4 -3.5 -63t-3.5 -66q0 -164 177 -213q61 -16 61 -18q0 -1 -1 -1q3 0 33.5 3.5t34.5 3.5q95 0 258 107q97 64 193 188.5t109 199.5q3 15 36 43q32 29 46 29q49 0 49 -119q0 -64 -13 -97q-27 -69 -61 -156q-11 -3 -21 -17 q-7 -33 -49 -79l-66 -74q-3 -8 -8 -24q-98 -98 -264 -181q-162 -48 -234 -48q-45 0 -133 26q-331 100 -331 466zM358 834q0 2 4.5 27.5t4.5 28.5q85 37 237 99q20 16 40 25q196 95 234 95q16 0 38 -14q23 -14 23 -25q0 -46 -201 -161q-23 -8 -71 -27q-191 -117 -233 -117 q-76 0 -76 69z" />
<glyph unicode="&#xfb;" horiz-adv-x="1215" d="M67 504q0 125 81 227h49q61 -44 61 -137q0 -4 -3.5 -63t-3.5 -66q0 -164 177 -213q61 -16 61 -18q0 -1 -1 -1q3 0 33.5 3.5t34.5 3.5q95 0 258 107q97 64 193 188.5t109 199.5q3 15 36 43q32 29 46 29q49 0 49 -119q0 -64 -13 -97q-27 -69 -61 -156q-11 -3 -21 -17 q-7 -33 -49 -79l-66 -74q-3 -8 -8 -24q-98 -98 -264 -181q-162 -48 -234 -48q-45 0 -133 26q-331 100 -331 466zM241 969q63 15 173 105l169 140h5q32 0 103 -34q75 -35 99 -64q58 -38 152 -109q100 -75 100 -143q0 -52 -64 -52q-3 0 -31 6t-31 6q-9 0 -140 99t-140 99 q-32 0 -53 -22q-6 -12 -26 -35q-76 -59 -134 -99q-19 -13 -83 -13q-53 0 -75 41q-13 38 -24 75z" />
<glyph unicode="&#xfc;" horiz-adv-x="1215" d="M67 504q0 125 81 227h49q61 -44 61 -137q0 -4 -3.5 -63t-3.5 -66q0 -164 177 -213q61 -16 61 -18q0 -1 -1 -1q3 0 33.5 3.5t34.5 3.5q95 0 258 107q97 64 193 188.5t109 199.5q3 15 36 43q32 29 46 29q49 0 49 -119q0 -64 -13 -97q-27 -69 -61 -156q-11 -3 -21 -17 q-7 -33 -49 -79l-66 -74q-3 -8 -8 -24q-98 -98 -264 -181q-162 -48 -234 -48q-45 0 -133 26q-331 100 -331 466zM362 954q0 62 49 103q34 -12 85 -33q72 -28 72 -67q0 -38 -31 -69t-71 -31t-72 31q-32 29 -32 66zM789 954q0 54 10 79h65q93 0 93 -118q0 -72 -66 -72 q-102 0 -102 111z" />
<glyph unicode="&#xfd;" horiz-adv-x="1083" d="M40 447q0 99 13 128q33 70 62 70q80 0 105 -144q6 -32 17 -148q52 -91 144 -91q15 3 75 19q81 21 103 25q106 20 212 87q45 29 176 113q15 20 44 54h96q46 -66 46 -128q0 -17 -42 -105.5t-70 -127.5q-20 -14 -46 -42q-15 -38 -79 -166l-3 -11l-2 -3q-3 -1 -19 -31 q-15 -10 -40 -40q-5 -14 -15 -76q-25 0 -37 -31.5t-46 -120.5q-15 -41 -66 -119q3 -16 3 -45q-15 -20 -39 -62q0 -9 -39 -165q-16 -39 -47 -116q-1 -10 -33 -123q-9 -33 -62 -33q-50 0 -86 38q-34 36 -34 89q0 35 49 170q7 18 32 103q11 12 30 39q14 65 253 642l-13 13 q-141 -61 -224 -61q-3 0 -47.5 12t-47.5 12q-2 0 -14.5 -4.5t-16.5 -4.5q-41 0 -118 46q-63 37 -82 59q-44 48 -59 123q3 4 3 10q-2 5 -3 10q-33 39 -33 136zM293 691q0 2 6 28q4 26 4 28q85 38 236 100q21 16 40 25q196 94 234 94q16 0 39 -14q22 -13 22 -25 q0 -45 -201 -160q-23 -8 -71 -28q-191 -116 -233 -116q-76 0 -76 68z" />
<glyph unicode="&#xfe;" horiz-adv-x="1021" d="M46 -270q0 135 55 201q-17 34 -17 54q5 7 27 60q4 25 4 87v-3q2 0 20 204q-9 76 -9 131v8q3 208 44 635q2 14 28 33.5t42 19.5q35 0 83 -36q44 -72 44 -268v-31l-10 -75q-2 -11 -2 -21q0 -36 23 -45q16 11 134.5 38.5t148.5 27.5q140 0 240 -54q10 -10 20 -23 q62 -108 62 -143q0 -43 -54 -124q-75 -112 -200 -172q-64 -30 -215 -102q-18 -8 -132 -89q-14 0 -42 -16q-5 -17 -5 -44q0 -37 9 -94q2 -13 2 -28q0 -32 -10 -68l-10 -104q-7 -69 -65 -123q-32 -6 -57 -6q-158 0 -158 170zM346 360v2l12 -56q148 59 206 90q119 63 156 133 l-50 10q-192 -36 -310 -107q-13 -72 -14 -72z" />
<glyph unicode="&#xff;" horiz-adv-x="1083" d="M40 447q0 99 13 128q33 70 62 70q80 0 105 -144q6 -32 17 -148q52 -91 144 -91q15 3 75 19q81 21 103 25q106 20 212 87q45 29 176 113q15 20 44 54h96q46 -66 46 -128q0 -17 -42 -105.5t-70 -127.5q-20 -14 -46 -42q-15 -38 -79 -166l-3 -11l-2 -3q-3 -1 -19 -31 q-15 -10 -40 -40q-5 -14 -15 -76q-25 0 -37 -31.5t-46 -120.5q-15 -41 -66 -119q3 -16 3 -45q-15 -20 -39 -62q0 -9 -39 -165q-16 -39 -47 -116q-1 -10 -33 -123q-9 -33 -62 -33q-50 0 -86 38q-35 36 -35 89q0 35 49 170q7 18 32 103q11 12 30 39q14 65 254 642l-13 13 q-141 -61 -224 -61q-3 0 -47.5 12t-47.5 12q-2 0 -14.5 -4.5t-16.5 -4.5q-41 0 -118 46q-63 37 -82 59q-44 48 -59 123q3 4 3 10q-3 5 -3 10q-33 39 -33 136zM303 811q0 63 49 104q34 -12 85 -32q72 -29 72 -69q0 -38 -31 -68q-31 -32 -71 -32t-72 30.5t-32 66.5zM731 811 q0 54 10 80h65q92 0 92 -118q0 -72 -66 -72q-101 0 -101 110z" />
<glyph unicode="&#x131;" horiz-adv-x="458" d="M130 186q0 34 9 116q15 147 39 251q28 34 69 34t62 -66q15 -46 21 -392v-2q0 -18 -22 -108l-26 -6q-1 -1 -4 -1q-20 0 -87 25q1 3 1 7q0 21 -22 55q-33 50 -38 66q-2 6 -2 21z" />
<glyph unicode="&#x141;" horiz-adv-x="2008" d="M55 772q0 6 2 8q20 16 283 123q171 69 176 165q18 51 39 340q2 35 7 106q8 76 37 110q53 14 73 14q38 0 48 -53q53 -56 53 -164q0 -30 -7 -75q-9 -74 -9 -127q0 -69 16 -100h25l144 56q144 57 156 57q29 0 54 -18q26 -18 26 -36q0 -73 -204 -188q-54 -29 -211 -115 q-32 -17 -80 -67q-31 -106 -70 -296q-35 -168 -35 -189q0 -6 5 -20q3 -15 3 -16q28 -2 61 -2q41 0 71 2l106 7q55 5 218 17q51 0 202 4q11 0 80 12q70 12 72 12q4 0 19.5 -8t18.5 -8q1 0 40 12t44 12q194 0 366 -29q17 -3 42 -28.5t25 -40.5q0 -18 -25 -48q-24 -29 -42 -31 q-227 -22 -440 -45q-494 -94 -1001 -94q-52 0 -98 45q-39 36 -39 72q0 7 2 13l111 499q0 13 -23 33q-243 -78 -243 -80q-40 0 -73 80q-25 59 -25 79z" />
<glyph unicode="&#x142;" horiz-adv-x="1219" d="M60 631q0 37 79 83q44 27 123 56q121 44 202 80q47 20 59 77q40 192 53 305q3 25 20 137q18 42 49 137l7 111q4 65 45 117q13 3 25 3q44 0 100 -21q2 -6 33 -69q28 -56 28 -65v1q-4 0 -60 -241q-61 -261 -61 -304q0 -54 42 -54q3 0 100 28.5t100 28.5q5 0 12 -4.5 t13 -4.5q13 0 17 23q45 19 65 19q23 0 47 -19q24 -18 24 -33q0 -6 -15 -41l-17 -39q-45 -61 -241 -129q-52 -18 -143 -65q-53 -27 -67 -75q-43 -157 -48 -329q-1 -89 -6 -354q0 -14 -24.5 -29.5t-42.5 -15.5q-3 0 -13.5 8t-14.5 8q-3 0 -32 -11q-30 -13 -33 -13 q-51 0 -80 75q-19 50 -19 82l34 235l34 234v38q-7 4 -20 4q-2 0 -136.5 -48.5t-140.5 -48.5q-26 0 -63 60q-34 54 -34 63z" />
<glyph unicode="&#x152;" horiz-adv-x="2801" d="M46 548q0 156 94 322v6q0 15 -11 59q-7 27 -7 53q0 89 77 172q36 38 162 101q4 1 204 66q103 34 128 34q3 0 23 -4q18 -3 23 -3q13 0 17 21q25 8 68 21q78 25 208 25q298 0 371 -41q23 -1 118 -11q73 -8 90 -8q23 0 145 27q27 5 176 5q2 0 26 7.5t27 7.5q5 0 32 -7.5 t30 -7.5t26 5t25 5q26 5 212 5h267q5 0 113 11l111 10q149 0 149 -98q0 -78 -137 -91q-7 0 -181 -12q-14 4 -34 4q-92 -24 -236 -31q-21 0 -236 -12q-63 -3 -137 -29v-21q16 -11 31 -30q46 -57 57 -138q8 -48 8 -205q42 -13 84 -13q43 2 124 7l124 8h7q59 0 201 -50 q27 -9 27 -42q0 -70 -175 -88q-1 0 -184 -11q-20 -8 -229 -33q-14 1 -30 1q-44 0 -108 -6q-57 -46 -129 -99q-49 -37 -182 -107q-94 -50 -114 -81q416 0 734 18q9 0 249 26l179 19q114 0 114 -126q0 -16 -2 -39q-32 -18 -100 -44q-198 -24 -239 -24q0 -1 -590 -35l-588 -32 q-9 -1 -19 -1q-84 0 -134 48q-3 6 -6 21q-31 36 -49 36q-4 0 -42 -10t-40 -10q-206 -24 -286 -24q-52 0 -168.5 17.5t-143.5 29.5q-15 15 -51 41q-27 5 -69 28q-19 15 -139 135q-5 6 -35 105.5t-30 116.5zM229 622q0 -22 12 -69q22 -89 96 -170q75 -82 156 -102 q98 -24 218 -24q113 0 377 69q167 43 315 114q257 120 401 254q98 92 98 158q0 52 -63.5 132.5t-120.5 103.5q-160 63 -288 105q-52 18 -103 27q-57 12 -170 12q-3 0 -42 4t-42 4q-105 0 -334 -47q-28 -13 -74 -30q9 -9 9 -24q0 -2 -10 -33q-11 -30 -11 -33 q-35 -48 -170 -90q-7 -10 -24 -27q-58 -19 -137 -127q-79 -107 -81 -171q0 -1 -6 -17.5t-6 -18.5z" />
<glyph unicode="&#x153;" horiz-adv-x="1680" d="M36 327q0 139 109 253q40 25 101 78q15 35 60 92q57 40 151 40q86 0 152 -10q57 -9 153 -45q11 -6 39 -24q35 -20 49 -20q4 0 59 35t82 46q153 65 194 65q65 0 127 -14q21 -10 81 -39q136 -64 151 -111q11 -36 11 -67q0 -59 -118 -207q-76 0 -107 -10l-275 -80 q22 -33 61 -39q122 -18 169 -18q3 0 53.5 4.5t53.5 4.5q185 0 230 -37q23 -20 23 -66q0 -34 1 -36q2 2 3 7q-5 -16 -52 -43q-40 -5 -186 -30q-103 -17 -154 -17q-102 0 -108 -2q3 0 11 -2q-44 3 -170 36q-2 1 -57 31q-53 29 -57 29q-13 0 -72 -33q-67 -38 -96 -50 q-66 -27 -132 -27h-126q-87 0 -225 70q-137 70 -179 134q-10 16 -10 102zM229 357q0 -56 149 -93q110 -27 195 -27q99 0 152 66q31 39 31 130q0 60 -4 64q-36 43 -107 68q-28 10 -80 10q-8 -5 -65 -28q-28 -2 -73 -14q-198 -129 -198 -176zM1014 530q71 0 158 23t116 51 q-62 18 -79 18q-101 0 -155 -39q-22 -14 -40 -53z" />
<glyph unicode="&#x160;" horiz-adv-x="951" d="M-3 84v3q13 10 38 24q447 103 675 198q156 66 156 110q0 36 -57 71q-66 42 -257 134q-156 62 -179 74q-48 23 -180 121q-168 126 -168 179q0 9 23 35l35 41l53 22q17 7 65 26q76 20 303 47q68 9 143 16q135 14 228 14q193 0 193 -77q0 -60 -82 -60q-5 0 -63 6l-63 7 q-8 0 -68 -7l-80 -9q-5 -1 -16 -1q-12 0 -30 1q-44 1 -53 1q-23 -3 -173 -18q-54 -12 -152 -26q-39 -2 -77 -26q8 -15 24 -40q40 -34 128 -98q34 -21 120 -59q16 -13 51 -33l16 -7q124 -47 327 -146q75 -37 121 -102q47 -66 47 -135q0 -41 -45 -76q-67 -51 -80 -68 q-29 0 -56 -3q-53 -36 -58 -36q-15 7 -18 7q-28 0 -140 -46q-87 -35 -208 -62l-13 -12q-12 -11 -25 -11q-2 0 -15.5 3t-16.5 3q-2 0 -94 -22q-93 -21 -97 -21q-57 0 -122 -12q-21 8 -41 33q-19 23 -19 37zM230 1512q0 66 66 66q9 0 50 -32q9 -11 25 -28q0 -4 2 -12 q94 -64 128 -64q87 0 182 70q16 17 51 46q46 23 70 23q38 0 38 -78q0 -34 -60 -82q-25 -19 -61 -47q-36 -24 -71 -31q-118 -23 -154 -23q-51 0 -65 6q-65 29 -126 80q-75 61 -75 106z" />
<glyph unicode="&#x161;" horiz-adv-x="942" d="M38 85q0 7 30 46l292 54q187 34 255 74q0 6 -2 11q-33 25 -205 96q-182 76 -209 92q-34 12 -109 60q-21 19 -21 82q0 -5 -1 -5q-2 0 -7 16q-2 6 -2 13q0 39 91 74q110 43 327 80q216 38 355 38q38 0 50 -12q57 -62 57 -91q0 -54 -38 -71q-31 -9 -286 -36q-49 -21 -55 -21 q-3 0 -16 4q-15 4 -17 4q-53 0 -121 -34q13 -25 43 -41q32 -5 132 -35q25 -9 104 -36l14 -5q15 -5 92 -38q47 -20 85 -66q15 -18 25 -71q0 -2 12.5 -21t12.5 -24q0 -16 -38 -44q-37 -30 -72 -41q-65 -20 -250 -77q-209 -63 -311 -63q-4 0 -41 8q-36 7 -38 7q-5 0 -37.5 -7.5 t-33.5 -7.5q-14 0 -41 35q-26 36 -26 53zM147 1112q0 90 78 90q11 0 61 -45q10 -13 29 -37q0 -6 4 -17q111 -85 153 -85q103 0 217 94q20 23 63 63q54 31 83 31q46 0 46 -106q0 -46 -72 -111q-30 -27 -74 -64q-43 -34 -84 -42q-143 -32 -186 -32q-61 0 -77 9 q-79 38 -152 108q-89 84 -89 144z" />
<glyph unicode="&#x178;" horiz-adv-x="770" d="M46 934q0 57 24 115h62q1 -7 41 -35l23 -165q44 -154 164 -154q100 0 305 151q72 54 280 206q30 22 58 22q18 0 45 -27.5t27 -41.5q0 -27 -32 -67q-27 -32 -109 -114q-98 -96 -154 -159q-27 -31 -110 -124q-34 -35 -132 -141q-51 -71 -130 -199q-7 -12 -29 -62 q-13 -43 -22 -67q-23 -60 -51 -60q-13 7 -79 44q-1 7 -1 16q0 19 3 44q88 190 142 273q11 17 40 32q2 9 5 24q8 15 88 107q0 8 10 21q-10 11 -40 11q-2 0 -78.5 -16t-78.5 -16q-54 0 -109 36t-80 86q-51 102 -72 184q-10 38 -10 76zM278 1303q0 63 49 103q33 -11 84 -31 q72 -30 72 -69q0 -38 -31 -68q-30 -31 -70 -31t-72 30t-32 66zM705 1303q0 54 10 80h65q93 0 93 -118q0 -72 -67 -72q-101 0 -101 110z" />
<glyph unicode="&#x17d;" horiz-adv-x="1260" d="M27 147q0 54 49 88q45 25 89 53q9 13 36 39q30 20 117 80q32 24 128 94q145 65 345 208q141 100 174 125q53 42 149 137q-40 27 -299 27l-394 -36q-128 0 -175 28q0 6 -24 71q0 57 40 57q3 0 61 -9.5t60 -9.5l49 11q54 11 74 12q21 1 254 12l166 8h29q82 0 192 -20 q41 -13 85 -20q82 -12 82 -78q0 -65 -96 -148q-72 -61 -109 -84q-24 -14 -77 -49l-59 -45q-4 -3 -87 -63q-133 -94 -363 -241q-165 -106 -288 -205q34 -38 170 -38q12 0 118 6l119 6q-2 0 -2 1t37 9q61 8 232 29q79 10 240 10q82 0 114 -26v-22q-19 -14 -60 -32l-216 -16 q-53 -14 -158 -30q-5 -5 -20 -15q-73 -18 -161 -31q-116 -17 -174 -18l-28 -1h-209q-45 0 -177 32q-33 28 -33 94zM463 1452q0 77 68 77q9 0 52 -38q8 -13 26 -33q0 -5 2 -14q96 -74 132 -74q89 0 187 82q17 19 53 53q46 27 72 27q40 0 40 -91q0 -40 -63 -95 q-25 -23 -62 -55q-38 -29 -73 -37q-123 -27 -160 -27q-51 0 -67 7q-66 34 -130 93q-77 73 -77 125z" />
<glyph unicode="&#x17e;" horiz-adv-x="1224" d="M107 100q5 42 32 104q3 10 103 95q87 49 250 153q38 25 105 108q-11 28 -34 28l-156 -15l-156 -16q-108 0 -108 82t75 93q262 40 547 40q7 0 42 -20q13 -7 40 -23q23 -36 23 -61q0 -182 -418 -449q26 -26 105 -26l471 38h-6q0 1 80 6h35q40 0 61 -6q23 -12 40 -28 q4 -10 4 -33q0 -56 -79 -78q-28 -4 -139 -20q-134 -20 -302 -37q-344 -34 -446 -34q-39 0 -92 19q-3 24 -77 80zM180 1099q0 90 78 90q11 0 60 -45q10 -13 29 -37q0 -6 4 -16q112 -86 153 -86q104 0 218 94q20 23 62 63q54 31 84 31q46 0 46 -106q0 -46 -72 -111 q-31 -26 -74 -64q-44 -34 -85 -42q-143 -32 -185 -32q-61 0 -78 9q-78 39 -151 108q-89 84 -89 144z" />
<glyph unicode="&#x192;" horiz-adv-x="825" d="M-188 -49q20 10 60 10q4 0 68 -16.5t67 -16.5h97q110 0 152 54q17 21 28 72q14 11 28 40q15 89 15 127l-18 86q-19 95 -20 117q-1 80 -4 184q-2 42 -40 98q-95 0 -130 11q-61 20 -61 85q0 50 47 114l90 11q3 0 10 -3q8 -3 11 -3q35 0 45 27q-1 12 -1 26q0 37 4 96 q16 81 40 168q13 50 76 235q25 42 64 120q14 4 32 18q34 98 183 98q11 0 105 -67q80 -58 80 -177q0 -36 -42 -69q-21 4 -59 18q-5 19 -35 48q-31 30 -49 30q-65 0 -141 -159q-4 -30 -15 -81q-61 -121 -61 -251v-59q27 -10 193 -25q114 -10 114 -65q0 -25 -41 -63 q-36 -33 -54 -36q-44 -7 -101 -12q-94 -18 -94 -60v2q3 0 63 -420q2 -15 2 -36t-2 -46q-5 -57 -5 -87q19 -31 19 -37q0 -56 -61.5 -163.5t-120.5 -156.5q-110 -19 -194 -19q-82 0 -91 3q-71 16 -80 19q-62 20 -104 60q-22 47 -69 122v29z" />
<glyph unicode="&#x2c6;" horiz-adv-x="939" d="M43 1416q66 15 181 110l179 146h5q34 0 108 -34q79 -37 104 -68q62 -39 160 -114q106 -80 106 -151q0 -55 -68 -55q-2 0 -32 7q-30 5 -33 5q-9 0 -147 104.5t-148 104.5q-33 0 -55 -23q-7 -12 -28 -36q-81 -62 -141 -105q-20 -14 -88 -14q-55 0 -78 44q-14 40 -25 79z " />
<glyph unicode="&#x2c7;" horiz-adv-x="876" d="M45 1621q0 95 83 95q12 0 63 -47q11 -15 32 -40q0 -6 4 -17q117 -91 161 -91q108 0 228 100q21 23 66 65q57 33 88 33q48 0 48 -111q0 -48 -76 -117q-31 -28 -77 -67q-46 -36 -89 -45q-151 -33 -195 -33q-64 0 -82 9q-82 41 -159 113q-95 89 -95 153z" />
<glyph unicode="&#x2d8;" horiz-adv-x="901" d="M63 1624q0 77 58 77q18 0 132.5 -86.5l114.5 -86.5q89 58 218 119q7 26 93 61q75 29 111 29q32 0 42 -81q0 -16 -63 -62q-15 -11 -76 -51q-65 -52 -134 -90q-32 -16 -104 -92q-46 -48 -105 -48q-33 0 -162 142q-25 15 -94 94q-31 36 -31 75z" />
<glyph unicode="&#x2d9;" horiz-adv-x="401" d="M90 1594q2 0 39 125q86 33 86 36h-1q35 0 67 -47.5t32 -93.5q0 -47 -42 -82t-94 -35q-35 0 -65 45q-22 33 -22 52z" />
<glyph unicode="&#x2da;" horiz-adv-x="703" d="M25 1414q14 89 14 128q0 7 -1 13v5q0 43 112 117q73 47 213 47q51 0 141 -26q35 -11 120 -69q45 -122 45 -138q0 -44 -17 -98q-11 -33 -72 -84q-40 -19 -105 -44q-87 -34 -169 -34q-80 0 -173 49q-108 57 -108 134zM185 1435l50 -30q14 -9 64 -9q56 0 118 18q96 28 96 80 t-190 72q-30 -2 -50 -2q-2 -3 -27 -15q-61 -57 -61 -87v-27z" />
<glyph unicode="&#x2db;" horiz-adv-x="786" d="M95 -275q0 12 24 74q30 76 37 107q4 16 14 64l21 108q17 26 46 87q61 35 95 35q28 0 85 -83q51 -75 51 -86q-8 -11 -46 -109q-23 -59 -36 -195q-40 -69 -40 -126q0 -38 42 -38q49 0 285 113q65 0 65 -113q0 -56 -15.5 -74t-134.5 -98q-136 -93 -171 -93q-49 0 -87 11 q-160 46 -204 128q-31 59 -31 288z" />
<glyph unicode="&#x2dc;" horiz-adv-x="1061" d="M46 1506q2 6 15 18l16 15q39 56 190 169q4 1 18 3q42 28 78 28q94 0 182 -77q100 -89 134 -89q33 0 202 81q156 74 156 80h-2q7 0 29 -7v-42q0 -16 -37 -41q0 -15 -4 -44q-233 -181 -350 -181q-39 0 -172 87q-120 76 -120 84q0 1 2 1q-28 0 -141 -97l-113 -98 q-3 0 -28 4.5t-27 4.5q-28 68 -28 101z" />
<glyph unicode="&#x2dd;" horiz-adv-x="860" d="M65 1173q0 51 32 88q199 228 271 338q18 27 73 27q24 0 34 -3q59 -54 59 -74q0 -76 -33 -138q-10 -10 -43 -39l17 -12q37 10 44 59q2 1 107.5 104t131.5 103t40 -12q21 -19 43 -30q1 -14 1 -29q0 -45 -15 -106q-21 -28 -308 -312q-45 -45 -93 -45q-23 0 -48 11 q-8 28 -8 54q0 50 24 87v21q-2 1 -5 1q-8 0 -24 -5q-121 -160 -237 -160q-4 0 -26 5q-21 5 -24 5z" />
<glyph unicode="&#x3c0;" horiz-adv-x="1511" d="M34 1279q0 94 97 104l673 79q24 9 65 19q215 29 309 29q39 0 100 -21q59 -22 77 -40q51 -53 51 -82q0 -11 -28 -31.5t-45 -20.5q-6 0 -26.5 8t-21.5 8q-212 0 -387 -60q-15 -5 -94 -150q-26 -48 -91 -176l-55 -174q21 -20 39 -20q15 0 177 11l176 12q0 -1 166 -27 q108 -17 177 -110q69 -95 69 -218q0 -60 -38 -222q-35 -142 -49 -178q-8 -19 -48 -19q-17 4 -94 36q-30 81 -35 192h-2q-15 0 -15 18q0 4 12 27q13 21 13 23l24 155q0 30 -5 43q-10 43 -59 51q-162 28 -162 29h1q-5 0 -32.5 -7.5l-27.5 -7.5q-31 -1 -253 -33q-37 -2 -87 -23 q-35 -48 -44 -176q-8 -110 -55 -133q-82 29 -82 33h1q-3 0 -15 -4.5t-15 -4.5q-13 0 -53 34q13 170 33 253l75 332q42 179 135 361v21q-20 3 -43 3q-20 0 -188 -21q-169 -23 -181 -23q-139 0 -139 101z" />
<glyph unicode="&#x2000;" horiz-adv-x="880" />
<glyph unicode="&#x2001;" horiz-adv-x="1761" />
<glyph unicode="&#x2002;" horiz-adv-x="880" />
<glyph unicode="&#x2003;" horiz-adv-x="1761" />
<glyph unicode="&#x2004;" horiz-adv-x="587" />
<glyph unicode="&#x2005;" horiz-adv-x="440" />
<glyph unicode="&#x2006;" horiz-adv-x="293" />
<glyph unicode="&#x2007;" horiz-adv-x="293" />
<glyph unicode="&#x2008;" horiz-adv-x="220" />
<glyph unicode="&#x2009;" horiz-adv-x="352" />
<glyph unicode="&#x200a;" horiz-adv-x="97" />
<glyph unicode="&#x2010;" horiz-adv-x="706" d="M53 442q0 94 96 94q164 0 174 -3q59 -9 158 -9l28 6q39 0 88 -16q34 -42 34 -74q0 -23 -40 -42q-10 -12 -31 -33q-18 -16 -62 -16q-11 0 -23 1q-34 -9 -94 -17q-35 1 -135 1q-9 0 -135 16q-10 4 -48 28q-10 39 -10 64z" />
<glyph unicode="&#x2011;" horiz-adv-x="706" d="M53 442q0 94 96 94q164 0 174 -3q59 -9 158 -9l28 6q39 0 88 -16q34 -42 34 -74q0 -23 -40 -42q-10 -12 -31 -33q-18 -16 -62 -16q-11 0 -23 1q-34 -9 -94 -17q-35 1 -135 1q-9 0 -135 16q-10 4 -48 28q-10 39 -10 64z" />
<glyph unicode="&#x2012;" horiz-adv-x="706" d="M53 442q0 94 96 94q164 0 174 -3q59 -9 158 -9l28 6q39 0 88 -16q34 -42 34 -74q0 -23 -40 -42q-10 -12 -31 -33q-18 -16 -62 -16q-11 0 -23 1q-34 -9 -94 -17q-35 1 -135 1q-9 0 -135 16q-10 4 -48 28q-10 39 -10 64z" />
<glyph unicode="&#x2013;" horiz-adv-x="1607" d="M36 375v54q0 91 11 112q27 51 87 51q-7 0 -7 -1l18 -2q28 -3 69 -4q48 -2 105 -2h342q35 2 204 16l203 17h-1q0 -1 185 -17l185 -16q28 0 62 16q78 -67 78 -100q0 -101 -267 -101q-14 0 -82 4l-85 4q-6 0 -55.5 -12t-75.5 -14q-537 -54 -800 -54q-90 0 -176 49z" />
<glyph unicode="&#x2014;" horiz-adv-x="2764" d="M35 572q43 42 66 47q44 12 121 12q10 -2 51 -7l56 -8q20 -2 354 -2q26 0 128 2l131 3q5 0 28 -7q25 -8 27 -8q38 1 225 10l223 10q135 7 258 7q162 0 303 -11q220 -18 277 -18h214q108 0 128 6q19 -16 60 -39v-6q0 -30 -28 -123q-167 -28 -291 -28h1l-14 -1h-44l-150 -4 l-233 -3l-477 3h-59q-219 0 -594 -8q-157 -4 -241 -8q-41 -9 -41 -10h-259q-171 0 -209 43q0 1 -5.5 68t-5.5 80z" />
<glyph unicode="&#x2018;" horiz-adv-x="542" d="M42 1259q0 50 89 220l49 42q11 22 34 55q160 155 199 155q27 0 83 -41q2 -5 13 -56q10 -45 10 -50q0 -33 -38 -66l-66 -30q-62 -44 -173 -190q-20 -27 -30 -100q-11 -89 -15 -101q-10 -18 -41 -18q-51 0 -87 83q-27 62 -27 97z" />
<glyph unicode="&#x2019;" horiz-adv-x="516" d="M64 1217q0 17 93 125q56 66 103 209q4 53 11 106q12 80 51 80q50 0 97 -28q38 -22 38 -152q0 -52 -35 -146q-8 -33 -62 -171q-13 -3 -31 -15q-21 -92 -156 -92q-109 0 -109 84z" />
<glyph unicode="&#x201a;" horiz-adv-x="555" d="M-55 -329q0 12 74 105q38 47 104 134q61 81 71 142q8 51 22 116q13 18 36 53h33q93 0 93 -172q0 -7 -43 -191q-37 -49 -117 -161q-9 -14 -78 -57q-80 -49 -100 -49q-38 0 -67 25q-28 24 -28 55z" />
<glyph unicode="&#x201c;" horiz-adv-x="675" d="M46 1277q0 116 96 268q89 140 177 195q69 -5 90 -75q23 -77 34 -119l78 95q52 50 103 50q37 0 65 -11q-1 -11 -1 -23q0 -27 5 -55q25 -21 25 -30q-15 -23 -111 -135q-1 -15 -15 -41q-45 -50 -52 -77l-3 -36l-25 -67q0 -23 38 -67q-20 -18 -50 -61h-6q-62 0 -93 56 q-15 29 -36 100q-3 14 -10 36q0 3 18 80q16 78 16 82q0 15 -13 41q-74 -28 -129 -152q-6 -7 -21 -22q1 -4 1 -11q0 -17 -5 -46q-8 -37 -9 -37t-1 1q0 -41 14 -107q22 -63 25 -63q-1 0 -1 1q0 -33 -41 -33q-79 0 -129 125q-34 85 -34 138z" />
<glyph unicode="&#x201d;" horiz-adv-x="845" d="M45 1237q0 11 77 94l125 134q31 33 41 80q14 10 34 40q1 20 5 80q1 22 25 48.5t44 26.5q44 0 75 -68q37 -85 40 -85q1 0 1 1q0 -90 -23 -126q-98 -159 -180 -243q-48 -28 -149 -91q-25 12 -69 54q-46 42 -46 55zM389 1204q0 46 62 114q73 78 109 147q21 41 77 179 q15 26 46 26q10 0 23 -1q23 -17 63 -61q42 -66 42 -89q0 -13 -18 -33v-7q0 -81 -115 -224q-123 -152 -199 -152q-90 0 -90 101z" />
<glyph unicode="&#x201e;" horiz-adv-x="769" d="M-55 -329q0 11 74 105q16 19 104 134q60 80 71 142q7 40 22 116q13 18 36 53h33q93 0 93 -172q0 -7 -42 -191q-38 -49 -118 -161q-9 -14 -78 -57q-80 -49 -100 -49q-38 0 -67 25q-28 24 -28 55zM288 -333q0 16 73 105q56 69 104 132q61 82 69 143q5 34 23 116 q14 16 36 54h34q93 0 93 -174q0 -7 -41 -190q-6 -5 -120 -164q-8 -11 -80 -54q-78 -49 -98 -49q-36 0 -64 26q-29 24 -29 55z" />
<glyph unicode="&#x2020;" horiz-adv-x="440" d="M5 1542q0 18 14 64q63 20 105 20q19 0 35 -5q17 19 26 80q5 36 50 36q38 0 59 -54q28 -69 35 -75q47 -6 112 -30q13 -39 13 -71q0 -20 -59 -21q-68 -1 -86 -13q-7 -17 -24 -172q-10 -94 -88 -110q-41 23 -44 104v4q0 19 7 49l15 63q1 5 1 11q0 35 -34 46q-13 -1 -28 -1 q-38 0 -90 6q-19 6 -19 69z" />
<glyph unicode="&#x2021;" horiz-adv-x="825" d="M36 1220q0 -5 1 -5t9 56q17 20 132 33q19 12 30 12q37 -7 42 -7q107 0 107 52q0 32 -21 32q-3 0 -71 -13q-67 -14 -70 -14q-84 0 -84 113q0 65 103 85q128 24 151 30q34 20 57 137h59q49 0 74 -51v-2q0 -28 25 -63l54 -7q36 -3 49 -3q3 0 21 4q18 5 20 5q15 0 39 -24 t24 -38q0 -20 -17 -36q-36 -33 -50 -49q-30 -5 -90 -12q-63 -8 -69 -37l-9 -48v-28q11 -5 84 -17q65 -9 88 -31q1 -8 1 -15q0 -75 -111 -101q-79 -18 -95 -36q-9 -63 -11 -71q-17 -62 -63 -85q-8 -6 -21 -6q-7 0 -67.5 72t-71.5 72q-3 0 -85.5 -10.5t-85.5 -10.5 q-38 0 -61 52q-17 38 -17 65z" />
<glyph unicode="&#x2022;" horiz-adv-x="794" d="M59 693q0 14 36 157q0 10 -5 18q206 125 268 125q22 0 144 -10q82 -7 181 -110q58 -61 58 -224q-2 0 -21 -44q-31 -109 -193 -145q-69 -15 -131 -15q-64 13 -69 13q-23 -2 -31 -2q-112 0 -174.5 63t-62.5 174z" />
<glyph unicode="&#x2026;" horiz-adv-x="1473" d="M63 119q0 13 31 57q-3 6 -3 13q0 63 87 63q31 0 95 -42q25 -57 25 -111q0 -16 -34 -63q-18 -26 -67 -26q-34 0 -84 40.5t-50 68.5zM642 135q0 35 31 72.5t62 37.5q21 0 71 -26q51 -28 51 -38q0 -162 -112 -162q-103 0 -103 116zM1157 119l10 39q11 39 11 49q25 29 77 29 q84 -17 95 -17q0 -25 -2 -51q2 -30 40 -31v-4q0 -32 -44 -75q-48 -46 -86 -46q-40 0 -70.5 33t-30.5 74z" />
<glyph unicode="&#x202f;" horiz-adv-x="352" />
<glyph unicode="&#x2030;" horiz-adv-x="2764" d="M36 201q0 36 44 75q57 50 67 68q34 14 114 102q101 112 117 126q188 165 250 211q98 74 241 203q-190 -35 -296 -35q-108 0 -189 35q-138 61 -176 153q-4 23 -17 114q0 4 -17 45t-17 45q0 37 66 129t88 92q39 0 73.5 -28t34.5 -63q0 -34 -38 -111l-37 -76 q0 -132 239 -132q248 0 248 135q0 38 -23 50q-4 4 -67 30q-55 1 -149 13l-114 32q-21 18 -21 87q0 60 22 92q76 16 80 20q-1 1 -5 1q4 0 103.5 -25t102.5 -25h-3q0 2 394 26l393 24h25q57 0 84 -21q38 -29 38 -110q0 -74 -59 -108q-103 -61 -252 -205l-258 -249l-170 -159 q-107 -99 -207 -151q-29 -35 -59 -61l-121 -104q-61 -51 -66 -102q-16 -23 -45 -68q-15 -16 -214 -207q-13 -12 -70 -12q-1 0 -14.5 -4t-16.5 -4q-103 0 -103 152zM672 350q17 43 69 116q39 40 111 72q165 74 385 118q20 15 27 15q93 0 188 -40q49 -21 77 -105 q20 -65 20 -114q0 -66 -2 -70q-1 0 -1 3q-133 -177 -251 -202q-24 -16 -64 -34q-94 -44 -181 -44h-46q-8 4 -48 13q-61 8 -152 39q-48 30 -88 111q-8 13 -23 33v14q0 28 -21 75zM933 300q48 -15 52 -18q5 0 45 15t44 16q8 1 27 1q36 0 45 3q66 35 192 97q22 36 27 37 q-4 9 -23 25q-7 0 -41 5q-36 3 -37 3q-58 0 -179 -52q-38 -23 -102 -64q2 -3 2 -8q0 -6 -2 -13q-34 -15 -50 -47zM1018 1369q26 -57 26 -119q0 -57 -23 -121l136 123q74 66 121 135h-134q-46 0 -126 -18zM1672 372q0 46 30.5 120t56.5 96q18 -14 43 -14q11 0 65 32 q64 39 97 52q46 20 216 46q3 0 42.5 19.5t42.5 19.5q302 -1 391 -94q43 -45 43 -153q0 -82 -26 -121v-2q0 -7 15 -21v3q-6 0 -24 -22q-54 -127 -249 -232q-178 -94 -305 -94q-92 0 -184 27q-52 16 -128 90q-77 75 -105 137q-21 48 -21 111zM1905 347q0 -38 60 -79t112 -41 q57 0 254 90q15 15 39 35q23 8 55 23q96 67 96 113v35q-90 25 -173 25q-86 0 -245 -51q-198 -64 -198 -150z" />
<glyph unicode="&#x2039;" horiz-adv-x="909" d="M78 547q0 7 34 105q505 479 574 479q91 0 91 -96q0 -55 -12 -66q-64 -58 -248 -215q-87 -74 -154 -148q29 -45 82 -46q24 -1 234 -66q178 -55 178 -129q0 -92 -73 -92q0 3 -448 141q-44 8 -170 36q-88 19 -88 97z" />
<glyph unicode="&#x203a;" horiz-adv-x="780" d="M57 275q0 52 33 80q133 93 399 287q-152 105 -374 264q-18 13 -18 75q0 72 43 86q34 -14 95 -36q15 -17 40 -39q90 -35 200 -114q20 -18 42 -41l142 -86q49 -29 49 -135q0 -48 -78 -104q-20 -14 -113 -78q-133 -91 -257 -191q-90 -72 -96 -72q-107 0 -107 104z" />
<glyph unicode="&#x2044;" horiz-adv-x="686" d="M-278 -3q0 49 61 202q54 137 72 166l141 218q86 133 350 458q99 121 251 293q22 26 298 260q168 143 204 143q19 0 41 -64q20 -55 20 -74q0 -51 -44 -98q-9 -10 -64 -61q-15 -29 -58 -79q-267 -207 -444 -416q-611 -729 -676 -1066h-103q-14 36 -31.5 69t-17.5 49z" />
<glyph unicode="&#x205f;" horiz-adv-x="440" />
<glyph unicode="&#x2122;" horiz-adv-x="1361" d="M54 1620q0 8 1 14q55 46 156 67q193 42 416 42q84 0 128 -52l76 -122q30 -48 49 -48q44 27 183 141q46 39 146 86q28 -11 66 -39q31 -39 31 -95q-1 -13 -11 -59q-7 -31 -14 -69q-8 -84 -27 -168q-8 -35 -65 -35q-63 0 -63 182v15q-6 3 -20 9q-33 -19 -81 -60 q-97 -108 -160 -108q-17 0 -136 150q-23 -22 -43 -84l-23 -71q-13 -19 -39 -19h-51q-46 99 -46 106q0 3 25.5 85t25.5 84q0 18 -28 18q-103 -1 -145 -35q-29 -119 -62 -294q-7 -35 -70 -35q-35 0 -62 35q-9 12 -9 70q-5 20 -7 21q-1 -1 -1 -6q0 59 29 185q-7 3 -19 3 q-2 0 -34 -12t-35 -12q-48 0 -70 57q-11 31 -11 53z" />
<glyph unicode="&#x2126;" horiz-adv-x="2415" d="M25 467q0 35 35 67q36 31 75 31q3 0 15.5 -4t17.5 -4h-4q0 2 128 13q31 3 93 8t77 26l27 206q17 124 53 221q82 226 151 315q72 92 260 206q22 13 135 37.5t153 24.5q17 -4 99 -23q25 -6 95 -22q38 -15 92 -67t66 -86q3 -13 14 -72q17 -53 17 -55q0 -57 -61 -72 q-22 5 -53 47l-45 61q-34 30 -155 83q-7 3 -63 3q-66 0 -195 -59q-59 -28 -138.5 -114t-106.5 -152q-13 -10 -30 -34q-88 -293 -88 -418v-15q36 -23 98 -23q5 0 85.5 13t83.5 13q4 0 21 -8.5t20 -8.5q116 0 192 4q6 1 13 1q27 0 77 -6l65 -8q72 0 111 35q51 46 115 66 q141 45 331 45q151 0 225 -40q39 -21 149 -83q53 -29 66 -107q6 -33 24 -129q27 -44 27 -59q0 -58 -117 -132q-81 -51 -131 -70q-140 -15 -183 -42h-94q-125 0 -221 55q-53 29 -119 101q-50 55 -66 55q-3 0 -27.5 -8t-27.5 -8q-15 0 -49 22q-28 18 -58 36q7 22 7 47 q0 16 -3 34q-43 20 -187 20q-246 0 -392 -33q-33 -8 -33 -33q0 -3 11 -26q12 -22 12 -24q0 -74 -3 -74v2q41 -183 44 -183q1 0 1 2q0 -27 -23 -53q-23 -28 -47 -28q-3 0 -48 9q-47 9 -55 10q-43 53 -71 150l-44 156q4 20 4 56q-7 10 -21 23q-34 -5 -142 -20 q-80 -13 -100 -13q-71 0 -127.5 34t-56.5 78zM1597 467q0 -53 131 -134q121 -75 173 -75q94 0 197 42q105 59 105 83q0 46 -90 99q-75 45 -100 47q-30 3 -121 12l-84 7q-38 0 -115 -21q-96 -26 -96 -60z" />
<glyph unicode="&#x2202;" horiz-adv-x="3644" d="M38 383q0 51 132 195q73 50 160 66q279 50 356 50q22 0 94 -3l98 -3q13 -1 26 -1q71 0 79 22q33 91 52 299q3 42 15 160q16 144 100 144q18 0 81 -27q0 -9 4 -59l4 -53l-65 -595q0 -31 -194 -94l-138 8l-138 8q-34 -6 -145 -21q-42 -3 -160 -16q-136 -16 -136 -87 q0 -14 45.5 -52t84.5 -57q122 -57 334 -57q226 0 384 18q74 18 233 45q5 23 5 31q0 3 -1 4q-34 68 -34 124q0 46 26 109q91 212 396 212q106 0 218.5 -34.5t154.5 -81.5q24 -26 24 -83q0 -70 -61 -139q-36 -40 -118 -91l-150 -94q8 -11 43 -27q64 -17 127 -17q25 0 156 4 l157 5q78 3 151 23q109 32 114 84l21 58v233q0 3 22 52q172 99 303 99q153 0 310 -27q45 -12 123 -26q26 -12 81 -23q9 -10 23 -19q50 0 163 -36v-1q0 -33 -65 -60q-65 -26 -146 -26q-47 3 -232 12l-234 12h-19q-81 0 -128 -39q-4 -18 -16 -63q6 -14 6 -31q0 -50 -59 -172 q-66 -140 -242 -190q-139 -40 -426 -40q-176 0 -278 30q-38 3 -93 13q-32 10 -103 46q-65 32 -74 32q-15 0 -111 -25q-45 -12 -152 -38q-219 -42 -422 -42h-163q-98 0 -110 3q-84 21 -143 35q-33 1 -86 13q-3 3 -86 61q-29 10 -81 45q-28 30 -62.5 98.5t-34.5 96.5z M1493 481q0 -17 36 -75q41 -67 72 -67q51 0 246 91q38 18 97 75q-46 69 -216 69q-38 0 -128 -11q-21 -3 -64 -36t-43 -46z" />
<glyph unicode="&#x2206;" horiz-adv-x="1137" d="M53 125q0 45 21 74q61 82 170 210q52 58 199 225q8 39 32 96q80 108 105 108q29 0 168 -85q12 -7 48 -49l25 -78q21 -28 52 -76q19 -44 59 -126q9 -13 113 -145q73 -93 73 -154q0 -38 -48 -63q-46 -23 -113 -23h-12q-115 3 -121 5q2 1 10 1q-243 -15 -733 -38 q-33 25 -38 44q-10 52 -10 74zM399 251q7 0 21 -9l68 7q95 0 301 18l-123 295q-7 10 -32 10q-28 -57 -107 -163q-52 -59 -128 -158z" />
<glyph unicode="&#x220f;" horiz-adv-x="1607" d="M52 593q0 15 29 39t51 26q159 18 326 18q45 -6 52 -6q103 0 118 36q24 84 138 373q17 45 66 171q66 161 155 161q83 0 83 -105q0 -41 -68 -190q-19 -40 -69 -153q-34 -76 -78 -272q84 -31 143 -31q4 0 45.5 5t44.5 5l77 -18q71 -18 94 -18h3q33 3 49 3q249 0 249 -123 q0 -10 -11.5 -67.5t-11.5 -58.5q0 -51 -26 -119q0 -10 26 -103q16 -57 16 -88q0 -18 -5 -27q-27 -52 -158 -52q-47 0 -89.5 31t-42.5 69v-1q2 0 23 152l22 151q0 55 -62 63q-235 32 -235 35h3q-19 0 -195 -18q-33 -3 -77 -170v-2q0 -8 5 -46q0 -15 -15 -35q0 -52 -5 -159 q-19 -23 -47 -68q-72 23 -78 23q-28 0 -38 -8q-41 53 -45 116q-2 29 -8 111q-6 8 -14 8q17 22 42 69q13 40 13 95v55l-9 9q-7 11 -36 11q-8 0 -98 -12q-92 -11 -99 -11q-44 0 -124 15q-82 15 -90 23zM1380 1083q0 28 33.5 51t75.5 23q38 0 107 -110q0 -21 -79 -90 q-21 29 -58 33q-40 4 -60 18q0 3 -9.5 37.5t-9.5 37.5z" />
<glyph unicode="&#x2211;" horiz-adv-x="2359" d="M35 422q0 65 35 153q36 88 70 113q127 94 292 154q164 61 290 61q74 0 141 -20q34 -11 90 -129q36 -76 36 -91q0 -47 -52.5 -136t-90.5 -105q-27 -7 -141 -31q-61 -26 -87 -26q-125 0 -201 -18l-17 -14q19 -41 159 -66q101 -18 190 -18h116q144 0 292 47q195 61 195 162 l-6.5 38.5t-6.5 45.5q0 115 103 180q72 44 322 44q252 0 369 -37q7 2 16 2q9 1 20 -2q42 -7 76 -28q17 8 68 8l5 -12q6 -14 6 -21q0 -19 -47 -62q-46 -42 -69 -42q-242 0 -354 -15q-29 -4 -197 -4q-79 0 -104 -74q-14 -44 -29 -245q-118 -115 -182 -115q-1 0 -8.5 5t-14.5 5 q-9 -2 -26 -15q-336 -99 -423 -99h-233q-2 0 -49 10t-54 11q-232 23 -419 191q-5 18 -17 49q-63 99 -63 146zM428 590q22 -10 71 -10q26 6 133 34q79 20 94 61l-15 4q-23 7 -46 7q-110 -23 -123 -26q-84 -26 -114 -70z" />
<glyph unicode="&#x2212;" horiz-adv-x="1607" d="M36 375v54q0 91 11 112q27 51 87 51q-7 0 -7 -1l18 -2q28 -3 69 -4q48 -2 105 -2h342q35 2 204 16l203 17h-1q0 -1 185 -17l185 -16q28 0 62 16q78 -67 78 -100q0 -101 -267 -101q-14 0 -82 4l-85 4q-6 0 -55.5 -12t-75.5 -14q-537 -54 -800 -54q-90 0 -176 49z" />
<glyph unicode="&#x2219;" horiz-adv-x="386" d="M88 389q0 141 76 165h86q73 -45 73 -114q0 -57 17 -65q-49 -70 -124 -70q-128 0 -128 84z" />
<glyph unicode="&#x221a;" horiz-adv-x="2699" d="M21 249q14 106 14 114q41 23 80 23q56 0 131 -80q56 -60 117 -123l1680 1069q-1 0 -1 -1q0 -8 27 -8q-1 0 -1 1q0 3 66 35q366 178 423 178q3 0 51 -17q47 -16 55 -16v-37q-78 -69 -250 -191q-96 -47 -259 -131q-79 -56 -369 -246q-23 -15 -82 -53q-23 -3 -67 -15 q-22 -28 -71 -76q-76 -35 -213 -118q-61 -48 -239 -181l-256 -185q-65 -51 -250 -200q-232 -185 -267 -185q-18 0 -75 31t-63 46q-11 50 -53 150q-128 188 -128 216z" />
<glyph unicode="&#x221e;" horiz-adv-x="1880" d="M25 479q0 96 65 163q1 13 5 33q39 34 164.5 66.5t219.5 32.5q2 0 167 -76t171 -76q74 0 171 69q62 43 90 54q159 62 298 62q70 0 199 -32q67 -10 151 -37q49 -24 69 -129q34 -180 34 -202q0 -48 -84 -114q-16 -3 -48 -14q-27 -18 -94 -51q-133 -51 -204 -51 q-173 0 -352 60q-40 13 -129 48q-22 8 -96 57q-57 36 -73 36q-12 0 -58 -25q-61 -31 -74 -36q-248 -84 -336 -84h-77q-44 0 -98.5 42.5t-67.5 84t-13 119.5zM177 472q0 -37 58 -37q182 0 305 92q-80 53 -113 53q-57 0 -145 -27q-32 -16 -74 -32q-31 -12 -31 -49zM1046 472 q0 -21 10 -21q241 -53 241 -56q0 -1 -1 -1q77 0 197 38q149 46 149 104q0 33 -94 54q-68 15 -114 15q-66 0 -77 -4q-34 -10 -131 -36q-25 -6 -94 -27q-86 -29 -86 -66z" />
<glyph unicode="&#x222b;" horiz-adv-x="891" d="M-235 -251q0 44 10 68q0 10 21 10q5 0 45 -10q40 -9 41 -9q80 -71 191 -71h93q57 0 101 39q27 24 27 45q0 6 -2 11q40 21 82 168q2 46 8 186q21 119 26 125q1 -1 1 -6q0 37 -7 135q-9 117 -11 196q-5 147 -39 225v268q29 132 70 260q16 50 114 181q109 142 173 142 q82 0 212 -41q36 -19 187 -91q59 -27 59 -65q0 -43 -30 -89q-30 -45 -61 -45q-247 114 -280 114q-105 0 -184 -171q-64 -141 -64 -214q0 -7 1 -14l65 -713v4q-3 0 -18 -145q-18 -169 -18 -218q0 -529 -445 -529q-161 0 -272 68q-69 42 -94 137q-2 6 -2 49z" />
<glyph unicode="&#x2248;" horiz-adv-x="1269" d="M35 539v74q69 44 162 99q99 58 173 59q3 0 38 4q34 5 39 5q108 0 195 -45q31 -33 116 -98q25 -14 67 -14q30 0 227 94q12 12 42 33q26 9 63 9q20 0 44 -27q25 -27 25 -48q0 -49 -45 -94q-160 -163 -383 -163q-33 0 -181 83t-166 83q-102 0 -169 -46q-42 -29 -161 -113 q-43 12 -86 105zM60 309q0 77 228 158q30 11 82 11q3 0 41 -13t44 -14q15 -1 163 -63q148 -61 169 -61q71 0 166 38q10 3 115 62q79 45 114 45h34q22 -51 26 -51q1 1 1 3q0 -38 -10 -52q-72 -96 -149 -144q-26 -16 -93 -58q-79 -38 -187 -38l-37 7.5t-42 7.5q-81 0 -173 78 q-19 16 -103.5 45t-108.5 29l-80 -54q-80 -54 -107 -54q-43 0 -72 51q-21 38 -21 67z" />
<glyph unicode="&#x2260;" horiz-adv-x="798" d="M22 407q0 20 17 54q25 53 42 53h20q23 0 53 1l73 2q18 0 30 28q-14 36 -14 40l-1 1h3l-91 -3l-101 -3l-11 13q-17 24 -17 30q0 1 1 1q13 10 13 31q-1 33 16 56q111 30 220 30q3 0 13 -3q11 -3 13 -3q77 0 142 85q117 202 171 202q72 0 72 -80q0 -56 -80 -159v-20 q140 -24 140 -70q0 -23 -19 -53l-162 -16q-107 -10 -120 -74q10 -15 38 -15q13 0 29 3q5 0 56 5l56 5q128 0 128 -51q0 -75 -128 -91q-15 -10 -46 -23q-40 -5 -124 -18q-14 3 -30 3q-33 0 -80 -11q-61 -107 -194 -324q-15 -3 -46 -14q-31 35 -31 92q0 39 36 126 q41 98 45 131q-77 5 -86 7q-46 8 -46 32z" />
<glyph unicode="&#x2264;" horiz-adv-x="957" d="M36 117q0 21 19 46q49 18 157 47q219 38 447 38q45 0 127 -14q115 -20 115 -52q0 -21 -19 -61t-30 -43q-69 -16 -177 -21q-81 -4 -135 -11q-107 -25 -120 -25q-34 7 -39 7t-118 -17l-116 -17q-111 0 -111 123zM132 563q0 7 34 107q506 476 573 476q91 0 91 -96 q0 -52 -12 -66q-71 -56 -245 -213q-42 -37 -156 -149q26 -43 83 -45q10 -1 232 -68q178 -54 178 -128q0 -91 -72 -91q0 2 -450 140q-83 18 -170 34q-86 26 -86 99z" />
<glyph unicode="&#x2265;" horiz-adv-x="929" d="M56 104q0 12 11 45q9 33 14 34q252 69 622 69q3 0 36 -10q31 -9 34 -9q6 0 31 7q35 -43 35 -64q0 -72 -97 -90q-418 -76 -565 -76q-121 0 -121 94zM196 430q0 55 33 79q83 59 399 290l-287 206q-18 14 -18 78q0 72 42 85q34 -13 95 -37q15 -15 39 -36q72 -28 115 -60 q20 -19 41 -43l143 -86q36 -22 44 -83q4 -26 4 -51q0 -51 -77 -104q-30 -20 -114 -78q-345 -261 -353 -261q-106 0 -106 101z" />
<glyph unicode="&#x25ca;" horiz-adv-x="1137" d="M53 460q0 5 10 43l13 47q233 200 357 349q25 10 38 10q2 0 22 -8t23 -8t50.5 13t50.5 13q3 -3 24 -15q152 -64 361 -208q61 -42 61 -116q0 -40 -80 -105q-28 -21 -105 -87q-50 -46 -199 -181q-75 -67 -75 -98v-3q-39 -10 -50 -10q-33 0 -107 104q-54 25 -207 100 q-187 92 -187 160zM343 470q161 -98 184 -98q7 1 34 9q54 43 128 119t74 88q0 24 -81 72q-29 17 -111 64l-126 -118q-84 -77 -102 -136z" />
<glyph unicode="&#xe000;" d="M0 0v985h985v-985h-985z" />
<glyph unicode="&#xf000;" horiz-adv-x="2623" d="M67 21q0 189 149 443q125 215 333 314q123 59 280 59q-2 0 -2 -1q0 -4 104 -35q65 -6 191 -36l93 -43q35 -17 94 -17h10q41 99 41 138q0 8 -23 115t-23 113q0 14 5 23q56 140 200 282t295 205q87 36 436 115q7 1 66 20q46 15 66 15q82 0 82 -84q0 -5 -17 -44 q-20 -47 -31 -87q-15 -57 -24 -77q-90 -207 -371 -399q-68 -47 -474 -317q14 -35 66 -58q17 23 70 62q74 33 211 64q136 32 207 32q81 0 183.5 -26t146.5 -58q52 -38 94 -132q41 -93 41 -173q0 -23 -4 -28q-18 -43 -98 -43q-4 0 -34 6.5t-32 6.5q-123 0 -346 -83 q-156 -58 -179 -69q-180 -82 -180 -223q0 -46 35 -71q3 3 10 3q10 -8 60 -47q29 -15 72 -67q23 -41 123 -86q49 -21 149 -70l2 -13q2 -13 2 -26q0 -49 -38 -87q-72 -71 -439 -288l-283 -41q-110 -16 -119 -16q-259 0 -370 57q-25 13 -106 94l-82 82q-58 36 -224 103 q-182 73 -211 89q-92 54 -150 166q-57 112 -57 238z" />
<glyph unicode="&#xf001;" horiz-adv-x="1548" d="M34 574q0 52 60 110q25 -5 55 -5q130 0 162 7q80 14 83 65q-7 50 -7 135q0 31 1 67q23 117 95 360q42 95 139 162q96 68 192 68q13 0 87 5l76 5q32 2 62 2q112 0 187 -29q53 -22 185 -147q37 -104 41 -104v1q-4 -5 -25 -59q1 -8 1 -20q0 -27 -4 -68q-25 -53 -97 -53 q-185 0 -185 92q0 3 24.5 52.5t24.5 64.5t-11 27q-74 39 -235 39q-108 0 -159 -18q-116 -42 -177 -230q-44 -135 -44 -280q0 -86 13 -101q21 -26 88 -26q12 0 25 1l533 33q3 0 49 -12q48 -13 58 -13l27 -128q0 -68 -57 -244q-41 -132 -56 -164q-13 -21 -39 -65 q-13 -23 -39 -26q-43 16 -58 36q-29 37 -29 129q0 2 31 133q32 130 32 133q0 29 -32 29q-165 0 -474 -51q-46 -7 -46 -44q0 -7 2 -15l65 -338q0 -17 -21 -62q-27 -56 -57 -56q-34 0 -50 19q-37 44 -45 49q-44 241 -63 379q-9 69 -170 69q-2 0 -60 -12q-57 -12 -60 -12 q-33 0 -65 37q-33 38 -33 73z" />
<glyph unicode="&#xf002;" horiz-adv-x="1615" d="M24 434q0 93 50 114q20 9 79 18q43 7 56 35q9 21 9 96q0 101 5 135q41 302 151 484q27 46 105 89q2 28 41 67t77 53q61 15 255 57q13 3 83 3q388 0 388 -254q0 -33 -22 -58.5t-51 -25.5q-30 0 -57 35q-41 51 -54 60q-50 33 -156 33q-126 0 -272 -43q-100 -29 -178.5 -164 t-96.5 -313q-11 -11 -20 -38v-170q17 -13 34 -13q3 0 97 23.5t98 23.5q3 0 12 -3q9 -5 13 -5q3 0 109.5 32.5t110.5 32.5q2 0 55 -7.5t57 -7.5q50 0 203 24q24 18 32 60q19 118 111 469q16 57 61 225q12 44 70 44q29 0 46 -21q42 -53 42 -116q0 -62 -84 -349 q-67 -231 -70 -282l-4 -50q-6 -26 -16 -57q-8 -146 -36 -436q-17 -34 -38 -97q-7 -54 -13 -90q-44 -50 -100 -50q-2 0 -47 25q-46 23 -51 24v83q0 1 12 31q12 31 12 35l42 278q0 48 -52 48q-367 0 -677 -133q47 -176 47 -223q0 -10 -89 -96q-84 28 -118 122q-9 26 -43 154 q-17 2 -35 2q-21 0 -43 -3q-49 -7 -49 -9q0 -1 3 -1q-45 0 -73 49q-21 34 -21 51z" />
</font>
</defs>
</svg>
