<?xml version="1.0" standalone="no"?>
<!DOCTYPE svg PUBLIC "-//W3C//DTD SVG 1.1//EN" "http://www.w3.org/Graphics/SVG/1.1/DTD/svg11.dtd" >
<svg>
<metadata>
Created by FontForge 20120731 at Tue Jan 29 13:01:39 2013
 By Stefan Warting

</metadata>
<defs>
<font id="DINOT-CondMedium" horiz-adv-x="375" >
  <font-face 
    font-family="DINOT-CondMedium"
    font-weight="500"
    font-stretch="normal"
    units-per-em="1000"
    panose-1="2 0 5 6 3 0 0 2 0 4"
    ascent="764"
    descent="-236"
    x-height="518"
    cap-height="712"
    bbox="-101 -216 919 948"
    underline-thickness="77"
    underline-position="-39"
    stemh="73"
    stemv="81"
    unicode-range="U+000D-FB02"
  />
<missing-glyph horiz-adv-x="395" 
d="M57 0v712h281v-712h-281zM118 61h159v590h-159v-590z" />
    <glyph glyph-name="fi" unicode="fi" horiz-adv-x="431" 
d="M237 455h-80v-455h-81v455h-59v63h59v50c0 54 16 92 45 116c32 27 72 32 116 32v-73c-54 0 -80 -23 -80 -78v-47h80v-63zM374 0h-81v518h81v-518zM381 610h-95v94h95v-94z" />
    <glyph glyph-name="fl" unicode="fl" horiz-adv-x="468" 
d="M237 455h-80v-455h-81v455h-59v63h59v50c0 54 16 92 45 116c32 27 72 32 116 32v-73c-53 0 -80 -26 -80 -78v-47h80v-63zM452 0c-44 0 -82 6 -113 32c-28 23 -46 59 -46 116v564h81v-561c0 -51 25 -78 78 -78v-73z" />
    <glyph glyph-name=".notdef" horiz-adv-x="395" 
d="M57 0v712h281v-712h-281zM118 61h159v590h-159v-590z" />
    <glyph glyph-name=".null" horiz-adv-x="0" 
 />
    <glyph glyph-name=".null" horiz-adv-x="0" 
 />
    <glyph glyph-name="CR" unicode="&#xd;" horiz-adv-x="187" 
 />
    <glyph glyph-name="space" unicode=" " horiz-adv-x="187" 
 />
    <glyph glyph-name="exclam" unicode="!" horiz-adv-x="242" 
d="M174 193h-81v519h81v-519zM183 0h-99v99h99v-99z" />
    <glyph glyph-name="quotedbl" unicode="&#x22;" horiz-adv-x="395" 
d="M327 520h-83v192h83v-192zM150 520h-83v192h83v-192z" />
    <glyph glyph-name="numbersign" unicode="#" horiz-adv-x="554" 
d="M503 436h-82l-19 -145h72v-76h-84l-29 -215h-82l29 215h-105l-29 -215h-82l29 215h-70v76h82l19 145h-72l-1 76h84l27 200h83l-27 -200h104l27 200h83l-28 -200h70zM339 436h-105l-19 -145h104z" />
    <glyph glyph-name="dollar" unicode="$" horiz-adv-x="434" 
d="M391 191c0 -74 -11 -121 -45 -155c-21 -21 -51 -36 -91 -41v-109h-77v108c-41 5 -73 19 -96 42c-33 33 -44 74 -44 150h86c0 -47 5 -73 24 -93c7 -8 17 -14 30 -18v262l-38 16c-73 30 -97 70 -97 178c0 62 18 113 54 146c22 20 48 33 81 39v90h77v-90
c37 -5 66 -18 87 -39c36 -35 47 -81 47 -146h-86c0 38 -4 64 -22 86c-7 8 -15 14 -26 19v-235l36 -15c81 -33 100 -83 100 -195zM305 189c0 71 -10 99 -50 121v-234c11 4 20 10 27 18c19 21 23 48 23 95zM178 428v208c-10 -4 -18 -10 -24 -17c-17 -19 -25 -48 -25 -85
c0 -61 8 -85 49 -106z" />
    <glyph glyph-name="percent" unicode="%" horiz-adv-x="675" 
d="M624 102c0 -70 -50 -110 -113 -110s-113 40 -113 110v154c0 70 50 110 113 110s113 -40 113 -110v-154zM276 456c0 -70 -50 -110 -113 -110s-112 40 -112 110v154c0 70 49 110 112 110s113 -40 113 -110v-154zM494 712l-248 -712h-65l248 712h65zM556 103v151
c0 33 -17 51 -45 51s-45 -18 -45 -51v-151c0 -33 17 -51 45 -51s45 18 45 51zM208 458v151c0 33 -17 51 -45 51s-44 -18 -44 -51v-151c0 -33 16 -51 44 -51s45 18 45 51z" />
    <glyph glyph-name="ampersand" unicode="&#x26;" horiz-adv-x="492" 
d="M489 0h-87l-48 73c-42 -49 -83 -81 -155 -81c-92 0 -163 66 -163 177c0 84 38 147 115 220c-57 79 -82 120 -82 179c0 91 54 151 137 151c93 0 139 -61 139 -142c0 -84 -33 -135 -100 -200l109 -165c20 38 34 98 38 150h72c-5 -81 -30 -164 -65 -221zM313 137l-122 187
c-53 -53 -77 -98 -77 -148c0 -62 35 -110 92 -110c42 0 75 28 107 71zM270 575c0 42 -26 71 -63 71c-43 0 -63 -37 -63 -76c0 -35 16 -67 60 -128c42 43 66 75 66 133z" />
    <glyph glyph-name="quotesingle" unicode="'" horiz-adv-x="218" 
d="M151 520h-84v192h84v-192z" />
    <glyph glyph-name="parenleft" unicode="(" horiz-adv-x="244" 
d="M203 -39l-55 -55c-29 29 -56 57 -73 88c-19 34 -22 71 -22 108v508c0 37 3 74 22 108c18 33 44 59 73 88l55 -55c-21 -21 -41 -39 -54 -64c-10 -20 -15 -49 -15 -83v-496c0 -34 5 -63 15 -83c13 -25 33 -43 54 -64z" />
    <glyph glyph-name="parenright" unicode=")" horiz-adv-x="244" 
d="M191 102c0 -37 -3 -74 -22 -108c-17 -31 -44 -59 -73 -88l-55 55c21 21 41 39 54 64c10 20 15 49 15 83v496c0 34 -5 63 -15 83c-13 25 -33 43 -54 64l55 55c29 -29 55 -55 73 -88c19 -34 22 -71 22 -108v-508z" />
    <glyph glyph-name="asterisk" unicode="*" horiz-adv-x="393" 
d="M346 492l-30 -52l-92 56l3 -126h-61l4 126l-93 -56l-30 52l95 51l-95 50l30 53l93 -57l-4 126h61l-3 -126l92 57l30 -53l-96 -50z" />
    <glyph glyph-name="plus" unicode="+" horiz-adv-x="444" 
d="M398 244h-137v-137h-77v137h-138v77h138v138h77v-138h137v-77z" />
    <glyph glyph-name="comma" unicode="," horiz-adv-x="207" 
d="M149 -56l-92 -68v224h92v-156z" />
    <glyph glyph-name="hyphen" unicode="-" horiz-adv-x="298" 
d="M247 244h-196v77h196v-77z" />
    <glyph glyph-name="period" unicode="." horiz-adv-x="216" 
d="M158 0h-99v99h99v-99z" />
    <glyph glyph-name="slash" unicode="/" horiz-adv-x="272" 
d="M268 786l-185 -860h-79l185 860h79z" />
    <glyph glyph-name="zero" unicode="0" horiz-adv-x="381" 
d="M333 140c0 -53 -15 -85 -40 -110c-25 -24 -64 -38 -103 -38s-77 14 -102 38c-25 25 -40 57 -40 110v432c0 53 15 85 40 110c25 24 63 38 102 38s78 -14 103 -38c25 -25 40 -57 40 -110v-432zM252 137v438c0 48 -28 72 -62 72s-61 -24 -61 -72v-438c0 -48 27 -72 61 -72
s62 24 62 72z" />
    <glyph glyph-name="one" unicode="1" horiz-adv-x="381" 
d="M252 0h-81v617l-104 -85v94l104 86h81v-712z" />
    <glyph glyph-name="two" unicode="2" horiz-adv-x="381" 
d="M336 0h-287v68l174 369c16 35 32 81 32 138c0 48 -27 72 -61 72s-62 -24 -62 -72v-48h-81v46c0 52 15 84 40 109c25 24 64 38 103 38s75 -12 100 -36s42 -59 42 -112s-19 -114 -41 -161l-159 -338h200v-73z" />
    <glyph glyph-name="three" unicode="3" horiz-adv-x="381" 
d="M334 200c0 -86 -5 -131 -44 -170c-24 -24 -63 -38 -102 -38s-77 14 -102 38c-25 25 -41 56 -41 109v46h81v-48c0 -48 28 -72 62 -72c19 0 34 7 44 19c17 20 21 57 21 120c0 70 -4 100 -21 121c-10 13 -25 20 -44 20h-38v68h38c17 0 29 6 39 16c17 18 20 51 20 102
s-3 81 -18 99c-10 11 -23 17 -41 17c-33 0 -57 -23 -57 -70v-50h-81v46c0 52 14 85 39 110c25 24 60 37 99 37c42 0 75 -13 98 -36c29 -29 42 -70 42 -148c0 -59 -4 -89 -19 -117c-9 -16 -23 -30 -39 -40c17 -11 31 -24 40 -39c19 -32 24 -60 24 -140z" />
    <glyph glyph-name="four" unicode="4" horiz-adv-x="381" 
d="M353 117h-50v-117h-81v117h-193v73l182 522h78l-177 -522h110v163h81v-163h50v-73z" />
    <glyph glyph-name="five" unicode="5" horiz-adv-x="381" 
d="M336 233c0 -103 -2 -157 -43 -200c-24 -26 -64 -41 -103 -41s-77 13 -102 37c-25 25 -41 57 -41 110v41h81v-48c0 -52 27 -75 62 -75c18 0 34 7 45 22c17 24 20 70 20 148s-3 118 -19 142c-11 16 -27 24 -46 24c-35 0 -62 -27 -62 -72v-24h-77v415h276v-73h-202v-221
c9 13 22 26 35 34c14 8 33 13 53 13c39 0 67 -14 89 -40c30 -37 34 -93 34 -192z" />
    <glyph glyph-name="six" unicode="6" horiz-adv-x="381" 
d="M336 213c0 -101 -10 -139 -36 -173c-25 -33 -66 -48 -110 -48c-48 0 -86 18 -109 48c-29 38 -36 77 -36 173c0 72 10 129 29 179l120 320h83l-116 -297c14 11 32 17 51 17c36 0 66 -15 88 -41c26 -31 36 -64 36 -178zM255 214c0 62 -1 107 -20 130c-11 13 -28 20 -45 20
s-33 -7 -44 -20c-19 -23 -20 -68 -20 -130s1 -107 20 -130c11 -13 26 -19 44 -19s34 6 45 19c19 23 20 68 20 130z" />
    <glyph glyph-name="seven" unicode="7" horiz-adv-x="381" 
d="M339 645l-188 -645h-82l188 639h-138v-105h-79v178h299v-67z" />
    <glyph glyph-name="eight" unicode="8" horiz-adv-x="381" 
d="M336 198c0 -88 -6 -129 -43 -167c-24 -25 -64 -39 -103 -39s-78 14 -102 39c-37 38 -43 79 -43 167c0 79 5 108 23 138c9 15 24 29 41 40c-16 11 -30 25 -39 41c-15 28 -20 57 -20 116c0 77 10 118 42 150c24 24 59 37 98 37s75 -13 99 -37c32 -32 42 -73 42 -150
c0 -59 -5 -88 -20 -116c-9 -16 -23 -30 -39 -41c17 -11 31 -25 40 -40c18 -30 24 -59 24 -138zM255 202c0 68 -2 99 -21 121c-11 13 -27 19 -44 19s-32 -7 -43 -19c-19 -22 -21 -53 -21 -121c0 -61 4 -97 21 -119c10 -13 26 -18 43 -18s34 5 44 18c17 21 21 58 21 119z
M250 530c0 50 -4 83 -20 101c-10 11 -24 16 -40 16s-30 -5 -40 -16c-16 -18 -19 -51 -19 -101s2 -86 21 -105c10 -10 23 -14 38 -14s29 5 39 15c19 19 21 54 21 104z" />
    <glyph glyph-name="nine" unicode="9" horiz-adv-x="381" 
d="M336 499c0 -72 -10 -129 -29 -179l-120 -320h-83l116 297c-14 -11 -32 -17 -51 -17c-36 0 -66 15 -88 41c-26 31 -36 64 -36 178c0 101 10 139 36 173c25 33 66 48 110 48c48 0 86 -18 109 -48c29 -38 36 -77 36 -173zM255 498c0 62 -1 107 -20 130c-11 13 -27 19 -45 19
s-33 -6 -44 -19c-19 -23 -20 -68 -20 -130s1 -107 20 -130c11 -13 27 -20 44 -20s34 7 45 20c19 23 20 68 20 130z" />
    <glyph glyph-name="colon" unicode=":" horiz-adv-x="242" 
d="M183 326h-99v99h99v-99zM183 0h-99v99h99v-99z" />
    <glyph glyph-name="semicolon" unicode=";" horiz-adv-x="242" 
d="M180 -56l-92 -68v224h92v-156zM183 326h-99v99h99v-99z" />
    <glyph glyph-name="less" unicode="&#x3c;" horiz-adv-x="381" 
d="M347 75l-313 182v61l313 183v-90l-216 -123l216 -123v-90z" />
    <glyph glyph-name="equal" unicode="=" horiz-adv-x="444" 
d="M398 320h-352v77h352v-77zM398 158h-352v77h352v-77z" />
    <glyph glyph-name="greater" unicode="&#x3e;" horiz-adv-x="381" 
d="M347 257l-313 -182v90l216 123l-216 123v90l313 -183v-61z" />
    <glyph glyph-name="question" unicode="?" horiz-adv-x="400" 
d="M362 535c0 -51 -7 -84 -31 -119l-59 -85c-15 -22 -22 -45 -22 -70v-68h-81v78c0 31 12 60 28 84l58 85c22 32 26 57 26 97c0 44 -6 69 -23 88c-12 13 -28 20 -50 20c-21 0 -36 -7 -48 -19c-20 -21 -22 -53 -22 -82h-81c0 55 11 101 43 132c26 25 61 42 108 42
s83 -14 110 -41c31 -31 44 -70 44 -142zM259 0h-99v99h99v-99z" />
    <glyph glyph-name="at" unicode="@" horiz-adv-x="562" 
d="M504 0h-78v40c-7 -12 -21 -25 -32 -32c-16 -10 -35 -16 -56 -16c-39 0 -66 13 -88 38c-21 23 -31 51 -31 107v205c0 56 10 85 31 108c22 25 49 37 88 37c23 0 39 -5 56 -15c9 -6 22 -17 29 -28v106c0 62 -32 93 -86 93h-119c-53 0 -86 -31 -86 -93v-431
c0 -34 9 -55 28 -73l-58 -57c-38 35 -51 72 -51 128v441c0 55 17 88 43 114c25 25 61 40 108 40h151c47 0 83 -15 108 -40c26 -26 43 -59 43 -114v-558zM423 137v206c0 48 -27 72 -61 72s-62 -24 -62 -72v-206c0 -48 28 -72 62 -72s61 24 61 72z" />
    <glyph glyph-name="A" unicode="A" horiz-adv-x="424" 
d="M419 0h-91l-34 168h-165l-34 -168h-90l166 712h83zM278 245l-66 328l-67 -328h133z" />
    <glyph glyph-name="B" unicode="B" horiz-adv-x="444" 
d="M394 205c0 -84 -13 -129 -45 -162c-29 -30 -69 -43 -132 -43h-153v712h154c62 0 101 -13 130 -43c31 -33 41 -74 41 -146c0 -49 -5 -91 -39 -125c-12 -12 -26 -22 -41 -27c17 -5 32 -14 44 -27c37 -39 41 -91 41 -139zM308 205c0 91 -32 128 -96 128h-62v-256h62
c65 0 96 30 96 128zM303 521c0 87 -30 114 -92 114h-61v-228h61c62 0 92 33 92 114z" />
    <glyph glyph-name="C" unicode="C" horiz-adv-x="423" 
d="M386 176c-1 -60 -20 -113 -55 -145c-28 -26 -62 -39 -110 -39c-57 0 -95 21 -122 51c-49 54 -52 135 -52 313s3 259 52 313c27 30 65 51 122 51c49 0 85 -15 113 -42c33 -32 50 -83 51 -142h-86c0 31 -6 62 -22 82c-12 15 -29 25 -56 25c-28 0 -46 -11 -58 -27
c-25 -34 -30 -91 -30 -260s5 -226 30 -260c12 -16 30 -27 58 -27c27 0 44 11 56 26c16 20 23 50 23 81h86z" />
    <glyph glyph-name="D" unicode="D" horiz-adv-x="448" 
d="M401 356c0 -175 -1 -253 -50 -306c-27 -29 -65 -50 -122 -50h-165v712h165c57 0 95 -21 122 -50c49 -53 50 -131 50 -306zM315 356c0 163 -3 218 -29 252c-12 16 -32 27 -60 27h-76v-558h76c28 0 48 11 60 27c26 34 29 89 29 252z" />
    <glyph glyph-name="E" unicode="E" horiz-adv-x="380" 
d="M339 0h-275v712h275v-77h-189v-239h163v-77h-163v-242h189v-77z" />
    <glyph glyph-name="F" unicode="F" 
d="M339 635h-189v-239h163v-77h-163v-319h-86v712h275v-77z" />
    <glyph glyph-name="G" unicode="G" horiz-adv-x="434" 
d="M386 171c0 -118 -72 -179 -165 -179c-57 0 -95 21 -122 51c-49 54 -52 135 -52 313s3 259 52 313c27 30 65 51 122 51c50 0 88 -17 115 -44c33 -34 49 -83 50 -141h-86c0 48 -13 108 -79 108c-28 0 -46 -11 -58 -27c-25 -34 -30 -91 -30 -260s5 -226 30 -260
c12 -16 30 -27 58 -27c50 0 79 41 79 99v142h-79v72h165v-211z" />
    <glyph glyph-name="H" unicode="H" horiz-adv-x="458" 
d="M394 0h-86v323h-158v-323h-86v712h86v-311h158v311h86v-712z" />
    <glyph glyph-name="I" unicode="I" horiz-adv-x="215" 
d="M150 0h-86v712h86v-712z" />
    <glyph glyph-name="J" unicode="J" horiz-adv-x="361" 
d="M303 170c0 -54 -15 -99 -45 -130c-31 -32 -73 -48 -126 -48s-96 20 -127 54l61 57c14 -19 39 -34 66 -34c48 0 85 35 85 101v542h86v-542z" />
    <glyph glyph-name="K" unicode="K" horiz-adv-x="439" 
d="M431 0h-93l-126 322l-62 -123v-199h-86v712h86v-361l172 361h88l-144 -294z" />
    <glyph glyph-name="L" unicode="L" horiz-adv-x="361" 
d="M339 0h-275v712h86v-635h189v-77z" />
    <glyph glyph-name="M" unicode="M" horiz-adv-x="578" 
d="M513 0h-86v507l-113 -333h-53l-111 325v-499h-86v712h81l144 -396l143 396h81v-712z" />
    <glyph glyph-name="N" unicode="N" horiz-adv-x="477" 
d="M412 0h-78l-184 487v-487h-86v712h80l183 -487l-1 487h86v-712z" />
    <glyph glyph-name="O" unicode="O" horiz-adv-x="442" 
d="M395 356c0 -178 -2 -259 -51 -313c-27 -30 -66 -51 -123 -51s-95 21 -122 51c-49 54 -52 135 -52 313s3 259 52 313c27 30 65 51 122 51s96 -21 123 -51c49 -54 51 -135 51 -313zM309 356c0 169 -5 226 -30 260c-12 16 -30 27 -58 27s-46 -11 -58 -27
c-25 -34 -30 -91 -30 -260s5 -226 30 -260c12 -16 30 -27 58 -27s46 11 58 27c25 34 30 91 30 260z" />
    <glyph glyph-name="P" unicode="P" horiz-adv-x="435" 
d="M393 505c0 -147 -51 -209 -169 -209h-74v-296h-86v712h160c108 0 169 -49 169 -207zM307 504c0 78 -15 131 -81 131h-76v-262h76c66 0 81 53 81 131z" />
    <glyph glyph-name="Q" unicode="Q" horiz-adv-x="442" 
d="M421 25l-41 -49l-57 48c-25 -20 -59 -32 -102 -32c-57 0 -95 21 -122 51c-49 54 -52 135 -52 313s3 259 52 313c27 30 65 51 122 51s96 -21 123 -51c49 -54 51 -135 51 -313c0 -151 -2 -229 -31 -283zM309 356c0 169 -4 226 -30 261c-12 16 -30 26 -58 26
s-46 -10 -58 -26c-26 -35 -30 -92 -30 -261s4 -226 30 -261c12 -16 30 -26 58 -26c15 0 27 4 36 10l-46 39l41 49l41 -35c13 37 16 91 16 224z" />
    <glyph glyph-name="R" unicode="R" horiz-adv-x="455" 
d="M416 0h-90l-98 306h-78v-306h-86v712h161c108 0 168 -47 168 -203c0 -99 -24 -157 -86 -186zM307 509c0 75 -15 126 -81 126h-76v-253h76c66 0 81 51 81 127z" />
    <glyph glyph-name="S" unicode="S" horiz-adv-x="420" 
d="M377 191c0 -74 -10 -121 -44 -155c-27 -26 -69 -43 -126 -43c-55 0 -97 15 -125 43c-33 33 -44 74 -44 150h86c0 -47 5 -73 24 -93c12 -13 32 -22 59 -22c29 0 48 9 61 23c19 21 23 48 23 95c0 82 -12 107 -70 131l-81 33c-73 30 -97 70 -97 178c0 62 18 113 54 146
c28 26 66 41 113 41c52 0 91 -15 118 -41c36 -35 47 -81 47 -146h-86c0 38 -4 64 -22 86c-12 15 -31 24 -58 24c-25 0 -43 -9 -55 -22c-17 -19 -25 -48 -25 -85c0 -70 11 -91 68 -115l80 -33c81 -33 100 -83 100 -195z" />
    <glyph glyph-name="T" unicode="T" horiz-adv-x="367" 
d="M346 635h-119v-635h-86v635h-120v77h325v-77z" />
    <glyph glyph-name="U" unicode="U" horiz-adv-x="445" 
d="M387 162c0 -52 -17 -94 -46 -123c-31 -31 -73 -47 -119 -47s-87 16 -118 47c-29 29 -46 71 -46 123v550h86v-555c0 -56 35 -88 78 -88s79 32 79 88v555h86v-550z" />
    <glyph glyph-name="V" unicode="V" horiz-adv-x="404" 
d="M400 712l-154 -712h-88l-154 712h95l103 -573l104 573h94z" />
    <glyph glyph-name="W" unicode="W" horiz-adv-x="652" 
d="M648 712l-122 -712h-89l-111 573l-110 -573h-89l-123 712h95l73 -573l106 573h96l108 -573l72 573h94z" />
    <glyph glyph-name="X" unicode="X" horiz-adv-x="403" 
d="M388 0h-94l-93 282l-92 -282h-94l136 370l-125 342h94l81 -260l82 260h94l-129 -342z" />
    <glyph glyph-name="Y" unicode="Y" horiz-adv-x="353" 
d="M351 712l-132 -424v-288h-86v288l-131 424h94l80 -304l80 304h95z" />
    <glyph glyph-name="Z" unicode="Z" horiz-adv-x="349" 
d="M318 0h-287v65l198 570h-185v77h274v-65l-197 -570h197v-77z" />
    <glyph glyph-name="bracketleft" unicode="[" horiz-adv-x="259" 
d="M230 -74h-172v860h172v-71h-91v-718h91v-71z" />
    <glyph glyph-name="backslash" unicode="\" horiz-adv-x="272" 
d="M268 -74h-79l-185 860h79z" />
    <glyph glyph-name="bracketright" unicode="]" horiz-adv-x="259" 
d="M201 -74h-172v71h91v718h-91v71h172v-860z" />
    <glyph glyph-name="asciicircum" unicode="^" horiz-adv-x="455" 
d="M398 436h-80l-90 199l-90 -199h-81l134 281h73z" />
    <glyph glyph-name="underscore" unicode="_" horiz-adv-x="444" 
d="M444 -144h-444v61h444v-61z" />
    <glyph glyph-name="grave" unicode="`" horiz-adv-x="377" 
d="M225 586h-62l-81 135h74z" />
    <glyph glyph-name="a" unicode="a" 
d="M322 0h-77v46c-8 -14 -20 -27 -30 -35c-16 -12 -33 -19 -61 -19c-38 0 -65 12 -89 39c-20 23 -33 62 -33 116c0 48 16 90 46 117c26 23 56 35 110 35h53v82c0 48 -21 74 -61 74c-18 0 -30 -7 -40 -17c-14 -15 -19 -32 -19 -60h-81c0 40 9 79 40 110c23 23 60 38 100 38
c42 0 77 -12 101 -36c25 -26 41 -61 41 -114v-376zM241 144v96h-46c-25 0 -42 -4 -58 -19c-15 -14 -24 -43 -24 -71c0 -54 21 -87 63 -87c39 0 65 33 65 81z" />
    <glyph glyph-name="b" unicode="b" horiz-adv-x="387" 
d="M346 259c0 -120 -4 -190 -37 -229c-23 -27 -51 -38 -86 -38c-21 0 -40 6 -56 16c-10 6 -27 22 -32 32v-40h-78v712h81v-230c7 11 19 23 29 29c16 10 35 15 56 15c38 0 65 -13 86 -38c33 -39 37 -109 37 -229zM265 259c0 93 -1 147 -20 173c-10 14 -27 22 -45 22
c-16 0 -31 -5 -42 -16c-13 -13 -20 -32 -20 -60v-237c0 -28 7 -48 20 -61c11 -11 26 -15 42 -15c18 0 35 8 45 22c19 26 20 79 20 172z" />
    <glyph glyph-name="c" unicode="c" horiz-adv-x="362" 
d="M329 144c-1 -49 -13 -89 -40 -116c-24 -25 -60 -36 -102 -36c-44 0 -83 13 -109 48c-32 41 -38 114 -38 219s6 178 38 219c26 35 65 48 109 48c42 0 75 -8 101 -34c31 -31 40 -75 41 -118h-80c0 21 -2 43 -16 60c-11 13 -25 20 -45 20c-19 0 -36 -8 -46 -22
c-19 -26 -21 -80 -21 -173s2 -146 21 -172c10 -14 27 -22 46 -22s33 7 44 19c14 16 17 36 17 60h80z" />
    <glyph glyph-name="d" unicode="d" horiz-adv-x="387" 
d="M330 0h-79v40c-5 -10 -21 -26 -31 -32c-16 -10 -35 -16 -56 -16c-35 0 -63 11 -86 38c-33 39 -38 109 -38 229s5 190 38 229c21 25 48 38 86 38c21 0 40 -5 56 -15c10 -6 22 -18 29 -29v230h81v-712zM249 141v237c0 28 -8 47 -21 60c-11 11 -26 16 -42 16
c-18 0 -34 -8 -44 -22c-19 -26 -21 -80 -21 -173s2 -146 21 -172c10 -14 26 -22 44 -22c16 0 31 4 42 15c13 13 21 33 21 61z" />
    <glyph glyph-name="e" unicode="e" horiz-adv-x="372" 
d="M334 240h-213c0 -82 4 -130 22 -153c10 -12 24 -22 45 -22c19 0 34 7 46 20c11 13 18 35 18 59h80c-1 -46 -13 -84 -41 -114c-25 -27 -62 -38 -103 -38c-45 0 -75 12 -102 40c-40 41 -46 118 -46 227s5 186 45 227c27 28 61 40 102 40c42 0 75 -11 102 -40
c43 -47 45 -135 45 -246zM253 301c0 70 -4 112 -20 131c-10 12 -25 22 -46 22s-35 -10 -45 -22c-16 -19 -21 -61 -21 -131h132z" />
    <glyph glyph-name="f" unicode="f" horiz-adv-x="254" 
d="M237 455h-80v-455h-81v455h-59v63h59v50c0 54 16 91 45 115c32 27 72 33 116 33v-73c-53 0 -80 -26 -80 -78v-47h80v-63z" />
    <glyph glyph-name="g" unicode="g" horiz-adv-x="387" 
d="M330 -13c0 -76 -13 -115 -42 -145c-24 -25 -62 -39 -102 -39s-78 12 -104 37c-29 29 -39 67 -39 112h80c0 -25 4 -47 18 -62c11 -11 26 -17 44 -17c19 0 34 8 44 19c14 16 20 42 20 91v78c-7 -11 -19 -24 -29 -30c-15 -10 -31 -14 -54 -14c-38 0 -62 11 -85 37
c-32 37 -41 97 -41 217s9 181 41 218c21 25 45 37 85 37c21 0 40 -6 56 -16c10 -6 22 -18 29 -29v37h79v-531zM249 164v214c0 28 -7 46 -20 59c-11 11 -26 17 -43 17c-20 0 -33 -9 -44 -22c-19 -24 -21 -76 -21 -161s2 -137 21 -161c11 -13 24 -22 44 -22c17 0 32 6 43 17
c12 13 20 32 20 59z" />
    <glyph glyph-name="h" unicode="h" horiz-adv-x="395" 
d="M342 0h-81v381c0 48 -28 72 -62 72s-61 -24 -61 -72v-381h-81v712h81v-231c7 11 19 23 29 29c16 10 35 16 56 16c39 0 66 -13 88 -38c21 -23 31 -51 31 -107v-381z" />
    <glyph glyph-name="i" unicode="i" horiz-adv-x="195" 
d="M138 0h-81v518h81v-518zM145 610h-95v94h95v-94z" />
    <glyph glyph-name="j" unicode="j" horiz-adv-x="195" 
d="M138 -46c0 -57 -18 -93 -46 -116c-31 -26 -69 -32 -113 -32v73c50 0 78 20 78 78v561h81v-564zM145 610h-95v94h95v-94z" />
    <glyph glyph-name="k" unicode="k" horiz-adv-x="395" 
d="M383 0h-90l-99 244l-56 -89v-155h-81v712h81v-440l147 246h86l-126 -202z" />
    <glyph glyph-name="l" unicode="l" horiz-adv-x="228" 
d="M211 0c-44 0 -81 6 -112 32c-28 23 -46 59 -46 116v564h81v-561c0 -51 24 -78 77 -78v-73z" />
    <glyph glyph-name="m" unicode="m" horiz-adv-x="599" 
d="M545 0h-81v381c0 48 -27 72 -61 72s-61 -24 -61 -72v-381h-81v381c0 48 -28 72 -62 72s-61 -24 -61 -72v-381h-81v518h78v-40c7 12 21 25 32 32c16 10 35 16 56 16c40 0 78 -22 99 -54c11 14 26 29 41 38c16 10 40 16 59 16c45 0 71 -13 93 -38c21 -23 30 -51 30 -107
v-381z" />
    <glyph glyph-name="n" unicode="n" horiz-adv-x="395" 
d="M342 0h-81v381c0 48 -28 72 -62 72s-61 -24 -61 -72v-381h-81v518h78v-40c7 12 21 25 32 32c16 10 35 16 56 16c39 0 66 -13 88 -38c21 -23 31 -51 31 -107v-381z" />
    <glyph glyph-name="o" unicode="o" 
d="M334 259c0 -105 -5 -178 -37 -219c-26 -35 -64 -48 -110 -48s-83 13 -109 48c-32 41 -38 114 -38 219s6 178 38 219c26 35 63 48 109 48s84 -13 110 -48c32 -41 37 -114 37 -219zM253 259c0 93 -1 147 -20 173c-10 14 -27 22 -46 22s-35 -8 -45 -22
c-19 -26 -21 -80 -21 -173s2 -146 21 -172c10 -14 26 -22 45 -22s36 8 46 22c19 26 20 79 20 172z" />
    <glyph glyph-name="p" unicode="p" horiz-adv-x="387" 
d="M346 259c0 -120 -4 -190 -37 -229c-21 -25 -48 -38 -86 -38c-21 0 -40 5 -56 15c-10 6 -22 18 -29 29v-230h-81v712h78v-40c5 10 22 26 32 32c16 10 35 16 56 16c35 0 63 -11 86 -38c33 -39 37 -109 37 -229zM265 259c0 93 -1 147 -20 173c-10 14 -27 22 -45 22
c-16 0 -31 -5 -42 -16c-13 -13 -20 -32 -20 -60v-237c0 -28 7 -48 20 -61c11 -11 26 -15 42 -15c18 0 35 8 45 22c19 26 20 79 20 172z" />
    <glyph glyph-name="q" unicode="q" horiz-adv-x="387" 
d="M330 -194h-81v230c-7 -11 -19 -23 -29 -29c-16 -10 -35 -15 -56 -15c-38 0 -65 13 -86 38c-33 39 -38 109 -38 229s5 190 38 229c23 27 51 38 86 38c21 0 40 -6 56 -16c10 -6 26 -22 31 -32v40h79v-712zM249 141v237c0 28 -8 47 -21 60c-11 11 -26 16 -42 16
c-18 0 -34 -8 -44 -22c-19 -26 -21 -80 -21 -173s2 -146 21 -172c10 -14 26 -22 44 -22c16 0 31 4 42 15c13 13 21 33 21 61z" />
    <glyph glyph-name="r" unicode="r" horiz-adv-x="272" 
d="M256 448h-24c-55 0 -94 -36 -94 -95v-353h-81v518h78v-55c8 14 23 28 36 37c24 17 52 26 85 26v-78z" />
    <glyph glyph-name="s" unicode="s" horiz-adv-x="359" 
d="M328 141c0 -46 -18 -82 -44 -108c-28 -29 -64 -41 -106 -41s-79 14 -104 40c-30 31 -44 67 -44 114h80c0 -27 7 -47 22 -63c12 -12 30 -18 46 -18c21 0 36 6 49 19c12 12 20 31 20 52c0 18 -4 33 -13 47c-10 15 -25 26 -46 37l-67 34c-34 17 -58 38 -71 60
c-11 19 -16 41 -16 68c0 45 17 79 43 105s62 39 102 39c41 0 76 -12 101 -37c27 -26 42 -63 42 -114h-80c0 30 -6 48 -19 62c-12 13 -28 18 -44 18c-19 0 -34 -6 -45 -17c-13 -13 -19 -31 -19 -50c0 -15 3 -27 9 -38c7 -12 22 -24 43 -34l66 -33c35 -17 58 -35 73 -59
c14 -21 22 -50 22 -83z" />
    <glyph glyph-name="t" unicode="t" horiz-adv-x="260" 
d="M240 0c-46 0 -86 4 -119 32c-29 24 -45 62 -45 116v307h-59v63h59v142h81v-142h80v-63h-80v-304c0 -55 29 -78 83 -78v-73z" />
    <glyph glyph-name="u" unicode="u" horiz-adv-x="395" 
d="M338 0h-78v40c-7 -12 -21 -25 -32 -32c-16 -10 -35 -16 -56 -16c-39 0 -66 13 -88 38c-21 23 -31 51 -31 107v381h81v-381c0 -48 28 -72 62 -72s61 24 61 72v381h81v-518z" />
    <glyph glyph-name="v" unicode="v" horiz-adv-x="343" 
d="M339 518l-124 -518h-86l-125 518h89l79 -390l78 390h89z" />
    <glyph glyph-name="w" unicode="w" horiz-adv-x="526" 
d="M522 518l-109 -518h-82l-70 379l-68 -379h-82l-107 518h92l59 -390l69 390h73l73 -390l60 390h92z" />
    <glyph glyph-name="x" unicode="x" horiz-adv-x="356" 
d="M343 0h-90l-75 187l-75 -187h-90l118 264l-112 254h90l69 -181l69 181h90l-114 -254z" />
    <glyph glyph-name="y" unicode="y" horiz-adv-x="345" 
d="M339 518l-146 -601c-22 -93 -86 -111 -172 -111v72c50 0 81 13 93 60l16 63l-126 517h89l79 -389l78 389h89z" />
    <glyph glyph-name="z" unicode="z" horiz-adv-x="301" 
d="M277 0h-253v62l163 384h-152v72h242v-62l-163 -383h163v-73z" />
    <glyph glyph-name="braceleft" unicode="{" horiz-adv-x="311" 
d="M282 -74h-42c-34 0 -68 13 -90 35s-35 52 -35 100v192c0 42 -25 67 -58 67h-28v72h28c33 0 58 25 58 67v192c0 48 13 78 35 100s56 35 90 35h42v-73h-28c-33 0 -58 -24 -58 -66v-185c0 -42 -11 -69 -29 -87c-11 -11 -24 -15 -33 -19c10 -3 23 -8 33 -19
c18 -18 29 -45 29 -87v-185c0 -42 25 -66 58 -66h28v-73z" />
    <glyph glyph-name="bar" unicode="|" horiz-adv-x="290" 
d="M186 -74h-81v860h81v-860z" />
    <glyph glyph-name="braceright" unicode="}" horiz-adv-x="311" 
d="M282 320h-28c-33 0 -57 -25 -57 -67v-192c0 -48 -14 -78 -36 -100s-56 -35 -90 -35h-42v73h28c33 0 59 24 59 66v185c0 42 10 69 28 87c11 11 25 15 34 19c-10 3 -24 8 -34 19c-18 18 -28 45 -28 87v185c0 42 -26 66 -59 66h-28v73h42c34 0 68 -13 90 -35s36 -52 36 -100
v-192c0 -42 24 -67 57 -67h28v-72z" />
    <glyph glyph-name="asciitilde" unicode="~" horiz-adv-x="444" 
d="M410 285c-45 -45 -74 -60 -113 -60c-32 0 -56 11 -84 25c-21 10 -39 19 -63 19s-40 -7 -66 -33l-49 48c45 45 73 60 112 60c32 0 57 -11 85 -25c21 -10 39 -19 63 -19s39 8 65 34z" />
    <glyph glyph-name="uni00A0" unicode="&#xa0;" horiz-adv-x="187" 
 />
    <glyph glyph-name="exclamdown" unicode="&#xa1;" horiz-adv-x="242" 
d="M149 -194h-81v519h81v-519zM158 419h-99v99h99v-99z" />
    <glyph glyph-name="cent" unicode="&#xa2;" horiz-adv-x="367" 
d="M332 250c-1 -47 -13 -84 -40 -110c-18 -17 -41 -27 -69 -32v-108h-64v107c-31 5 -58 19 -78 44c-32 39 -37 109 -37 209s5 170 37 209c20 25 47 39 78 44v99h64v-99c27 -4 49 -13 68 -31c31 -29 40 -72 41 -113h-80c0 20 -2 42 -16 58c-4 4 -8 8 -13 11v-355
c4 3 8 6 12 10c14 15 17 34 17 57h80zM159 183v354c-6 -3 -10 -8 -14 -13c-19 -25 -20 -75 -20 -164s1 -139 20 -164c4 -5 8 -10 14 -13z" />
    <glyph glyph-name="sterling" unicode="&#xa3;" horiz-adv-x="427" 
d="M395 0h-298v338h-64v62h64v144c0 110 77 176 171 176c50 0 96 -19 127 -53l-60 -57c-14 17 -34 33 -67 33c-47 0 -85 -36 -85 -97v-146h85v-62h-85v-261h212v-77z" />
    <glyph glyph-name="currency" unicode="&#xa4;" horiz-adv-x="596" 
d="M500 127l-51 -51l-56 57c-27 -18 -60 -30 -95 -30c-36 0 -69 12 -96 30l-56 -57l-51 51l57 56c-18 27 -29 60 -29 95c0 36 11 69 29 96l-57 56l51 51l56 -56c27 18 60 28 96 28c35 0 68 -10 95 -28l56 56l51 -51l-57 -56c18 -27 30 -60 30 -96c0 -35 -12 -68 -30 -95z
M401 278c0 58 -46 104 -103 104c-58 0 -104 -46 -104 -104c0 -57 46 -103 104 -103c57 0 103 46 103 103z" />
    <glyph glyph-name="yen" unicode="&#xa5;" horiz-adv-x="353" 
d="M345 712l-92 -307h55v-62h-74l-17 -55v-40h91v-62h-91v-186h-82v186h-91v62h91v40l-16 55h-75v62h55l-92 307h91l78 -304l79 304h90z" />
    <glyph glyph-name="brokenbar" unicode="&#xa6;" horiz-adv-x="290" 
d="M186 437h-81v348h81v-348zM186 -73h-81v348h81v-348z" />
    <glyph glyph-name="section" unicode="&#xa7;" horiz-adv-x="409" 
d="M357 271c0 -82 -8 -121 -45 -154c-10 -9 -23 -16 -40 -20c24 -15 43 -29 58 -54c12 -21 19 -50 19 -76c0 -46 -14 -81 -41 -108c-27 -28 -65 -39 -107 -39c-41 0 -78 15 -103 40c-28 28 -42 64 -42 105h82c0 -21 6 -39 20 -54c11 -12 27 -18 43 -18c21 0 36 6 48 18
c11 12 17 29 17 51c0 17 -4 34 -12 45c-11 16 -27 27 -45 36l-69 34c-16 8 -32 17 -44 29c-41 40 -44 85 -44 165c0 81 7 116 45 150c10 9 24 18 41 22c-25 14 -47 32 -60 54c-11 19 -17 42 -17 73c0 43 16 77 42 103s63 39 103 39c39 0 71 -11 96 -33
c29 -26 45 -65 45 -109h-81c0 20 -5 39 -18 53c-12 12 -27 17 -42 17c-19 0 -32 -5 -43 -16c-13 -12 -19 -30 -19 -48c0 -19 4 -33 10 -43c8 -12 23 -25 41 -34l69 -34c17 -8 40 -21 52 -33c36 -37 41 -69 41 -161zM276 271c0 58 -2 91 -25 113c-12 12 -29 18 -47 18
s-34 -6 -46 -17c-21 -20 -25 -52 -25 -114c0 -56 3 -93 25 -114c12 -11 28 -18 46 -18s35 6 47 18c22 21 25 57 25 114z" />
    <glyph glyph-name="dieresis" unicode="&#xa8;" horiz-adv-x="377" 
d="M151 601h-82v82h82v-82zM307 601h-81v82h81v-82z" />
    <glyph glyph-name="copyright" unicode="&#xa9;" horiz-adv-x="853" 
d="M788 356c0 -200 -162 -362 -362 -362s-362 162 -362 362s162 362 362 362s362 -162 362 -362zM730 356c0 173 -134 309 -304 309s-303 -136 -303 -309s133 -309 303 -309s304 136 304 309zM526 265c-1 -39 -11 -68 -30 -87c-18 -18 -39 -26 -68 -26c-34 0 -58 14 -74 33
c-27 32 -29 91 -29 170s2 139 29 171c16 19 40 33 74 33c29 0 50 -9 68 -27c19 -19 29 -47 30 -86h-54c0 20 -2 36 -12 48c-8 10 -18 15 -32 15c-16 0 -26 -7 -33 -16c-14 -20 -16 -66 -16 -138s1 -117 16 -137c7 -9 18 -17 33 -17c13 0 24 5 32 14c10 12 12 29 12 50h54z
" />
    <glyph glyph-name="ordfeminine" unicode="&#xaa;" horiz-adv-x="314" 
d="M268 307h-64v33c-8 -12 -20 -21 -26 -25c-12 -8 -28 -13 -48 -13c-30 0 -54 9 -74 31c-17 18 -27 46 -27 89c0 39 15 70 40 92c20 17 46 27 89 27h42v60c0 33 -17 56 -49 56c-15 0 -26 -6 -34 -14c-13 -14 -14 -32 -14 -47h-68c0 33 8 64 34 89c20 19 49 31 82 31
c32 0 62 -9 83 -30c20 -20 34 -48 34 -90v-289zM200 426v65h-37c-18 0 -34 -3 -45 -13c-13 -12 -21 -32 -21 -53c0 -36 14 -65 51 -65c29 0 52 27 52 66z" />
    <glyph glyph-name="guillemotleft" unicode="&#xab;" horiz-adv-x="392" 
d="M174 42l-148 230l148 229v-127l-68 -102l68 -103v-127zM341 42l-148 230l148 229v-127l-69 -102l69 -103v-127z" />
    <glyph glyph-name="logicalnot" unicode="&#xac;" horiz-adv-x="444" 
d="M394 146h-77v107h-267v77h344v-184z" />
    <glyph glyph-name="uni00AD" unicode="&#xad;" horiz-adv-x="298" 
d="M247 244h-196v77h196v-77z" />
    <glyph glyph-name="registered" unicode="&#xae;" horiz-adv-x="853" 
d="M788 356c0 -200 -162 -362 -362 -362s-362 162 -362 362s162 362 362 362s362 -162 362 -362zM730 356c0 173 -134 309 -304 309s-303 -136 -303 -309s133 -309 303 -309s304 136 304 309zM544 157h-56l-52 168h-47v-168h-54v397h102c30 0 52 -8 68 -24
c21 -21 27 -48 27 -91s-5 -67 -26 -88c-6 -6 -13 -11 -20 -15zM478 439c0 26 -1 42 -12 54c-7 7 -17 11 -29 11h-48v-130h48c12 0 21 4 28 11c11 12 13 28 13 54z" />
    <glyph glyph-name="macron" unicode="&#xaf;" horiz-adv-x="377" 
d="M303 612h-229v57h229v-57z" />
    <glyph glyph-name="degree" unicode="&#xb0;" horiz-adv-x="396" 
d="M347 575c0 -82 -67 -149 -149 -149s-149 67 -149 149s67 148 149 148s149 -66 149 -148zM275 575c0 44 -33 78 -77 78s-77 -33 -77 -78s33 -79 77 -79s77 34 77 79z" />
    <glyph glyph-name="plusminus" unicode="&#xb1;" horiz-adv-x="444" 
d="M398 301h-137v-137h-77v137h-138v77h138v137h77v-137h137v-77zM398 24h-352v77h352v-77z" />
    <glyph glyph-name="twosuperior" unicode="&#xb2;" horiz-adv-x="318" 
d="M269 285h-218v45l135 212c15 23 22 45 22 76s-20 50 -50 50c-33 0 -49 -20 -49 -56v-24h-60v22c0 38 8 61 29 80c20 18 47 27 80 27c34 0 57 -7 78 -24c20 -16 33 -43 33 -77c0 -33 -11 -65 -30 -95l-121 -189h151v-47z" />
    <glyph glyph-name="threesuperior" unicode="&#xb3;" horiz-adv-x="318" 
d="M266 402c0 -46 -5 -72 -32 -96c-19 -17 -49 -26 -80 -26c-32 0 -61 9 -81 27c-19 17 -29 38 -29 83v15h61v-16c0 -26 3 -38 13 -47c9 -8 22 -13 36 -13c15 0 28 5 36 13c11 12 15 35 15 63c0 29 -2 50 -13 63c-9 11 -21 16 -38 16h-27v47h27c15 0 24 4 33 12
c16 15 16 40 16 59c0 20 -2 42 -15 55c-7 7 -18 11 -34 11c-14 0 -26 -4 -35 -13s-12 -24 -12 -42v-19h-61v17c0 40 9 62 28 79c20 18 46 27 80 27c36 0 61 -10 78 -26c21 -20 31 -49 31 -86c0 -30 -4 -51 -17 -70c-9 -12 -19 -22 -34 -28c16 -6 29 -16 38 -30
c13 -19 16 -42 16 -75z" />
    <glyph glyph-name="acute" unicode="&#xb4;" horiz-adv-x="377" 
d="M294 721l-81 -135h-61l68 135h74z" />
    <glyph glyph-name="uni00B5" unicode="&#xb5;" horiz-adv-x="399" 
d="M341 0h-79v40c-7 -12 -20 -25 -31 -32c-16 -10 -35 -16 -58 -16c-17 0 -34 7 -39 14v-200h-78v712h81v-381c0 -48 27 -72 61 -72s62 24 62 72v381h81v-518z" />
    <glyph glyph-name="paragraph" unicode="&#xb6;" horiz-adv-x="570" 
d="M512 -194h-81v830h-111v-830h-81v490h-54c-90 0 -144 59 -144 208s54 208 144 208h327v-906z" />
    <glyph glyph-name="periodcentered" unicode="&#xb7;" horiz-adv-x="266" 
d="M203 233h-141v141h141v-141z" />
    <glyph glyph-name="cedilla" unicode="&#xb8;" horiz-adv-x="377" 
d="M226 -38l-50 -144h-64l57 144h57z" />
    <glyph glyph-name="onesuperior" unicode="&#xb9;" horiz-adv-x="318" 
d="M200 285h-60v364l-72 -47v61l72 49h60v-427z" />
    <glyph glyph-name="ordmasculine" unicode="&#xba;" horiz-adv-x="313" 
d="M276 508c0 -81 -5 -138 -31 -170c-22 -27 -52 -37 -89 -37s-66 10 -88 37c-26 32 -31 89 -31 170s5 138 31 170c22 27 51 38 88 38s67 -11 89 -38c26 -32 31 -89 31 -170zM208 508c0 59 -2 110 -17 131c-8 10 -20 17 -35 17s-27 -6 -35 -17c-15 -21 -16 -71 -16 -131
s1 -110 16 -131c8 -11 20 -16 35 -16s27 6 35 16c15 21 17 72 17 131z" />
    <glyph glyph-name="guillemotright" unicode="&#xbb;" horiz-adv-x="392" 
d="M366 272l-148 -230v127l68 103l-68 102v127zM199 272l-148 -230v127l69 103l-69 102v127z" />
    <glyph glyph-name="onequarter" unicode="&#xbc;" horiz-adv-x="793" 
d="M540 712l-247 -712h-64l247 712h64zM743 63h-33v-63h-60v63h-147v49l117 315h59l-115 -315h86v87h60v-87h33v-49zM200 285h-61v364l-71 -47v61l72 49h60v-427z" />
    <glyph glyph-name="onehalf" unicode="&#xbd;" horiz-adv-x="793" 
d="M540 712l-247 -712h-64l247 712h64zM745 0h-218v45l135 212c15 23 22 45 22 76s-20 50 -50 50c-33 0 -49 -20 -49 -56v-24h-60v22c0 38 8 61 29 80c20 18 47 27 80 27c34 0 57 -7 78 -24c20 -16 33 -43 33 -77c0 -33 -11 -65 -30 -95l-121 -189h151v-47zM200 285h-61v364
l-71 -47v61l72 49h60v-427z" />
    <glyph glyph-name="threequarters" unicode="&#xbe;" horiz-adv-x="793" 
d="M266 402c0 -46 -5 -72 -32 -96c-19 -17 -49 -26 -80 -26c-32 0 -61 9 -81 27c-19 17 -29 38 -29 83v15h61v-16c0 -26 3 -38 13 -47c9 -8 22 -13 36 -13c15 0 28 5 36 13c11 12 15 35 15 63c0 29 -2 50 -13 63c-9 11 -21 16 -38 16h-27v47h27c15 0 24 4 33 12
c16 15 16 40 16 59c0 20 -2 42 -15 55c-7 7 -18 11 -34 11c-14 0 -26 -4 -35 -13s-12 -24 -12 -42v-19h-61v17c0 40 9 62 28 79c20 18 46 27 80 27c36 0 61 -10 78 -26c21 -20 31 -49 31 -86c0 -30 -4 -51 -17 -70c-9 -12 -19 -22 -34 -28c16 -6 29 -16 38 -30
c13 -19 16 -42 16 -75zM540 712l-247 -712h-64l247 712h64zM743 63h-33v-63h-60v63h-148v49l118 315h59l-115 -315h86v87h60v-87h33v-49z" />
    <glyph glyph-name="questiondown" unicode="&#xbf;" horiz-adv-x="400" 
d="M344 -26c0 -55 -11 -101 -43 -132c-26 -25 -62 -42 -109 -42s-83 14 -110 41c-31 31 -44 70 -44 142c0 51 7 84 31 119l59 85c15 22 22 45 22 70v68h81v-78c0 -31 -12 -60 -28 -84l-58 -85c-22 -32 -26 -57 -26 -97c0 -44 7 -69 24 -88c12 -13 27 -20 49 -20
c21 0 36 7 48 19c20 21 23 53 23 82h81zM240 419h-99v99h99v-99z" />
    <glyph glyph-name="Agrave" unicode="&#xc0;" horiz-adv-x="424" 
d="M419 0h-91l-34 168h-165l-34 -168h-90l166 712h83zM278 245l-66 328l-67 -328h133zM251 762h-62l-81 135h74z" />
    <glyph glyph-name="Aacute" unicode="&#xc1;" horiz-adv-x="424" 
d="M419 0h-91l-34 168h-165l-34 -168h-90l166 712h83zM278 245l-66 328l-67 -328h133zM320 897l-81 -135h-62l69 135h74z" />
    <glyph glyph-name="Acircumflex" unicode="&#xc2;" horiz-adv-x="424" 
d="M419 0h-91l-34 168h-165l-34 -168h-90l166 712h83zM278 245l-66 328l-67 -328h133zM340 762h-66l-60 87l-60 -87h-66l93 135h66z" />
    <glyph glyph-name="Atilde" unicode="&#xc3;" horiz-adv-x="424" 
d="M419 0h-91l-34 168h-165l-34 -168h-90l166 712h83zM278 245l-66 328l-67 -328h133zM347 814c-34 -34 -56 -42 -80 -42c-22 0 -38 5 -58 17c-15 8 -27 15 -43 15c-13 0 -23 -2 -45 -23l-36 37c33 34 54 43 79 43c23 0 38 -5 58 -18c15 -9 27 -15 43 -15c12 0 23 2 44 23z
" />
    <glyph glyph-name="Adieresis" unicode="&#xc4;" horiz-adv-x="424" 
d="M419 0h-91l-34 168h-165l-34 -168h-90l166 712h83zM278 245l-66 328l-67 -328h133zM333 777h-82v81h82v-81zM177 777h-82v81h82v-81z" />
    <glyph glyph-name="Aring" unicode="&#xc5;" horiz-adv-x="424" 
d="M419 0h-91l-34 168h-165l-34 -168h-90l166 712h83zM278 245l-66 328l-67 -328h133zM312 850c0 -54 -44 -98 -98 -98s-98 44 -98 98s44 98 98 98s98 -44 98 -98zM263 850c0 27 -22 49 -49 49s-49 -22 -49 -49s22 -49 49 -49s49 22 49 49z" />
    <glyph glyph-name="AE" unicode="&#xc6;" horiz-adv-x="640" 
d="M598 0h-274v172h-163l-61 -172h-95l263 712h330v-77h-188v-239h162v-77h-162v-242h188v-77zM324 250v385l-136 -385h136z" />
    <glyph glyph-name="Ccedilla" unicode="&#xc7;" horiz-adv-x="423" 
d="M386 176c-1 -60 -20 -113 -55 -145c-28 -26 -62 -39 -110 -39c-57 0 -95 21 -122 51c-49 54 -52 135 -52 313s3 259 52 313c27 30 65 51 122 51c49 0 85 -15 113 -42c33 -32 50 -83 51 -142h-86c0 31 -6 62 -22 82c-12 15 -29 25 -56 25c-28 0 -46 -11 -58 -27
c-25 -34 -30 -91 -30 -260s5 -226 30 -260c12 -16 30 -27 58 -27c27 0 44 11 56 26c16 20 23 50 23 81h86zM251 -38l-50 -144h-64l57 144h57z" />
    <glyph glyph-name="Egrave" unicode="&#xc8;" horiz-adv-x="380" 
d="M339 0h-275v712h275v-77h-189v-239h163v-77h-163v-242h189v-77zM242 762h-62l-81 135h74z" />
    <glyph glyph-name="Eacute" unicode="&#xc9;" horiz-adv-x="380" 
d="M339 0h-275v712h275v-77h-189v-239h163v-77h-163v-242h189v-77zM311 897l-81 -135h-62l69 135h74z" />
    <glyph glyph-name="Ecircumflex" unicode="&#xca;" horiz-adv-x="380" 
d="M339 0h-275v712h275v-77h-189v-239h163v-77h-163v-242h189v-77zM331 762h-66l-60 87l-60 -87h-66l93 135h66z" />
    <glyph glyph-name="Edieresis" unicode="&#xcb;" horiz-adv-x="380" 
d="M339 0h-275v712h275v-77h-189v-239h163v-77h-163v-242h189v-77zM324 777h-82v81h82v-81zM168 777h-82v81h82v-81z" />
    <glyph glyph-name="Igrave" unicode="&#xcc;" horiz-adv-x="215" 
d="M150 0h-86v712h86v-712zM145 762h-62l-81 135h74z" />
    <glyph glyph-name="Iacute" unicode="&#xcd;" horiz-adv-x="215" 
d="M150 0h-86v712h86v-712zM214 897l-81 -135h-62l69 135h74z" />
    <glyph glyph-name="Icircumflex" unicode="&#xce;" horiz-adv-x="215" 
d="M150 0h-86v712h86v-712zM234 762h-66l-60 87l-60 -87h-66l93 135h66z" />
    <glyph glyph-name="Idieresis" unicode="&#xcf;" horiz-adv-x="215" 
d="M150 0h-86v712h86v-712zM227 777h-82v81h82v-81zM71 777h-82v81h82v-81z" />
    <glyph glyph-name="Eth" unicode="&#xd0;" horiz-adv-x="459" 
d="M412 356c0 -175 -2 -253 -51 -306c-27 -29 -65 -50 -122 -50h-164v323h-52v69h52v320h164c57 0 95 -21 122 -50c49 -53 51 -131 51 -306zM326 356c0 163 -3 218 -29 252c-12 16 -33 27 -61 27h-75v-243h81v-69h-81v-246h75c28 0 49 11 61 27c26 34 29 89 29 252z" />
    <glyph glyph-name="Ntilde" unicode="&#xd1;" horiz-adv-x="477" 
d="M412 0h-78l-184 487v-487h-86v712h80l183 -487l-1 487h86v-712zM371 814c-34 -34 -56 -42 -80 -42c-22 0 -38 5 -58 17c-15 8 -27 15 -43 15c-13 0 -23 -2 -45 -23l-36 37c33 34 54 43 79 43c23 0 38 -5 58 -18c15 -9 27 -15 43 -15c12 0 23 2 44 23z" />
    <glyph glyph-name="Ograve" unicode="&#xd2;" horiz-adv-x="442" 
d="M395 356c0 -178 -2 -259 -51 -313c-27 -30 -66 -51 -123 -51s-95 21 -122 51c-49 54 -52 135 -52 313s3 259 52 313c27 30 65 51 122 51s96 -21 123 -51c49 -54 51 -135 51 -313zM309 356c0 169 -5 226 -30 260c-12 16 -30 27 -58 27s-46 -11 -58 -27
c-25 -34 -30 -91 -30 -260s5 -226 30 -260c12 -16 30 -27 58 -27s46 11 58 27c25 34 30 91 30 260zM258 762h-62l-81 135h74z" />
    <glyph glyph-name="Oacute" unicode="&#xd3;" horiz-adv-x="442" 
d="M395 356c0 -178 -2 -259 -51 -313c-27 -30 -66 -51 -123 -51s-95 21 -122 51c-49 54 -52 135 -52 313s3 259 52 313c27 30 65 51 122 51s96 -21 123 -51c49 -54 51 -135 51 -313zM309 356c0 169 -5 226 -30 260c-12 16 -30 27 -58 27s-46 -11 -58 -27
c-25 -34 -30 -91 -30 -260s5 -226 30 -260c12 -16 30 -27 58 -27s46 11 58 27c25 34 30 91 30 260zM327 897l-81 -135h-62l69 135h74z" />
    <glyph glyph-name="Ocircumflex" unicode="&#xd4;" horiz-adv-x="442" 
d="M395 356c0 -178 -2 -259 -51 -313c-27 -30 -66 -51 -123 -51s-95 21 -122 51c-49 54 -52 135 -52 313s3 259 52 313c27 30 65 51 122 51s96 -21 123 -51c49 -54 51 -135 51 -313zM309 356c0 169 -5 226 -30 260c-12 16 -30 27 -58 27s-46 -11 -58 -27
c-25 -34 -30 -91 -30 -260s5 -226 30 -260c12 -16 30 -27 58 -27s46 11 58 27c25 34 30 91 30 260zM347 762h-66l-60 87l-60 -87h-66l93 135h66z" />
    <glyph glyph-name="Otilde" unicode="&#xd5;" horiz-adv-x="442" 
d="M395 356c0 -178 -2 -259 -51 -313c-27 -30 -66 -51 -123 -51s-95 21 -122 51c-49 54 -52 135 -52 313s3 259 52 313c27 30 65 51 122 51s96 -21 123 -51c49 -54 51 -135 51 -313zM309 356c0 169 -5 226 -30 260c-12 16 -30 27 -58 27s-46 -11 -58 -27
c-25 -34 -30 -91 -30 -260s5 -226 30 -260c12 -16 30 -27 58 -27s46 11 58 27c25 34 30 91 30 260zM354 814c-34 -34 -56 -42 -80 -42c-22 0 -38 5 -58 17c-15 8 -27 15 -43 15c-13 0 -23 -2 -45 -23l-36 37c33 34 54 43 79 43c23 0 38 -5 58 -18c15 -9 27 -15 43 -15
c12 0 23 2 44 23z" />
    <glyph glyph-name="Odieresis" unicode="&#xd6;" horiz-adv-x="442" 
d="M395 356c0 -178 -2 -259 -51 -313c-27 -30 -66 -51 -123 -51s-95 21 -122 51c-49 54 -52 135 -52 313s3 259 52 313c27 30 65 51 122 51s96 -21 123 -51c49 -54 51 -135 51 -313zM309 356c0 169 -5 226 -30 260c-12 16 -30 27 -58 27s-46 -11 -58 -27
c-25 -34 -30 -91 -30 -260s5 -226 30 -260c12 -16 30 -27 58 -27s46 11 58 27c25 34 30 91 30 260zM340 777h-82v81h82v-81zM184 777h-82v81h82v-81z" />
    <glyph glyph-name="multiply" unicode="&#xd7;" horiz-adv-x="444" 
d="M391 161l-52 -52l-117 116l-116 -116l-53 52l117 117l-117 116l53 53l116 -117l117 117l52 -53l-116 -116z" />
    <glyph glyph-name="Oslash" unicode="&#xd8;" horiz-adv-x="431" 
d="M395 356c0 -178 -2 -259 -51 -313c-27 -30 -66 -51 -123 -51c-33 0 -61 6 -83 19l-19 -55h-62l34 96c-42 53 -44 142 -44 304c0 178 3 259 52 313c27 30 65 51 122 51c33 0 61 -7 83 -20l19 56h62l-33 -97c41 -53 43 -142 43 -303zM277 620c-12 14 -31 23 -56 23
c-28 0 -46 -11 -58 -27c-25 -34 -30 -91 -30 -260c0 -98 1 -145 8 -176zM309 356c0 96 -2 144 -8 175l-136 -440c12 -14 31 -22 56 -22c28 0 46 11 58 27c25 34 30 91 30 260z" />
    <glyph glyph-name="Ugrave" unicode="&#xd9;" horiz-adv-x="445" 
d="M387 162c0 -52 -17 -94 -46 -123c-31 -31 -73 -47 -119 -47s-87 16 -118 47c-29 29 -46 71 -46 123v550h86v-555c0 -56 35 -88 78 -88s79 32 79 88v555h86v-550zM259 762h-62l-81 135h74z" />
    <glyph glyph-name="Uacute" unicode="&#xda;" horiz-adv-x="445" 
d="M387 162c0 -52 -17 -94 -46 -123c-31 -31 -73 -47 -119 -47s-87 16 -118 47c-29 29 -46 71 -46 123v550h86v-555c0 -56 35 -88 78 -88s79 32 79 88v555h86v-550zM328 897l-81 -135h-62l69 135h74z" />
    <glyph glyph-name="Ucircumflex" unicode="&#xdb;" horiz-adv-x="445" 
d="M387 162c0 -52 -17 -94 -46 -123c-31 -31 -73 -47 -119 -47s-87 16 -118 47c-29 29 -46 71 -46 123v550h86v-555c0 -56 35 -88 78 -88s79 32 79 88v555h86v-550zM348 762h-66l-60 87l-60 -87h-66l93 135h66z" />
    <glyph glyph-name="Udieresis" unicode="&#xdc;" horiz-adv-x="445" 
d="M387 162c0 -52 -17 -94 -46 -123c-31 -31 -73 -47 -119 -47s-87 16 -118 47c-29 29 -46 71 -46 123v550h86v-555c0 -56 35 -88 78 -88s79 32 79 88v555h86v-550zM341 777h-82v81h82v-81zM185 777h-82v81h82v-81z" />
    <glyph glyph-name="Yacute" unicode="&#xdd;" horiz-adv-x="353" 
d="M351 712l-132 -424v-288h-86v288l-131 424h94l80 -304l80 304h95zM285 897l-81 -135h-62l69 135h74z" />
    <glyph glyph-name="Thorn" unicode="&#xde;" horiz-adv-x="435" 
d="M393 360c0 -147 -51 -208 -169 -208h-74v-152h-86v712h86v-144h74c108 0 169 -50 169 -208zM307 360c0 78 -15 130 -81 130h-76v-261h76c66 0 81 53 81 131z" />
    <glyph glyph-name="germandbls" unicode="&#xdf;" horiz-adv-x="394" 
d="M355 219c0 -84 -2 -140 -44 -182c-30 -29 -70 -37 -110 -37v73c20 0 40 4 52 18c19 22 21 62 21 134c0 66 -3 108 -20 130c-10 13 -26 20 -45 20h-8v69h7c16 0 29 7 38 18c19 23 19 55 19 83c0 36 -3 64 -19 83c-11 13 -25 19 -45 19c-35 0 -63 -23 -63 -73v-574h-81v571
c0 54 16 85 41 110c25 24 62 39 102 39s78 -12 104 -38c35 -35 42 -75 42 -131c0 -34 -2 -69 -18 -100c-8 -15 -21 -29 -36 -39c14 -9 26 -20 35 -33c23 -32 28 -70 28 -160z" />
    <glyph glyph-name="agrave" unicode="&#xe0;" 
d="M322 0h-77v46c-8 -14 -20 -27 -30 -35c-16 -12 -33 -19 -61 -19c-38 0 -65 12 -89 39c-20 23 -33 62 -33 116c0 48 16 90 46 117c26 23 56 35 110 35h53v82c0 48 -21 74 -61 74c-18 0 -30 -7 -40 -17c-14 -15 -19 -32 -19 -60h-81c0 40 9 79 40 110c23 23 60 38 100 38
c42 0 77 -12 101 -36c25 -26 41 -61 41 -114v-376zM241 144v96h-46c-25 0 -42 -4 -58 -19c-15 -14 -24 -43 -24 -71c0 -54 21 -87 63 -87c39 0 65 33 65 81zM222 586h-62l-81 135h74z" />
    <glyph glyph-name="aacute" unicode="&#xe1;" 
d="M322 0h-77v46c-8 -14 -20 -27 -30 -35c-16 -12 -33 -19 -61 -19c-38 0 -65 12 -89 39c-20 23 -33 62 -33 116c0 48 16 90 46 117c26 23 56 35 110 35h53v82c0 48 -21 74 -61 74c-18 0 -30 -7 -40 -17c-14 -15 -19 -32 -19 -60h-81c0 40 9 79 40 110c23 23 60 38 100 38
c42 0 77 -12 101 -36c25 -26 41 -61 41 -114v-376zM241 144v96h-46c-25 0 -42 -4 -58 -19c-15 -14 -24 -43 -24 -71c0 -54 21 -87 63 -87c39 0 65 33 65 81zM290 721l-81 -135h-61l68 135h74z" />
    <glyph glyph-name="acircumflex" unicode="&#xe2;" 
d="M322 0h-77v46c-8 -14 -20 -27 -30 -35c-16 -12 -33 -19 -61 -19c-38 0 -65 12 -89 39c-20 23 -33 62 -33 116c0 48 16 90 46 117c26 23 56 35 110 35h53v82c0 48 -21 74 -61 74c-18 0 -30 -7 -40 -17c-14 -15 -19 -32 -19 -60h-81c0 40 9 79 40 110c23 23 60 38 100 38
c42 0 77 -12 101 -36c25 -26 41 -61 41 -114v-376zM241 144v96h-46c-25 0 -42 -4 -58 -19c-15 -14 -24 -43 -24 -71c0 -54 21 -87 63 -87c39 0 65 33 65 81zM310 586h-67l-60 87l-59 -87h-67l93 135h67z" />
    <glyph glyph-name="atilde" unicode="&#xe3;" 
d="M322 0h-77v46c-8 -14 -20 -27 -30 -35c-16 -12 -33 -19 -61 -19c-38 0 -65 12 -89 39c-20 23 -33 62 -33 116c0 48 16 90 46 117c26 23 56 35 110 35h53v82c0 48 -21 74 -61 74c-18 0 -30 -7 -40 -17c-14 -15 -19 -32 -19 -60h-81c0 40 9 79 40 110c23 23 60 38 100 38
c42 0 77 -12 101 -36c25 -26 41 -61 41 -114v-376zM241 144v96h-46c-25 0 -42 -4 -58 -19c-15 -14 -24 -43 -24 -71c0 -54 21 -87 63 -87c39 0 65 33 65 81zM317 638c-34 -33 -56 -42 -80 -42c-22 0 -38 6 -58 17c-15 9 -27 15 -43 15c-13 0 -23 -1 -45 -23l-36 38
c33 33 54 42 79 42c23 0 38 -5 58 -17c15 -9 27 -15 43 -15c12 0 23 2 44 23z" />
    <glyph glyph-name="adieresis" unicode="&#xe4;" 
d="M322 0h-77v46c-8 -14 -20 -27 -30 -35c-16 -12 -33 -19 -61 -19c-38 0 -65 12 -89 39c-20 23 -33 62 -33 116c0 48 16 90 46 117c26 23 56 35 110 35h53v82c0 48 -21 74 -61 74c-18 0 -30 -7 -40 -17c-14 -15 -19 -32 -19 -60h-81c0 40 9 79 40 110c23 23 60 38 100 38
c42 0 77 -12 101 -36c25 -26 41 -61 41 -114v-376zM241 144v96h-46c-25 0 -42 -4 -58 -19c-15 -14 -24 -43 -24 -71c0 -54 21 -87 63 -87c39 0 65 33 65 81zM302 601h-81v82h81v-82zM146 601h-82v82h82v-82z" />
    <glyph glyph-name="aring" unicode="&#xe5;" 
d="M322 0h-77v46c-8 -14 -20 -27 -30 -35c-16 -12 -33 -19 -61 -19c-38 0 -65 12 -89 39c-20 23 -33 62 -33 116c0 48 16 90 46 117c26 23 56 35 110 35h53v82c0 48 -21 74 -61 74c-18 0 -30 -7 -40 -17c-14 -15 -19 -32 -19 -60h-81c0 40 9 79 40 110c23 23 60 38 100 38
c42 0 77 -12 101 -36c25 -26 41 -61 41 -114v-376zM241 144v96h-46c-25 0 -42 -4 -58 -19c-15 -14 -24 -43 -24 -71c0 -54 21 -87 63 -87c39 0 65 33 65 81zM281 681c0 -54 -44 -98 -98 -98c-53 0 -97 44 -97 98s44 98 97 98c54 0 98 -44 98 -98zM233 681
c0 27 -23 49 -50 49c-26 0 -49 -22 -49 -49s23 -49 49 -49c27 0 50 22 50 49z" />
    <glyph glyph-name="ae" unicode="&#xe6;" horiz-adv-x="573" 
d="M535 240h-213c0 -82 3 -130 21 -153c10 -13 25 -22 46 -22c19 0 34 7 46 20s18 36 18 60h80c-2 -47 -13 -84 -41 -115c-25 -26 -62 -38 -103 -38c-35 0 -64 10 -86 28c-14 11 -27 28 -36 44c-11 -20 -24 -38 -39 -49c-18 -14 -41 -23 -74 -23c-38 0 -65 12 -89 39
c-21 23 -33 63 -33 116c0 49 16 90 46 117c26 23 56 35 110 35h53v82c0 48 -22 74 -60 74c-19 0 -33 -7 -42 -18c-13 -14 -18 -32 -18 -59h-81c0 40 10 79 40 110c24 23 60 38 100 38c35 0 65 -9 86 -26c7 -7 13 -14 19 -22c4 7 10 12 15 17c23 20 53 31 88 31
c42 0 75 -11 102 -40c43 -46 44 -136 45 -246zM241 144v96h-46c-24 0 -42 -4 -58 -19c-15 -15 -24 -43 -24 -71c0 -54 21 -87 63 -87c38 0 65 34 65 81zM454 301c-1 70 -4 112 -20 131c-11 12 -25 21 -46 21s-35 -9 -45 -21c-17 -19 -20 -61 -21 -131h132z" />
    <glyph glyph-name="ccedilla" unicode="&#xe7;" horiz-adv-x="362" 
d="M329 144c-1 -49 -13 -89 -40 -116c-24 -25 -60 -36 -102 -36c-44 0 -83 13 -109 48c-32 41 -38 114 -38 219s6 178 38 219c26 35 65 48 109 48c42 0 75 -8 101 -34c31 -31 40 -75 41 -118h-80c0 21 -2 43 -16 60c-11 13 -25 20 -45 20c-19 0 -36 -8 -46 -22
c-19 -26 -21 -80 -21 -173s2 -146 21 -172c10 -14 27 -22 46 -22s33 7 44 19c14 16 17 36 17 60h80zM226 -38l-50 -144h-64l57 144h57z" />
    <glyph glyph-name="egrave" unicode="&#xe8;" horiz-adv-x="372" 
d="M334 240h-213c0 -82 4 -130 22 -153c10 -12 24 -22 45 -22c19 0 34 7 46 20c11 13 18 35 18 59h80c-1 -46 -13 -84 -41 -114c-25 -27 -62 -38 -103 -38c-45 0 -75 12 -102 40c-40 41 -46 118 -46 227s5 186 45 227c27 28 61 40 102 40c42 0 75 -11 102 -40
c43 -47 45 -135 45 -246zM253 301c0 70 -4 112 -20 131c-10 12 -25 22 -46 22s-35 -10 -45 -22c-16 -19 -21 -61 -21 -131h132zM226 586h-62l-81 135h74z" />
    <glyph glyph-name="eacute" unicode="&#xe9;" horiz-adv-x="372" 
d="M334 240h-213c0 -82 4 -130 22 -153c10 -12 24 -22 45 -22c19 0 34 7 46 20c11 13 18 35 18 59h80c-1 -46 -13 -84 -41 -114c-25 -27 -62 -38 -103 -38c-45 0 -75 12 -102 40c-40 41 -46 118 -46 227s5 186 45 227c27 28 61 40 102 40c42 0 75 -11 102 -40
c43 -47 45 -135 45 -246zM253 301c0 70 -4 112 -20 131c-10 12 -25 22 -46 22s-35 -10 -45 -22c-16 -19 -21 -61 -21 -131h132zM294 721l-81 -135h-61l68 135h74z" />
    <glyph glyph-name="ecircumflex" unicode="&#xea;" horiz-adv-x="372" 
d="M334 240h-213c0 -82 4 -130 22 -153c10 -12 24 -22 45 -22c19 0 34 7 46 20c11 13 18 35 18 59h80c-1 -46 -13 -84 -41 -114c-25 -27 -62 -38 -103 -38c-45 0 -75 12 -102 40c-40 41 -46 118 -46 227s5 186 45 227c27 28 61 40 102 40c42 0 75 -11 102 -40
c43 -47 45 -135 45 -246zM253 301c0 70 -4 112 -20 131c-10 12 -25 22 -46 22s-35 -10 -45 -22c-16 -19 -21 -61 -21 -131h132zM314 586h-67l-60 87l-59 -87h-67l93 135h67z" />
    <glyph glyph-name="edieresis" unicode="&#xeb;" horiz-adv-x="372" 
d="M334 240h-213c0 -82 4 -130 22 -153c10 -12 24 -22 45 -22c19 0 34 7 46 20c11 13 18 35 18 59h80c-1 -46 -13 -84 -41 -114c-25 -27 -62 -38 -103 -38c-45 0 -75 12 -102 40c-40 41 -46 118 -46 227s5 186 45 227c27 28 61 40 102 40c42 0 75 -11 102 -40
c43 -47 45 -135 45 -246zM253 301c0 70 -4 112 -20 131c-10 12 -25 22 -46 22s-35 -10 -45 -22c-16 -19 -21 -61 -21 -131h132zM306 601h-81v82h81v-82zM150 601h-82v82h82v-82z" />
    <glyph glyph-name="igrave" unicode="&#xec;" horiz-adv-x="195" 
d="M138 0h-81v518h81v-518zM135 586h-62l-81 135h74z" />
    <glyph glyph-name="iacute" unicode="&#xed;" horiz-adv-x="195" 
d="M138 0h-81v518h81v-518zM205 721l-81 -135h-61l68 135h74z" />
    <glyph glyph-name="icircumflex" unicode="&#xee;" horiz-adv-x="195" 
d="M138 0h-81v518h81v-518zM225 586h-67l-60 87l-59 -87h-67l93 135h67z" />
    <glyph glyph-name="idieresis" unicode="&#xef;" horiz-adv-x="195" 
d="M138 0h-81v518h81v-518zM217 601h-81v82h81v-82zM61 601h-81v82h81v-82z" />
    <glyph glyph-name="eth" unicode="&#xf0;" horiz-adv-x="378" 
d="M335 246c0 -101 -6 -170 -38 -209c-26 -32 -63 -45 -109 -45s-82 13 -108 45c-32 39 -39 108 -39 209c0 115 5 180 38 217c21 24 50 37 89 37c19 0 42 -6 58 -16l-31 91h-78v61h58l-27 76h82l27 -76h71v-61h-52l35 -108c17 -54 24 -108 24 -221zM254 247
c0 89 -1 138 -20 162c-10 13 -27 21 -46 21s-35 -8 -45 -21c-19 -24 -21 -73 -21 -162s2 -137 21 -161c10 -13 26 -21 45 -21s36 8 46 21c19 24 20 72 20 161z" />
    <glyph glyph-name="ntilde" unicode="&#xf1;" horiz-adv-x="395" 
d="M342 0h-81v381c0 48 -28 72 -62 72s-61 -24 -61 -72v-381h-81v518h78v-40c7 12 21 25 32 32c16 10 35 16 56 16c39 0 66 -13 88 -38c21 -23 31 -51 31 -107v-381zM334 638c-34 -33 -56 -42 -80 -42c-22 0 -38 6 -58 17c-15 9 -27 15 -43 15c-13 0 -23 -1 -45 -23l-36 38
c33 33 54 42 79 42c23 0 38 -5 58 -17c15 -9 27 -15 43 -15c12 0 23 2 44 23z" />
    <glyph glyph-name="ograve" unicode="&#xf2;" 
d="M334 259c0 -105 -5 -178 -37 -219c-26 -35 -64 -48 -110 -48s-83 13 -109 48c-32 41 -38 114 -38 219s6 178 38 219c26 35 63 48 109 48s84 -13 110 -48c32 -41 37 -114 37 -219zM253 259c0 93 -1 147 -20 173c-10 14 -27 22 -46 22s-35 -8 -45 -22
c-19 -26 -21 -80 -21 -173s2 -146 21 -172c10 -14 26 -22 45 -22s36 8 46 22c19 26 20 79 20 172zM226 586h-62l-81 135h74z" />
    <glyph glyph-name="oacute" unicode="&#xf3;" 
d="M334 259c0 -105 -5 -178 -37 -219c-26 -35 -64 -48 -110 -48s-83 13 -109 48c-32 41 -38 114 -38 219s6 178 38 219c26 35 63 48 109 48s84 -13 110 -48c32 -41 37 -114 37 -219zM253 259c0 93 -1 147 -20 173c-10 14 -27 22 -46 22s-35 -8 -45 -22
c-19 -26 -21 -80 -21 -173s2 -146 21 -172c10 -14 26 -22 45 -22s36 8 46 22c19 26 20 79 20 172zM294 721l-81 -135h-61l68 135h74z" />
    <glyph glyph-name="ocircumflex" unicode="&#xf4;" 
d="M334 259c0 -105 -5 -178 -37 -219c-26 -35 -64 -48 -110 -48s-83 13 -109 48c-32 41 -38 114 -38 219s6 178 38 219c26 35 63 48 109 48s84 -13 110 -48c32 -41 37 -114 37 -219zM253 259c0 93 -1 147 -20 173c-10 14 -27 22 -46 22s-35 -8 -45 -22
c-19 -26 -21 -80 -21 -173s2 -146 21 -172c10 -14 26 -22 45 -22s36 8 46 22c19 26 20 79 20 172zM314 586h-67l-60 87l-59 -87h-67l93 135h67z" />
    <glyph glyph-name="otilde" unicode="&#xf5;" 
d="M334 259c0 -105 -5 -178 -37 -219c-26 -35 -64 -48 -110 -48s-83 13 -109 48c-32 41 -38 114 -38 219s6 178 38 219c26 35 63 48 109 48s84 -13 110 -48c32 -41 37 -114 37 -219zM253 259c0 93 -1 147 -20 173c-10 14 -27 22 -46 22s-35 -8 -45 -22
c-19 -26 -21 -80 -21 -173s2 -146 21 -172c10 -14 26 -22 45 -22s36 8 46 22c19 26 20 79 20 172zM321 638c-34 -33 -56 -42 -80 -42c-22 0 -38 6 -58 17c-15 9 -27 15 -43 15c-13 0 -23 -1 -45 -23l-36 38c33 33 54 42 79 42c23 0 38 -5 58 -17c15 -9 27 -15 43 -15
c12 0 23 2 44 23z" />
    <glyph glyph-name="odieresis" unicode="&#xf6;" 
d="M334 259c0 -105 -5 -178 -37 -219c-26 -35 -64 -48 -110 -48s-83 13 -109 48c-32 41 -38 114 -38 219s6 178 38 219c26 35 63 48 109 48s84 -13 110 -48c32 -41 37 -114 37 -219zM253 259c0 93 -1 147 -20 173c-10 14 -27 22 -46 22s-35 -8 -45 -22
c-19 -26 -21 -80 -21 -173s2 -146 21 -172c10 -14 26 -22 45 -22s36 8 46 22c19 26 20 79 20 172zM306 601h-81v82h81v-82zM150 601h-82v82h82v-82z" />
    <glyph glyph-name="divide" unicode="&#xf7;" horiz-adv-x="445" 
d="M398 238h-352v78h352v-78zM273 394h-100v99h100v-99zM273 60h-100v100h100v-100z" />
    <glyph glyph-name="oslash" unicode="&#xf8;" horiz-adv-x="370" 
d="M339 562l-37 -91c28 -42 32 -116 32 -212c0 -105 -5 -178 -37 -219c-26 -35 -64 -48 -110 -48c-28 0 -53 6 -73 17l-20 -53h-58l36 91c-27 42 -32 116 -32 212c0 105 6 178 38 219c26 35 63 48 109 48c28 0 53 -6 73 -17l21 53h58zM254 259c0 44 -1 80 -6 98l-103 -277
c10 -11 24 -18 42 -18c19 0 36 8 46 22c19 26 21 80 21 175zM230 438c-10 11 -25 18 -43 18c-19 0 -35 -8 -45 -22c-19 -26 -21 -80 -21 -175c0 -44 0 -80 5 -98z" />
    <glyph glyph-name="ugrave" unicode="&#xf9;" horiz-adv-x="395" 
d="M338 0h-78v40c-7 -12 -21 -25 -32 -32c-16 -10 -35 -16 -56 -16c-39 0 -66 13 -88 38c-21 23 -31 51 -31 107v381h81v-381c0 -48 28 -72 62 -72s61 24 61 72v381h81v-518zM234 586h-62l-81 135h74z" />
    <glyph glyph-name="uacute" unicode="&#xfa;" horiz-adv-x="395" 
d="M338 0h-78v40c-7 -12 -21 -25 -32 -32c-16 -10 -35 -16 -56 -16c-39 0 -66 13 -88 38c-21 23 -31 51 -31 107v381h81v-381c0 -48 28 -72 62 -72s61 24 61 72v381h81v-518zM302 721l-81 -135h-61l68 135h74z" />
    <glyph glyph-name="ucircumflex" unicode="&#xfb;" horiz-adv-x="395" 
d="M338 0h-78v40c-7 -12 -21 -25 -32 -32c-16 -10 -35 -16 -56 -16c-39 0 -66 13 -88 38c-21 23 -31 51 -31 107v381h81v-381c0 -48 28 -72 62 -72s61 24 61 72v381h81v-518zM322 586h-67l-60 87l-59 -87h-67l93 135h67z" />
    <glyph glyph-name="udieresis" unicode="&#xfc;" horiz-adv-x="395" 
d="M338 0h-78v40c-7 -12 -21 -25 -32 -32c-16 -10 -35 -16 -56 -16c-39 0 -66 13 -88 38c-21 23 -31 51 -31 107v381h81v-381c0 -48 28 -72 62 -72s61 24 61 72v381h81v-518zM314 601h-81v82h81v-82zM158 601h-82v82h82v-82z" />
    <glyph glyph-name="yacute" unicode="&#xfd;" horiz-adv-x="345" 
d="M339 518l-146 -601c-22 -93 -86 -111 -172 -111v72c50 0 81 13 93 60l16 63l-126 517h89l79 -389l78 389h89zM282 721l-81 -135h-61l68 135h74z" />
    <glyph glyph-name="thorn" unicode="&#xfe;" horiz-adv-x="389" 
d="M347 259c0 -120 -4 -190 -37 -228c-21 -26 -48 -39 -86 -39c-21 0 -40 5 -56 15c-10 7 -21 18 -29 29v-230h-81v906h78v-234c6 11 22 25 32 32c16 11 35 16 56 16c35 0 63 -11 86 -38c33 -39 37 -109 37 -229zM266 259c0 94 -1 147 -20 172c-10 14 -27 22 -45 22
c-16 0 -30 -5 -42 -15c-13 -13 -20 -32 -20 -60v-237c0 -28 7 -47 20 -60c12 -11 26 -16 42 -16c18 0 35 8 45 22c19 26 20 79 20 172z" />
    <glyph glyph-name="ydieresis" unicode="&#xff;" horiz-adv-x="345" 
d="M339 518l-146 -601c-22 -93 -86 -111 -172 -111v72c50 0 81 13 93 60l16 63l-126 517h89l79 -389l78 389h89zM294 601h-81v82h81v-82zM138 601h-82v82h82v-82z" />
    <glyph glyph-name="dotlessi" unicode="&#x131;" horiz-adv-x="195" 
d="M138 0h-81v518h81v-518z" />
    <glyph glyph-name="Lslash" unicode="&#x141;" horiz-adv-x="370" 
d="M347 0h-274v276l-48 -44v85l48 44v351h86v-280l94 84v-85l-94 -84v-270h188v-77z" />
    <glyph glyph-name="lslash" unicode="&#x142;" horiz-adv-x="255" 
d="M235 0c-37 0 -72 5 -100 24c-8 6 -15 13 -22 21c-14 16 -24 36 -29 64c-5 25 -8 52 -8 82v117c-19 -18 -38 -36 -57 -55v81c19 19 38 37 57 56v322h81v-253c19 19 39 38 58 57v-82c-19 -18 -39 -37 -58 -56v-228c0 -8 1 -15 3 -21c6 -38 30 -57 75 -57v-72z" />
    <glyph glyph-name="OE" unicode="&#x152;" horiz-adv-x="622" 
d="M580 0h-267v33c-21 -26 -56 -41 -96 -41c-53 0 -93 20 -118 51c-45 53 -52 135 -52 313s6 261 52 313c26 31 65 51 118 51c40 0 77 -16 96 -41v33h267v-77h-188v-239h162v-77h-162v-242h188v-77zM309 356c0 169 -4 226 -30 260c-11 16 -31 27 -58 27
c-28 0 -47 -11 -58 -27c-26 -34 -30 -91 -30 -260s4 -226 30 -260c11 -16 30 -27 58 -27c27 0 47 11 58 27c26 34 30 91 30 260z" />
    <glyph glyph-name="oe" unicode="&#x153;" horiz-adv-x="586" 
d="M547 240h-212c0 -82 3 -130 21 -153c9 -13 25 -22 46 -22c18 0 34 7 46 20c11 13 17 36 17 60h80c-1 -47 -13 -84 -41 -115c-25 -26 -61 -38 -102 -38c-37 0 -68 13 -89 32c-7 7 -13 15 -18 25c-5 -11 -11 -18 -18 -25c-22 -19 -53 -32 -90 -32c-46 0 -83 13 -109 48
c-32 41 -38 115 -38 219c0 105 6 178 38 219c26 35 63 48 109 48c37 0 69 -12 91 -33c7 -6 12 -14 17 -23c5 10 11 17 18 24c23 20 53 32 87 32c42 0 75 -11 102 -40c44 -46 45 -136 45 -246zM253 259c0 94 -1 147 -20 172c-10 14 -26 22 -46 22c-19 0 -35 -8 -45 -22
c-19 -25 -20 -78 -20 -172c0 -93 1 -146 20 -172c10 -14 26 -22 45 -22c20 0 36 8 46 22c19 26 20 79 20 172zM466 301c-1 70 -4 112 -20 131c-10 12 -25 21 -46 21c-20 0 -35 -9 -45 -21c-16 -19 -20 -61 -20 -131h131z" />
    <glyph glyph-name="Scaron" unicode="&#x160;" horiz-adv-x="420" 
d="M377 191c0 -74 -10 -121 -44 -155c-27 -26 -69 -43 -126 -43c-55 0 -97 15 -125 43c-33 33 -44 74 -44 150h86c0 -47 5 -73 24 -93c12 -13 32 -22 59 -22c29 0 48 9 61 23c19 21 23 48 23 95c0 82 -12 107 -70 131l-81 33c-73 30 -97 70 -97 178c0 62 18 113 54 146
c28 26 66 41 113 41c52 0 91 -15 118 -41c36 -35 47 -81 47 -146h-86c0 38 -4 64 -22 86c-12 15 -31 24 -58 24c-25 0 -43 -9 -55 -22c-17 -19 -25 -48 -25 -85c0 -70 11 -91 68 -115l80 -33c81 -33 100 -83 100 -195zM344 892l-93 -134h-66l-93 134h66l60 -87l60 87h66z
" />
    <glyph glyph-name="scaron" unicode="&#x161;" horiz-adv-x="359" 
d="M328 141c0 -46 -18 -82 -44 -108c-28 -29 -64 -41 -106 -41s-79 14 -104 40c-30 31 -44 67 -44 114h80c0 -27 7 -47 22 -63c12 -12 30 -18 46 -18c21 0 36 6 49 19c12 12 20 31 20 52c0 18 -4 33 -13 47c-10 15 -25 26 -46 37l-67 34c-34 17 -58 38 -71 60
c-11 19 -16 41 -16 68c0 45 17 79 43 105s62 39 102 39c41 0 76 -12 101 -37c27 -26 42 -63 42 -114h-80c0 30 -6 48 -19 62c-12 13 -28 18 -44 18c-19 0 -34 -6 -45 -17c-13 -13 -19 -31 -19 -50c0 -15 3 -27 9 -38c7 -12 22 -24 43 -34l66 -33c35 -17 58 -35 73 -59
c14 -21 22 -50 22 -83zM310 717l-93 -135h-67l-93 135h67l59 -87l60 87h67z" />
    <glyph glyph-name="Ydieresis" unicode="&#x178;" horiz-adv-x="353" 
d="M351 712l-132 -424v-288h-86v288l-131 424h94l80 -304l80 304h95zM296 777h-82v81h82v-81zM140 777h-82v81h82v-81z" />
    <glyph glyph-name="Zcaron" unicode="&#x17d;" horiz-adv-x="349" 
d="M318 0h-287v65l198 570h-185v77h274v-65l-197 -570h197v-77zM307 892l-93 -134h-66l-93 134h66l60 -87l60 87h66z" />
    <glyph glyph-name="zcaron" unicode="&#x17e;" horiz-adv-x="301" 
d="M277 0h-253v62l163 384h-152v72h242v-62l-163 -383h163v-73zM284 717l-93 -135h-67l-93 135h67l59 -87l60 87h67z" />
    <glyph glyph-name="florin" unicode="&#x192;" horiz-adv-x="351" 
d="M329 644h-30c-38 0 -68 -24 -76 -66l-35 -193h79v-62h-90l-97 -517h-80l96 517h-54v62h66l35 197c16 91 80 134 156 134h30v-72z" />
    <glyph glyph-name="dotlessj" unicode="&#x237;" horiz-adv-x="195" 
d="M138 -46c0 -57 -18 -92 -46 -115c-31 -27 -69 -33 -113 -33v73c50 0 78 20 78 78v561h81v-564z" />
    <glyph glyph-name="circumflex" unicode="&#x2c6;" 
d="M314 586h-67l-60 87l-59 -87h-67l93 135h67z" />
    <glyph glyph-name="caron" unicode="&#x2c7;" 
d="M314 717l-93 -135h-67l-93 135h67l59 -87l60 87h67z" />
    <glyph glyph-name="breve" unicode="&#x2d8;" 
d="M305 694c-5 -79 -51 -112 -118 -112c-66 0 -112 33 -117 112h58c5 -37 27 -53 59 -53c33 0 55 16 60 53h58z" />
    <glyph glyph-name="dotaccent" unicode="&#x2d9;" 
d="M228 604h-81v82h81v-82z" />
    <glyph glyph-name="ring" unicode="&#x2da;" 
d="M285 681c0 -54 -44 -98 -98 -98c-53 0 -97 44 -97 98s44 98 97 98c54 0 98 -44 98 -98zM237 681c0 27 -23 49 -50 49c-26 0 -49 -22 -49 -49s23 -49 49 -49c27 0 50 22 50 49z" />
    <glyph glyph-name="ogonek" unicode="&#x2db;" 
d="M226 -38l-50 -144h-64l57 144h57z" />
    <glyph glyph-name="tilde" unicode="&#x2dc;" 
d="M321 638c-34 -33 -56 -42 -80 -42c-22 0 -38 6 -58 17c-15 9 -27 15 -43 15c-13 0 -23 -1 -45 -23l-36 38c33 33 54 42 79 42c23 0 38 -5 58 -17c15 -9 27 -15 43 -15c12 0 23 2 44 23z" />
    <glyph glyph-name="hungarumlaut" unicode="&#x2dd;" 
d="M214 721l-68 -135h-59l53 135h74zM351 721l-68 -135h-58l52 135h74z" />
    <glyph glyph-name="Delta" unicode="&#x394;" horiz-adv-x="424" 
d="M419 0h-414l166 712h83zM312 77l-100 496l-100 -496h200z" />
    <glyph glyph-name="Omega" unicode="&#x3a9;" horiz-adv-x="460" 
d="M408 0h-152v64c21 11 41 29 49 58c13 47 12 137 12 234c0 168 -4 226 -29 260c-12 16 -31 27 -58 27s-46 -11 -58 -27c-25 -34 -29 -92 -29 -260c0 -97 -1 -187 12 -234c9 -29 28 -47 49 -58v-64h-152v72h64c-16 10 -30 24 -39 46c-18 42 -20 119 -20 238
c0 178 2 259 51 313c27 30 65 51 122 51s95 -21 122 -51c49 -54 51 -135 51 -313c0 -119 -2 -196 -20 -238c-9 -22 -23 -36 -39 -46h64v-72z" />
    <glyph glyph-name="mu" unicode="&#x3bc;" horiz-adv-x="399" 
d="M341 0h-79v40c-7 -12 -20 -25 -31 -32c-16 -10 -35 -16 -58 -16c-17 0 -34 7 -39 14v-200h-78v712h81v-381c0 -48 27 -72 61 -72s62 24 62 72v381h81v-518z" />
    <glyph glyph-name="pi" unicode="&#x3c0;" horiz-adv-x="471" 
d="M453 450h-75v-450h-81v450h-123v-450h-81v450h-76v68h436v-68z" />
    <glyph glyph-name="endash" unicode="&#x2013;" horiz-adv-x="445" 
d="M398 244h-352v78h352v-78z" />
    <glyph glyph-name="emdash" unicode="&#x2014;" horiz-adv-x="691" 
d="M640 244h-589v78h589v-78z" />
    <glyph glyph-name="quoteleft" unicode="&#x2018;" horiz-adv-x="207" 
d="M150 615h-93v97l93 68v-165z" />
    <glyph glyph-name="quoteright" unicode="&#x2019;" horiz-adv-x="207" 
d="M150 615l-93 -68v165h93v-97z" />
    <glyph glyph-name="quotesinglbase" unicode="&#x201a;" horiz-adv-x="207" 
d="M150 0l-93 -68v165h93v-97z" />
    <glyph glyph-name="quotedblleft" unicode="&#x201c;" horiz-adv-x="373" 
d="M316 615h-92v97l92 68v-165zM150 615h-93v97l93 68v-165z" />
    <glyph glyph-name="quotedblright" unicode="&#x201d;" horiz-adv-x="373" 
d="M316 615l-92 -68v165h92v-97zM150 615l-93 -68v165h93v-97z" />
    <glyph glyph-name="quotedblbase" unicode="&#x201e;" horiz-adv-x="373" 
d="M316 0l-92 -68v165h92v-97zM150 0l-93 -68v165h93v-97z" />
    <glyph glyph-name="dagger" unicode="&#x2020;" horiz-adv-x="443" 
d="M396 450h-136v-450h-77v450h-137v68h137v194h77v-194h136v-68z" />
    <glyph glyph-name="daggerdbl" unicode="&#x2021;" horiz-adv-x="443" 
d="M396 0h-136v-194h-77v194h-137v69h137v381h-137v68h137v194h77v-194h136v-68h-136v-381h136v-69z" />
    <glyph glyph-name="bullet" unicode="&#x2022;" horiz-adv-x="455" 
d="M390 334c0 -90 -73 -163 -163 -163s-163 73 -163 163s73 163 163 163s163 -73 163 -163z" />
    <glyph glyph-name="ellipsis" unicode="&#x2026;" horiz-adv-x="602" 
d="M543 0h-99v99h99v-99zM158 0h-99v99h99v-99zM351 0h-100v99h100v-99z" />
    <glyph glyph-name="perthousand" unicode="&#x2030;" horiz-adv-x="970" 
d="M624 102c0 -70 -50 -110 -113 -110s-113 40 -113 110v154c0 70 50 110 113 110s113 -40 113 -110v-154zM919 102c0 -70 -50 -110 -113 -110s-112 40 -112 110v154c0 70 49 110 112 110s113 -40 113 -110v-154zM276 456c0 -70 -50 -110 -113 -110s-112 40 -112 110v154
c0 70 49 110 112 110s113 -40 113 -110v-154zM494 712l-248 -712h-65l248 712h65zM556 103v151c0 33 -17 51 -45 51s-45 -18 -45 -51v-151c0 -33 17 -51 45 -51s45 18 45 51zM851 103v151c0 33 -17 51 -45 51s-44 -18 -44 -51v-151c0 -33 16 -51 44 -51s45 18 45 51z
M208 458v151c0 33 -17 51 -45 51s-44 -18 -44 -51v-151c0 -33 16 -51 44 -51s45 18 45 51z" />
    <glyph glyph-name="guilsinglleft" unicode="&#x2039;" horiz-adv-x="225" 
d="M175 42l-149 230l149 229v-127l-68 -102l68 -103v-127z" />
    <glyph glyph-name="guilsinglright" unicode="&#x203a;" horiz-adv-x="225" 
d="M199 272l-148 -230v127l68 103l-68 102v127z" />
    <glyph glyph-name="fraction" unicode="&#x2044;" horiz-adv-x="108" 
d="M210 712l-247 -712h-64l246 712h65z" />
    <glyph glyph-name="Euro" unicode="&#x20ac;" horiz-adv-x="474" 
d="M431 176c-1 -60 -20 -113 -55 -145c-28 -26 -62 -39 -110 -39c-57 0 -95 21 -122 51c-35 38 -48 87 -50 206h-61v62h59v90h-59v62h61c2 119 15 168 50 206c27 30 65 51 122 51c49 0 85 -15 113 -42c33 -32 51 -83 52 -142h-86c-1 53 -15 107 -79 107
c-28 0 -47 -11 -59 -27c-19 -25 -26 -52 -27 -153h120v-62h-121v-90h121v-62h-120c1 -101 8 -128 27 -153c12 -15 31 -27 59 -27c64 0 78 55 79 107h86z" />
    <glyph glyph-name="trademark" unicode="&#x2122;" horiz-adv-x="616" 
d="M563 279h-57v292l-65 -188h-35l-64 184v-288h-57v433h53l86 -233l86 233h53v-433zM231 660h-73v-381h-56v381h-73v52h202v-52z" />
    <glyph glyph-name="uni2126" unicode="&#x2126;" horiz-adv-x="460" 
d="M408 0h-152v64c21 11 41 29 49 58c13 47 12 137 12 234c0 168 -4 226 -29 260c-12 16 -31 27 -58 27s-46 -11 -58 -27c-25 -34 -29 -92 -29 -260c0 -97 -1 -187 12 -234c9 -29 28 -47 49 -58v-64h-152v72h64c-16 10 -30 24 -39 46c-18 42 -20 119 -20 238
c0 178 2 259 51 313c27 30 65 51 122 51s95 -21 122 -51c49 -54 51 -135 51 -313c0 -119 -2 -196 -20 -238c-9 -22 -23 -36 -39 -46h64v-72z" />
    <glyph glyph-name="arrowleft" unicode="&#x2190;" horiz-adv-x="676" 
d="M624 238h-454l212 -211h-106l-250 250l250 249h106l-212 -210h454v-78z" />
    <glyph glyph-name="arrowup" unicode="&#x2191;" horiz-adv-x="676" 
d="M587 230l-210 212v-454h-78v454l-210 -212v106l249 250l249 -250v-106z" />
    <glyph glyph-name="arrowright" unicode="&#x2192;" horiz-adv-x="676" 
d="M649 277l-250 -250h-105l212 211h-455v78h455l-212 210h105z" />
    <glyph glyph-name="arrowdown" unicode="&#x2193;" horiz-adv-x="676" 
d="M587 217l-249 -249l-249 249v106l210 -212v455h78v-455l210 212v-106z" />
    <glyph glyph-name="uni2196" unicode="&#x2196;" horiz-adv-x="676" 
d="M554 423l-299 1l322 -321l-56 -56l-321 322l1 -299l-75 75v352h353z" />
    <glyph glyph-name="uni2197" unicode="&#x2197;" horiz-adv-x="676" 
d="M475 70l1 299l-322 -322l-55 56l321 321l-298 -1l74 75h353v-353z" />
    <glyph glyph-name="uni2198" unicode="&#x2198;" horiz-adv-x="676" 
d="M549 408l-1 -353h-352l-75 76l299 -2l-321 322l55 54l321 -320l-1 298z" />
    <glyph glyph-name="uni2199" unicode="&#x2199;" horiz-adv-x="676" 
d="M479 55h-352v353l75 75l-2 -298l322 320l55 -54l-321 -322l298 1z" />
    <glyph glyph-name="partialdiff" unicode="&#x2202;" horiz-adv-x="387" 
d="M332 259c0 -104 -6 -178 -38 -219c-26 -34 -63 -48 -107 -48c-45 0 -81 14 -107 46c-33 39 -39 108 -39 209c0 116 5 182 38 219c22 26 51 37 87 37c20 0 38 -5 54 -15c11 -6 26 -20 31 -28v87c0 30 -4 61 -17 77c-12 15 -28 22 -49 22c-26 0 -48 -11 -65 -30l-54 51
c31 34 70 52 122 52c43 0 79 -12 103 -35c25 -26 41 -54 41 -144v-281zM251 247c0 89 -2 138 -20 162c-10 13 -27 21 -44 21c-18 0 -34 -8 -44 -21c-19 -24 -21 -73 -21 -162s2 -137 21 -162c10 -13 26 -20 44 -20c17 0 34 7 44 20c18 25 20 73 20 162z" />
    <glyph glyph-name="uni2206" unicode="&#x2206;" horiz-adv-x="424" 
d="M419 0h-414l166 712h83zM312 77l-100 496l-100 -496h200z" />
    <glyph glyph-name="product" unicode="&#x220f;" horiz-adv-x="458" 
d="M394 -205h-86v888h-158v-888h-86v965h330v-965z" />
    <glyph glyph-name="summation" unicode="&#x2211;" horiz-adv-x="373" 
d="M327 -206h-296v65l141 431l-133 405v65h288v-77h-196l110 -355v-80l-118 -376h204v-78z" />
    <glyph glyph-name="minus" unicode="&#x2212;" horiz-adv-x="379" 
d="M328 244h-277v78h277v-78z" />
    <glyph glyph-name="uni2219" unicode="&#x2219;" horiz-adv-x="0" 
d="M203 233h-141v141h141v-141z" />
    <glyph glyph-name="radical" unicode="&#x221a;" horiz-adv-x="467" 
d="M441 635h-80l-148 -635h-89l-120 507h93l71 -380l117 585h156v-77z" />
    <glyph glyph-name="infinity" unicode="&#x221e;" horiz-adv-x="635" 
d="M588 281c0 -75 -49 -132 -134 -132c-53 0 -95 26 -136 75c-42 -49 -84 -76 -137 -76c-84 0 -134 58 -134 133s50 134 134 134c52 0 95 -27 137 -76c41 49 82 76 136 76c85 0 134 -59 134 -134zM513 279c0 37 -27 60 -60 60c-32 0 -55 -25 -84 -60c29 -34 52 -59 84 -59
c33 0 60 23 60 59zM266 279c-29 35 -51 62 -83 62c-34 0 -61 -25 -61 -62c0 -36 27 -59 61 -59c32 0 54 25 83 59z" />
    <glyph glyph-name="uni2224" unicode="&#x2224;" horiz-adv-x="0" 
d="M203 233h-141v141h141v-141z" />
    <glyph glyph-name="logicaland" unicode="&#x2227;" horiz-adv-x="0" 
d="M203 233h-141v141h141v-141z" />
    <glyph glyph-name="integral" unicode="&#x222b;" horiz-adv-x="296" 
d="M266 644h-23c-31 0 -54 -23 -54 -62v-638c0 -48 -15 -79 -36 -100c-22 -23 -56 -35 -90 -35h-33v73h24c30 0 54 22 54 62v637c0 48 14 79 35 101c22 22 56 35 90 35h33v-73z" />
    <glyph glyph-name="approxequal" unicode="&#x2248;" horiz-adv-x="445" 
d="M410 359c-45 -45 -74 -60 -113 -60c-31 0 -56 11 -84 25c-22 11 -40 19 -63 19c-24 0 -40 -7 -66 -33l-49 49c45 45 73 59 112 59c32 0 57 -11 85 -24c21 -11 39 -19 63 -19s39 7 65 33zM410 196c-45 -45 -74 -60 -113 -60c-31 0 -56 11 -84 25c-22 10 -40 19 -63 19
c-24 0 -39 -8 -65 -34l-50 49c45 45 73 60 112 60c32 0 57 -11 85 -25c21 -10 39 -19 63 -19s39 8 65 34z" />
    <glyph glyph-name="notequal" unicode="&#x2260;" horiz-adv-x="445" 
d="M405 163h-225l-76 -102l-58 41l46 61h-52v77h106l65 85h-171v78h225l75 102l59 -41l-46 -61h52v-78h-106l-65 -85h171v-77z" />
    <glyph glyph-name="lessequal" unicode="&#x2264;" horiz-adv-x="381" 
d="M347 174l-313 183v61l313 182v-90l-216 -123l216 -123v-90zM347 -7l-313 182v87l313 -182v-87z" />
    <glyph glyph-name="greaterequal" unicode="&#x2265;" horiz-adv-x="381" 
d="M347 357l-313 -183v90l216 123l-216 123v90l313 -182v-61zM347 175l-313 -182v87l313 182v-87z" />
    <glyph glyph-name="dotmath" unicode="&#x22c5;" horiz-adv-x="0" 
d="M203 233h-141v141h141v-141z" />
    <glyph glyph-name="lozenge" unicode="&#x25ca;" horiz-adv-x="497" 
d="M448 334l-200 -280l-199 280l199 280zM360 334l-112 159l-112 -159l112 -160z" />
    <glyph glyph-name="parenleft.case" horiz-adv-x="244" 
d="M203 -39l-55 -55c-29 29 -56 57 -73 88c-19 34 -22 71 -22 108v508c0 37 3 74 22 108c18 33 44 59 73 88l55 -55c-21 -21 -41 -39 -54 -64c-10 -20 -15 -49 -15 -83v-496c0 -34 5 -63 15 -83c13 -25 33 -43 54 -64z" />
    <glyph glyph-name="parenright.case" horiz-adv-x="244" 
d="M191 102c0 -37 -3 -74 -22 -108c-17 -31 -44 -59 -73 -88l-55 55c21 21 41 39 54 64c10 20 15 49 15 83v496c0 34 -5 63 -15 83c-13 25 -33 43 -54 64l55 55c29 -29 55 -55 73 -88c19 -34 22 -71 22 -108v-508z" />
    <glyph glyph-name="hyphen.case" horiz-adv-x="298" 
d="M247 317h-196v77h196v-77z" />
    <glyph glyph-name="bracketleft.case" horiz-adv-x="259" 
d="M230 -74h-172v860h172v-71h-91v-718h91v-71z" />
    <glyph glyph-name="bracketright.case" horiz-adv-x="259" 
d="M201 -74h-172v71h91v718h-91v71h172v-860z" />
    <glyph glyph-name="braceleft.case" horiz-adv-x="311" 
d="M282 -74h-42c-34 0 -68 13 -90 35s-35 52 -35 100v192c0 42 -25 67 -58 67h-28v72h28c33 0 58 25 58 67v192c0 48 13 78 35 100s56 35 90 35h42v-73h-28c-33 0 -58 -24 -58 -66v-185c0 -42 -11 -69 -29 -87c-11 -11 -24 -15 -33 -19c10 -3 23 -8 33 -19
c18 -18 29 -45 29 -87v-185c0 -42 25 -66 58 -66h28v-73z" />
    <glyph glyph-name="braceright.case" horiz-adv-x="311" 
d="M282 320h-28c-33 0 -57 -25 -57 -67v-192c0 -48 -14 -78 -36 -100s-56 -35 -90 -35h-42v73h28c33 0 59 24 59 66v185c0 42 10 69 28 87c11 11 25 15 34 19c-10 3 -24 8 -34 19c-18 18 -28 45 -28 87v185c0 42 -26 66 -59 66h-28v73h42c34 0 68 -13 90 -35s36 -52 36 -100
v-192c0 -42 24 -67 57 -67h28v-72z" />
    <glyph glyph-name="guillemotleft.case" horiz-adv-x="392" 
d="M174 126l-148 230l148 229v-127l-68 -102l68 -103v-127zM341 126l-148 230l148 229v-127l-69 -102l69 -103v-127z" />
    <glyph glyph-name="uni00AD.case" horiz-adv-x="298" 
d="M247 317h-196v77h196v-77z" />
    <glyph glyph-name="guillemotright.case" horiz-adv-x="392" 
d="M366 356l-148 -230v127l68 103l-68 102v127zM199 356l-148 -230v127l69 103l-69 102v127z" />
    <glyph glyph-name="endash.case" horiz-adv-x="444" 
d="M398 317h-352v78h352v-78z" />
    <glyph glyph-name="emdash.case" horiz-adv-x="691" 
d="M640 317h-589v78h589v-78z" />
    <glyph glyph-name="guilsinglleft.case" horiz-adv-x="225" 
d="M175 126l-149 230l149 229v-127l-68 -102l68 -103v-127z" />
    <glyph glyph-name="guilsinglright.case" horiz-adv-x="225" 
d="M199 356l-148 -230v127l68 103l-68 102v127z" />
    <glyph glyph-name="grave.lc" 
d="M226 586h-62l-81 135h74z" />
    <glyph glyph-name="dieresis.lc" 
d="M306 601h-81v82h81v-82zM150 601h-82v82h82v-82z" />
    <glyph glyph-name="macron.lc" 
d="M302 608h-229v57h229v-57z" />
    <glyph glyph-name="acute.lc" 
d="M294 721l-81 -135h-61l68 135h74z" />
    <glyph glyph-name="circumflex.lc" 
d="M314 586h-67l-60 87l-59 -87h-67l93 135h67z" />
    <glyph glyph-name="caron.lc" 
d="M314 717l-93 -135h-67l-93 135h67l59 -87l60 87h67z" />
    <glyph glyph-name="breve.lc" 
d="M305 694c-5 -79 -51 -112 -118 -112c-66 0 -112 33 -117 112h58c5 -37 27 -53 59 -53c33 0 55 16 60 53h58z" />
    <glyph glyph-name="dotaccent.lc" 
d="M228 604h-81v82h81v-82z" />
    <glyph glyph-name="ring.lc" 
d="M285 681c0 -54 -44 -98 -98 -98c-53 0 -97 44 -97 98s44 98 97 98c54 0 98 -44 98 -98zM237 681c0 27 -23 49 -50 49c-26 0 -49 -22 -49 -49s23 -49 49 -49c27 0 50 22 50 49z" />
    <glyph glyph-name="tilde.lc" 
d="M321 638c-34 -33 -56 -42 -80 -42c-22 0 -38 6 -58 17c-15 9 -27 15 -43 15c-13 0 -23 -1 -45 -23l-36 38c33 33 54 42 79 42c23 0 38 -5 58 -17c15 -9 27 -15 43 -15c12 0 23 2 44 23z" />
    <glyph glyph-name="hungarumlaut.lc" 
d="M214 721l-68 -135h-59l53 135h74zM351 721l-68 -135h-58l52 135h74z" />
    <glyph glyph-name="diedot.lc" 
d="M151 601h-82v82h82v-82z" />
    <glyph glyph-name="zero.lf" horiz-adv-x="381" 
d="M333 140c0 -54 -15 -85 -40 -110c-25 -24 -63 -38 -102 -38c-40 0 -78 14 -103 38c-25 25 -40 56 -40 110v432c0 54 15 85 40 110c25 24 63 38 103 38c39 0 77 -14 102 -38c25 -25 40 -56 40 -110v-432zM252 137v438c0 49 -27 72 -61 72c-35 0 -62 -23 -62 -72v-438
c0 -49 27 -72 62 -72c34 0 61 23 61 72z" />
    <glyph glyph-name="one.lf" horiz-adv-x="285" 
d="M209 0h-81v617l-104 -85v94l104 86h81v-712z" />
    <glyph glyph-name="two.lf" horiz-adv-x="349" 
d="M319 0h-287v68l174 369c16 34 32 81 32 138c0 48 -27 72 -61 72c-35 0 -62 -23 -62 -72v-48h-81v46c0 52 15 84 40 109c25 24 64 38 103 38s75 -12 100 -36s42 -59 42 -113c0 -52 -18 -114 -40 -160l-160 -338h200v-73z" />
    <glyph glyph-name="three.lf" horiz-adv-x="356" 
d="M320 200c0 -87 -4 -130 -43 -170c-24 -24 -63 -38 -102 -38c-40 0 -78 13 -103 38c-26 24 -41 56 -41 110v45h81v-48c0 -48 28 -72 63 -72c18 0 33 8 43 19c17 21 21 58 21 120c0 70 -3 99 -20 121c-11 12 -26 19 -45 19h-38v70h38c17 0 30 5 40 15c16 19 19 51 19 102
s-3 81 -18 99c-10 11 -23 17 -40 17c-34 0 -58 -23 -58 -70v-50h-81v46c0 52 14 85 40 110c25 24 59 37 99 37c41 0 75 -13 98 -36c29 -29 42 -71 42 -148c0 -59 -4 -89 -19 -117c-9 -16 -23 -30 -40 -40c17 -11 31 -24 41 -39c19 -31 23 -61 23 -140z" />
    <glyph glyph-name="four.lf" horiz-adv-x="376" 
d="M347 117h-50v-117h-81v117h-193v73l182 522h78l-177 -522h110v163h81v-163h50v-73z" />
    <glyph glyph-name="five.lf" horiz-adv-x="374" 
d="M336 233c0 -103 -2 -157 -43 -200c-24 -26 -64 -41 -103 -41s-77 13 -102 37c-25 25 -41 57 -41 110v41h81v-48c0 -52 27 -75 62 -75c18 0 34 7 45 22c17 24 20 70 20 148s-3 118 -19 142c-11 16 -27 24 -46 24c-35 0 -62 -27 -62 -72v-24h-77v415h276v-73h-202v-221
c9 13 22 26 35 34c14 8 33 13 53 13c39 0 67 -14 89 -40c30 -37 34 -93 34 -192z" />
    <glyph glyph-name="six.lf" horiz-adv-x="365" 
d="M328 213c0 -101 -9 -140 -36 -173c-24 -33 -66 -48 -110 -48c-48 0 -87 18 -109 48c-29 38 -36 77 -36 173c0 72 10 129 29 179l120 320h83l-116 -297c15 11 33 17 51 17c36 0 66 -14 88 -41c26 -31 36 -64 36 -178zM247 214c0 62 -2 108 -21 131c-11 13 -26 19 -44 19
c-17 0 -33 -7 -44 -19c-19 -24 -20 -69 -20 -131s1 -107 20 -130c11 -13 27 -19 44 -19c18 0 34 6 44 19c19 23 21 68 21 130z" />
    <glyph glyph-name="seven.lf" horiz-adv-x="355" 
d="M332 645l-177 -645h-83l178 639h-139v-105h-79v178h300v-67z" />
    <glyph glyph-name="eight.lf" horiz-adv-x="368" 
d="M330 199c0 -88 -7 -130 -44 -168c-24 -25 -63 -39 -102 -39s-78 14 -102 39c-37 38 -44 80 -44 168c0 79 6 108 24 137c9 16 23 29 41 40c-17 11 -31 25 -40 41c-14 28 -20 57 -20 116c0 77 10 118 43 150c24 25 58 37 98 37c39 0 74 -12 98 -37c33 -32 43 -73 43 -150
c0 -59 -6 -88 -21 -116c-9 -16 -22 -30 -39 -41c18 -11 32 -24 41 -40c18 -29 24 -58 24 -137zM248 202c0 68 -2 99 -20 121c-12 13 -27 19 -44 19s-33 -6 -44 -19c-18 -22 -20 -53 -20 -121c0 -61 3 -97 20 -118c11 -13 27 -19 44 -19s33 6 44 19c17 21 20 57 20 118z
M243 530c0 49 -3 83 -19 101c-10 11 -24 16 -40 16s-30 -5 -40 -16c-16 -18 -19 -52 -19 -101c0 -50 2 -86 21 -105c10 -10 22 -14 38 -14c15 0 29 4 38 14c19 19 21 55 21 105z" />
    <glyph glyph-name="nine.lf" horiz-adv-x="365" 
d="M328 499c0 -72 -10 -129 -29 -179l-120 -320h-83l115 297c-14 -11 -32 -17 -51 -17c-35 0 -66 14 -87 41c-26 31 -36 64 -36 178c0 101 9 140 35 173c25 33 67 48 111 48c48 0 86 -18 109 -48c29 -38 36 -77 36 -173zM247 498c0 62 -2 107 -21 130c-10 13 -26 19 -44 19
c-17 0 -33 -6 -44 -19c-19 -23 -20 -68 -20 -130s1 -108 20 -131c12 -13 27 -19 44 -19c18 0 34 7 44 19c19 24 21 69 21 131z" />
    <glyph glyph-name="zero.osf" horiz-adv-x="369" 
d="M327 140c0 -54 -15 -85 -40 -110c-25 -24 -63 -38 -102 -38c-40 0 -78 14 -103 38c-25 25 -40 56 -40 110v314c0 54 15 85 40 110c25 24 63 38 103 38c39 0 77 -14 102 -38c25 -25 40 -56 40 -110v-314zM246 137v320c0 49 -27 72 -61 72c-35 0 -62 -23 -62 -72v-320
c0 -49 27 -72 62 -72c34 0 61 23 61 72z" />
    <glyph glyph-name="one.osf" horiz-adv-x="311" 
d="M228 0h-81v499l-104 -85v94l104 86h81v-594z" />
    <glyph glyph-name="two.osf" horiz-adv-x="366" 
d="M328 0h-293v68l170 259c33 48 36 77 36 130c0 48 -26 72 -61 72c-34 0 -61 -23 -61 -72v-43h-81v41c0 52 14 84 40 109c25 24 63 38 102 38c40 0 75 -12 100 -36c25 -23 42 -58 42 -112c0 -69 -14 -110 -52 -163l-143 -218h201v-73z" />
    <glyph glyph-name="three.osf" horiz-adv-x="366" 
d="M323 82c0 -87 -4 -130 -44 -170c-24 -24 -63 -38 -102 -38s-78 13 -103 38c-25 24 -40 56 -40 110v45h81v-48c0 -48 28 -72 62 -72c19 0 34 8 44 19c17 21 21 58 21 120c0 70 -3 99 -21 121c-11 12 -25 19 -44 19h-38v70h38c17 0 30 5 39 15c17 19 20 51 20 102
s-4 81 -18 99c-10 11 -23 17 -41 17c-33 0 -57 -23 -57 -70v-50h-81v46c0 52 14 85 39 110c25 24 60 37 99 37c42 0 75 -13 99 -36c29 -29 41 -71 41 -148c0 -59 -4 -89 -18 -117c-9 -16 -24 -30 -40 -40c17 -11 31 -24 40 -39c20 -31 24 -61 24 -140z" />
    <glyph glyph-name="four.osf" horiz-adv-x="390" 
d="M360 30h-55v-153h-82v153h-193v73l182 526h79l-178 -526h110v163h82v-163h55v-73z" />
    <glyph glyph-name="five.osf" horiz-adv-x="374" 
d="M334 115c0 -103 -2 -157 -43 -200c-24 -26 -64 -41 -103 -41s-77 13 -102 37c-25 25 -41 57 -41 110v41h81v-48c0 -52 27 -75 62 -75c18 0 34 7 45 22c17 24 20 70 20 148s-3 118 -19 142c-11 16 -27 24 -46 24c-35 0 -62 -27 -62 -72v-24h-77v415h276v-73h-202v-221
c9 13 22 26 35 34c14 8 33 13 53 13c39 0 67 -14 89 -40c30 -37 34 -93 34 -192z" />
    <glyph glyph-name="six.osf" horiz-adv-x="369" 
d="M330 213c0 -101 -9 -140 -36 -173c-24 -33 -66 -48 -110 -48c-48 0 -86 18 -109 48c-29 38 -36 77 -36 173c0 72 10 129 29 179l120 320h83l-115 -297c14 11 32 17 51 17c35 0 66 -14 87 -41c26 -31 36 -64 36 -178zM249 214c0 62 -1 108 -20 131c-12 13 -27 19 -44 19
c-18 0 -34 -6 -45 -19c-18 -24 -20 -69 -20 -131s2 -107 20 -130c11 -13 27 -19 45 -19c17 0 33 6 44 19c19 23 20 68 20 130z" />
    <glyph glyph-name="seven.osf" horiz-adv-x="364" 
d="M334 527l-190 -645h-81l189 639h-139v-105h-79v178h300v-67z" />
    <glyph glyph-name="eight.osf" 
d="M333 199c0 -88 -6 -130 -43 -168c-25 -25 -64 -39 -103 -39s-78 14 -102 39c-37 38 -43 80 -43 168c0 79 5 108 23 137c10 16 24 29 41 40c-17 11 -30 25 -39 41c-15 28 -20 57 -20 116c0 77 10 118 42 150c24 25 59 37 98 37s74 -12 99 -37c32 -32 42 -73 42 -150
c0 -59 -5 -88 -20 -116c-9 -16 -23 -30 -39 -41c17 -11 31 -24 40 -40c19 -29 24 -58 24 -137zM252 202c0 68 -2 99 -21 121c-11 12 -26 19 -44 19c-17 0 -32 -7 -43 -19c-19 -22 -21 -53 -21 -121c0 -61 3 -97 21 -118c10 -13 26 -19 43 -19c18 0 34 6 44 19
c17 21 21 57 21 118zM247 530c0 49 -4 83 -20 101c-10 11 -24 16 -40 16s-30 -5 -40 -16c-15 -18 -19 -52 -19 -101c0 -50 2 -86 21 -105c9 -10 23 -14 38 -14c16 0 29 4 38 14c19 19 22 55 22 105z" />
    <glyph glyph-name="nine.osf" horiz-adv-x="369" 
d="M330 381c0 -72 -10 -129 -29 -179l-120 -320h-83l116 297c-15 -11 -33 -17 -51 -17c-36 0 -66 14 -88 41c-26 31 -36 64 -36 178c0 101 9 140 36 173c24 33 66 48 110 48c48 0 86 -18 109 -48c29 -38 36 -77 36 -173zM249 380c0 62 -1 107 -20 130c-11 13 -27 19 -44 19
c-18 0 -34 -6 -45 -19c-18 -23 -20 -68 -20 -130s2 -108 20 -131c12 -13 27 -19 45 -19c17 0 33 6 44 19c19 24 20 69 20 131z" />
    <glyph glyph-name="exclam.ss01" horiz-adv-x="242" 
d="M174 193h-81v519h81v-519zM191 54c0 -32 -26 -58 -57 -58c-32 0 -58 26 -58 58c0 31 26 57 58 57c31 0 57 -26 57 -57z" />
    <glyph glyph-name="period.ss01" horiz-adv-x="217" 
d="M166 54c0 -32 -26 -57 -58 -57c-31 0 -57 25 -57 57s26 58 57 58c32 0 58 -26 58 -58z" />
    <glyph glyph-name="colon.ss01" horiz-adv-x="242" 
d="M191 362c0 -32 -26 -58 -57 -58c-32 0 -58 26 -58 58c0 31 26 57 58 57c31 0 57 -26 57 -57zM191 54c0 -32 -26 -58 -57 -58c-32 0 -58 26 -58 58c0 31 26 57 58 57c31 0 57 -26 57 -57z" />
    <glyph glyph-name="semicolon.ss01" horiz-adv-x="242" 
d="M180 -56l-92 -69v226h92v-157zM191 362c0 -32 -26 -58 -57 -58c-32 0 -58 26 -58 58c0 31 26 57 58 57c31 0 57 -26 57 -57z" />
    <glyph glyph-name="question.ss01" horiz-adv-x="400" 
d="M362 535c0 -51 -7 -84 -31 -119l-59 -85c-15 -22 -22 -45 -22 -70v-68h-81v78c0 31 12 60 28 84l58 85c22 32 26 57 26 97c0 44 -6 69 -23 88c-12 13 -28 20 -50 20c-21 0 -36 -7 -48 -19c-20 -21 -22 -53 -22 -82h-81c0 55 11 101 43 132c26 25 61 42 108 42
s83 -14 110 -41c31 -31 44 -70 44 -142zM267 53c0 -32 -25 -57 -57 -57s-58 25 -58 57s26 58 58 58s57 -26 57 -58z" />
    <glyph glyph-name="at.ss01" horiz-adv-x="775" 
d="M721 360c-2 -163 -97 -322 -258 -322h-60l10 48c-26 -33 -55 -54 -88 -54c-72 0 -96 61 -93 138c1 26 5 64 11 90c18 92 43 153 71 184c28 32 58 42 87 42c40 0 66 -24 77 -54l10 49h79l-76 -383c95 5 164 124 165 262c1 166 -86 276 -218 276
c-170 0 -303 -200 -305 -417c-2 -211 102 -343 268 -343h50l-12 -59h-50c-199 0 -327 164 -324 405c3 253 165 474 375 474c170 0 283 -137 281 -336zM453 331c4 60 -15 82 -39 82c-16 0 -31 -6 -46 -27c-17 -24 -32 -73 -43 -126c-7 -32 -10 -58 -11 -77
c-4 -59 16 -78 38 -78c18 0 34 10 47 29c18 26 29 54 43 126c5 25 9 50 11 71z" />
    <glyph glyph-name="i.ss01" horiz-adv-x="195" 
d="M138 0h-81v518h81v-518zM152 660c0 -30 -25 -54 -54 -54c-30 0 -54 24 -54 54s24 54 54 54c29 0 54 -24 54 -54z" />
    <glyph glyph-name="j.ss01" horiz-adv-x="195" 
d="M138 -46c0 -57 -18 -92 -46 -115c-31 -27 -69 -33 -113 -33v73c50 0 78 20 78 78v561h81v-564zM152 660c0 -30 -25 -54 -54 -54c-30 0 -54 24 -54 54s24 54 54 54c29 0 54 -24 54 -54z" />
    <glyph glyph-name="exclamdown.ss01" horiz-adv-x="242" 
d="M149 -194h-81v519h81v-519zM166 465c0 -32 -26 -58 -58 -58c-31 0 -57 26 -57 58c0 31 26 57 57 57c32 0 58 -26 58 -57z" />
    <glyph glyph-name="dieresis.ss01" horiz-adv-x="377" 
d="M312 642c0 -26 -21 -47 -47 -47c-25 0 -46 21 -46 47c0 25 21 46 46 46c26 0 47 -21 47 -46zM158 642c0 -26 -21 -47 -47 -47c-25 0 -46 21 -46 47c0 25 21 46 46 46c26 0 47 -21 47 -46z" />
    <glyph glyph-name="periodcentered.ss01" horiz-adv-x="258" 
d="M200 303c0 -38 -32 -71 -71 -71s-71 33 -71 71c0 39 32 72 71 72s71 -33 71 -72z" />
    <glyph glyph-name="cedilla.ss01" 
d="M237 -123c0 -53 -39 -93 -100 -93v50c26 0 44 19 44 43s-18 43 -44 43v49c61 0 100 -40 100 -92z" />
    <glyph glyph-name="questiondown.ss01" horiz-adv-x="400" 
d="M344 -26c0 -55 -11 -101 -43 -132c-26 -25 -62 -42 -109 -42s-83 14 -110 41c-31 31 -44 70 -44 142c0 51 7 84 31 119l59 85c15 22 22 45 22 70v68h81v-78c0 -31 -12 -60 -28 -84l-58 -85c-22 -32 -26 -57 -26 -97c0 -44 7 -69 24 -88c12 -13 27 -20 49 -20
c21 0 36 7 48 19c20 21 23 53 23 82h81zM248 465c0 -32 -25 -58 -57 -58s-58 26 -58 58s26 57 58 57s57 -25 57 -57z" />
    <glyph glyph-name="Adieresis.ss01" horiz-adv-x="424" 
d="M419 0h-91l-34 168h-165l-34 -168h-90l166 712h83zM278 245l-66 328l-67 -328h133zM183 817c0 -25 -20 -46 -46 -46s-46 21 -46 46c0 26 20 46 46 46s46 -20 46 -46zM337 817c0 -25 -20 -46 -46 -46s-46 21 -46 46c0 26 20 46 46 46s46 -20 46 -46z" />
    <glyph glyph-name="Ccedilla.ss01" horiz-adv-x="423" 
d="M386 176c-1 -60 -20 -113 -55 -145c-28 -26 -62 -39 -110 -39c-57 0 -95 21 -122 51c-49 54 -52 135 -52 313s3 259 52 313c27 30 65 51 122 51c49 0 85 -15 113 -42c33 -32 50 -83 51 -142h-86c0 31 -6 62 -22 82c-12 15 -29 25 -56 25c-28 0 -46 -11 -58 -27
c-25 -34 -30 -91 -30 -260s5 -226 30 -260c12 -16 30 -27 58 -27c27 0 44 11 56 26c16 20 23 50 23 81h86zM269 -123c0 -53 -39 -93 -100 -93v50c26 0 44 19 44 43s-18 43 -44 43v49c61 0 100 -40 100 -92z" />
    <glyph glyph-name="Edieresis.ss01" horiz-adv-x="380" 
d="M339 0h-275v712h275v-77h-189v-239h163v-77h-163v-242h189v-77zM174 817c0 -25 -20 -46 -46 -46s-46 21 -46 46c0 26 20 46 46 46s46 -20 46 -46zM328 817c0 -25 -20 -46 -46 -46s-46 21 -46 46c0 26 20 46 46 46s46 -20 46 -46z" />
    <glyph glyph-name="Idieresis.ss01" horiz-adv-x="215" 
d="M150 0h-86v712h86v-712zM77 817c0 -25 -20 -46 -46 -46s-46 21 -46 46c0 26 20 46 46 46s46 -20 46 -46zM231 817c0 -25 -20 -46 -46 -46s-46 21 -46 46c0 26 20 46 46 46s46 -20 46 -46z" />
    <glyph glyph-name="Odieresis.ss01" horiz-adv-x="442" 
d="M395 356c0 -178 -2 -259 -51 -313c-27 -30 -66 -51 -123 -51s-95 21 -122 51c-49 54 -52 135 -52 313s3 259 52 313c27 30 65 51 122 51s96 -21 123 -51c49 -54 51 -135 51 -313zM309 356c0 169 -5 226 -30 260c-12 16 -30 27 -58 27s-46 -11 -58 -27
c-25 -34 -30 -91 -30 -260s5 -226 30 -260c12 -16 30 -27 58 -27s46 11 58 27c25 34 30 91 30 260zM190 817c0 -25 -20 -46 -46 -46s-46 21 -46 46c0 26 20 46 46 46s46 -20 46 -46zM344 817c0 -25 -20 -46 -46 -46s-46 21 -46 46c0 26 20 46 46 46s46 -20 46 -46z" />
    <glyph glyph-name="Udieresis.ss01" horiz-adv-x="445" 
d="M387 162c0 -52 -17 -94 -46 -123c-31 -31 -73 -47 -119 -47s-87 16 -118 47c-29 29 -46 71 -46 123v550h86v-555c0 -56 35 -88 78 -88s79 32 79 88v555h86v-550zM191 817c0 -25 -20 -46 -46 -46s-46 21 -46 46c0 26 20 46 46 46s46 -20 46 -46zM345 817
c0 -25 -20 -46 -46 -46s-46 21 -46 46c0 26 20 46 46 46s46 -20 46 -46z" />
    <glyph glyph-name="adieresis.ss01" 
d="M322 0h-77v46c-8 -14 -20 -27 -30 -35c-16 -12 -33 -19 -61 -19c-38 0 -65 12 -89 39c-20 23 -33 62 -33 116c0 48 16 90 46 117c26 23 56 35 110 35h53v82c0 48 -21 74 -61 74c-18 0 -30 -7 -40 -17c-14 -15 -19 -32 -19 -60h-81c0 40 9 79 40 110c23 23 60 38 100 38
c42 0 77 -12 101 -36c25 -26 41 -61 41 -114v-376zM241 144v96h-46c-25 0 -42 -4 -58 -19c-15 -14 -24 -43 -24 -71c0 -54 21 -87 63 -87c39 0 65 33 65 81zM307 642c0 -26 -21 -47 -47 -47c-25 0 -46 21 -46 47c0 25 21 46 46 46c26 0 47 -21 47 -46zM153 642
c0 -26 -21 -47 -46 -47c-26 0 -47 21 -47 47c0 25 21 46 47 46c25 0 46 -21 46 -46z" />
    <glyph glyph-name="ccedilla.ss01" horiz-adv-x="362" 
d="M329 144c-1 -49 -13 -89 -40 -116c-24 -25 -60 -36 -102 -36c-44 0 -83 13 -109 48c-32 41 -38 114 -38 219s6 178 38 219c26 35 65 48 109 48c42 0 75 -8 101 -34c31 -31 40 -75 41 -118h-80c0 21 -2 43 -16 60c-11 13 -25 20 -45 20c-19 0 -36 -8 -46 -22
c-19 -26 -21 -80 -21 -173s2 -146 21 -172c10 -14 27 -22 46 -22s33 7 44 19c14 16 17 36 17 60h80zM237 -123c0 -53 -39 -93 -100 -93v50c26 0 44 19 44 43s-18 43 -44 43v49c61 0 100 -40 100 -92z" />
    <glyph glyph-name="edieresis.ss01" horiz-adv-x="372" 
d="M334 240h-213c0 -82 4 -130 22 -153c10 -12 24 -22 45 -22c19 0 34 7 46 20c11 13 18 35 18 59h80c-1 -46 -13 -84 -41 -114c-25 -27 -62 -38 -103 -38c-45 0 -75 12 -102 40c-40 41 -46 118 -46 227s5 186 45 227c27 28 61 40 102 40c42 0 75 -11 102 -40
c43 -47 45 -135 45 -246zM253 301c0 70 -4 112 -20 131c-10 12 -25 22 -46 22s-35 -10 -45 -22c-16 -19 -21 -61 -21 -131h132zM311 642c0 -26 -21 -47 -47 -47c-25 0 -46 21 -46 47c0 25 21 46 46 46c26 0 47 -21 47 -46zM157 642c0 -26 -21 -47 -46 -47
c-26 0 -47 21 -47 47c0 25 21 46 47 46c25 0 46 -21 46 -46z" />
    <glyph glyph-name="idieresis.ss01" horiz-adv-x="195" 
d="M138 0h-81v518h81v-518zM221 642c0 -26 -21 -47 -46 -47c-26 0 -47 21 -47 47c0 25 21 46 47 46c25 0 46 -21 46 -46zM67 642c0 -26 -21 -47 -46 -47c-26 0 -47 21 -47 47c0 25 21 46 47 46c25 0 46 -21 46 -46z" />
    <glyph glyph-name="odieresis.ss01" 
d="M334 259c0 -105 -5 -178 -37 -219c-26 -35 -64 -48 -110 -48s-83 13 -109 48c-32 41 -38 114 -38 219s6 178 38 219c26 35 63 48 109 48s84 -13 110 -48c32 -41 37 -114 37 -219zM253 259c0 93 -1 147 -20 173c-10 14 -27 22 -46 22s-35 -8 -45 -22
c-19 -26 -21 -80 -21 -173s2 -146 21 -172c10 -14 26 -22 45 -22s36 8 46 22c19 26 20 79 20 172zM311 642c0 -26 -21 -47 -47 -47c-25 0 -46 21 -46 47c0 25 21 46 46 46c26 0 47 -21 47 -46zM157 642c0 -26 -21 -47 -46 -47c-26 0 -47 21 -47 47c0 25 21 46 47 46
c25 0 46 -21 46 -46z" />
    <glyph glyph-name="divide.ss01" horiz-adv-x="445" 
d="M398 238h-352v78h352v-78zM280 112c0 -32 -27 -58 -58 -58s-57 26 -57 58c0 31 26 57 57 57s58 -26 58 -57zM280 442c0 -31 -27 -57 -58 -57s-57 26 -57 57c0 32 26 58 57 58s58 -26 58 -58z" />
    <glyph glyph-name="udieresis.ss01" horiz-adv-x="395" 
d="M338 0h-78v40c-7 -12 -21 -25 -32 -32c-16 -10 -35 -16 -56 -16c-39 0 -66 13 -88 38c-21 23 -31 51 -31 107v381h81v-381c0 -48 28 -72 62 -72s61 24 61 72v381h81v-518zM318 642c0 -26 -21 -47 -47 -47c-25 0 -46 21 -46 47c0 25 21 46 46 46c26 0 47 -21 47 -46z
M164 642c0 -26 -21 -47 -46 -47c-26 0 -47 21 -47 47c0 25 21 46 47 46c25 0 46 -21 46 -46z" />
    <glyph glyph-name="ydieresis.ss01" horiz-adv-x="345" 
d="M339 518l-146 -601c-22 -93 -86 -111 -172 -111v72c50 0 81 13 93 60l16 63l-126 517h89l79 -389l78 389h89zM299 642c0 -26 -21 -47 -47 -47c-25 0 -46 21 -46 47c0 25 21 46 46 46c26 0 47 -21 47 -46zM145 642c0 -26 -21 -47 -46 -47c-26 0 -47 21 -47 47
c0 25 21 46 47 46c25 0 46 -21 46 -46z" />
    <glyph glyph-name="Ydieresis.ss01" horiz-adv-x="353" 
d="M351 712l-132 -424v-288h-86v288l-131 424h94l80 -304l80 304h95zM146 817c0 -25 -20 -46 -46 -46s-46 21 -46 46c0 26 20 46 46 46s46 -20 46 -46zM300 817c0 -25 -20 -46 -46 -46s-46 21 -46 46c0 26 20 46 46 46s46 -20 46 -46z" />
    <glyph glyph-name="dotaccent.ss01" horiz-adv-x="377" 
d="M235 642c0 -26 -21 -47 -47 -47c-25 0 -46 21 -46 47c0 25 21 46 46 46c26 0 47 -21 47 -46z" />
    <glyph glyph-name="ogonek.ss01" 
d="M228 -216c-61 0 -100 40 -100 93c0 52 39 92 100 92v-49c-26 0 -45 -19 -45 -43s19 -43 45 -43v-50z" />
    <glyph glyph-name="ellipsis.ss01" horiz-adv-x="609" 
d="M558 54c0 -32 -26 -58 -57 -58c-32 0 -58 26 -58 58c0 31 26 57 58 57c31 0 57 -26 57 -57zM166 54c0 -32 -26 -58 -58 -58c-31 0 -57 26 -57 58c0 31 26 57 57 57c32 0 58 -26 58 -57zM362 54c0 -32 -26 -58 -57 -58c-32 0 -58 26 -58 58c0 31 26 57 58 57
c31 0 57 -26 57 -57z" />
    <glyph glyph-name="uni2219.ss01" horiz-adv-x="258" 
d="M200 303c0 -38 -32 -71 -71 -71s-71 33 -71 71c0 39 32 72 71 72s71 -33 71 -72z" />
    <glyph glyph-name="uni2224.ss01" horiz-adv-x="258" 
d="M200 303c0 -38 -32 -71 -71 -71s-71 33 -71 71c0 39 32 72 71 72s71 -33 71 -72z" />
    <glyph glyph-name="logicaland.ss01" horiz-adv-x="258" 
d="M200 303c0 -38 -32 -71 -71 -71s-71 33 -71 71c0 39 32 72 71 72s71 -33 71 -72z" />
    <glyph glyph-name="dotmath.ss01" horiz-adv-x="258" 
d="M200 303c0 -38 -32 -71 -71 -71s-71 33 -71 71c0 39 32 72 71 72s71 -33 71 -72z" />
    <glyph glyph-name="fi.ss01" horiz-adv-x="431" 
d="M237 456h-80v-456h-81v456h-59v62h59v50c0 54 16 91 45 115c32 27 72 33 116 33v-73c-54 0 -80 -23 -80 -78v-47h80v-62zM374 0h-81v518h81v-518zM387 660c0 -30 -23 -54 -53 -54s-54 24 -54 54s24 54 54 54s53 -24 53 -54z" />
    <glyph glyph-name="diedotlc.ss01" horiz-adv-x="377" 
d="M234 642c0 -26 -21 -47 -47 -47c-25 0 -46 21 -46 47c0 25 21 46 46 46c26 0 47 -21 47 -46z" />
    <glyph glyph-name="diedotuc.ss01" horiz-adv-x="377" 
d="M267 814c0 -25 -20 -46 -46 -46s-46 21 -46 46c0 26 20 47 46 47s46 -21 46 -47z" />
    <glyph glyph-name="dieresislc.ss01" 
d="M311 642c0 -26 -21 -47 -47 -47c-25 0 -46 21 -46 47c0 25 21 46 46 46c26 0 47 -21 47 -46zM157 642c0 -26 -21 -47 -46 -47c-26 0 -47 21 -47 47c0 25 21 46 47 46c25 0 46 -21 46 -46z" />
    <glyph glyph-name="dieresisuc.ss01" horiz-adv-x="442" 
d="M190 817c0 -25 -20 -46 -46 -46s-46 21 -46 46c0 26 20 46 46 46s46 -20 46 -46zM344 817c0 -25 -20 -46 -46 -46s-46 21 -46 46c0 26 20 46 46 46s46 -20 46 -46z" />
    <glyph glyph-name="dotaccentlc.ss01" 
d="M234 642c0 -26 -21 -47 -47 -47c-25 0 -46 21 -46 47c0 25 21 46 46 46c26 0 47 -21 47 -46z" />
    <glyph glyph-name="dotaccentuc.ss01" horiz-adv-x="442" 
d="M267 814c0 -25 -20 -46 -46 -46s-46 21 -46 46c0 26 20 47 46 47s46 -21 46 -47z" />
    <glyph glyph-name="zero.tosf" horiz-adv-x="381" 
d="M333 140c0 -54 -15 -85 -40 -110c-25 -24 -63 -38 -102 -38c-40 0 -78 14 -103 38c-25 25 -40 56 -40 110v314c0 54 15 85 40 110c25 24 63 38 103 38c39 0 77 -14 102 -38c25 -25 40 -56 40 -110v-314zM252 137v320c0 49 -27 72 -61 72c-35 0 -62 -23 -62 -72v-320
c0 -49 27 -72 62 -72c34 0 61 23 61 72z" />
    <glyph glyph-name="one.tosf" horiz-adv-x="381" 
d="M253 0h-81v501c-34 -29 -70 -58 -104 -87v93c34 29 70 58 104 87h81v-594z" />
    <glyph glyph-name="two.tosf" horiz-adv-x="381" 
d="M335 0h-293v68l170 259c33 48 37 77 37 130c0 48 -27 72 -61 72c-35 0 -62 -23 -62 -72v-43h-81v41c0 52 15 84 40 109c25 24 64 38 103 38s75 -12 100 -36c25 -23 42 -58 42 -112c0 -69 -14 -110 -53 -163l-142 -218h200v-73z" />
    <glyph glyph-name="three.tosf" horiz-adv-x="381" 
d="M328 82c0 -87 -4 -130 -43 -170c-25 -24 -63 -38 -103 -38c-39 0 -77 13 -102 38c-26 24 -41 56 -41 110v45h81v-48c0 -48 28 -72 62 -72c19 0 34 8 44 19c17 21 21 58 21 120c0 70 -3 99 -21 121c-10 12 -25 19 -44 19h-38v70h38c17 0 30 5 39 15c17 19 20 51 20 102
s-3 81 -18 99c-10 11 -23 17 -41 17c-33 0 -57 -23 -57 -70v-50h-81v46c0 52 14 85 40 110c24 24 59 37 98 37c42 0 76 -13 99 -36c29 -29 41 -71 41 -148c0 -59 -3 -89 -18 -117c-9 -16 -23 -30 -40 -40c17 -11 31 -24 41 -39c19 -31 23 -61 23 -140z" />
    <glyph glyph-name="four.tosf" horiz-adv-x="381" 
d="M354 30h-55v-153h-81v153h-193v73l182 526h79l-178 -526h110v163h81v-163h55v-73z" />
    <glyph glyph-name="five.tosf" horiz-adv-x="381" 
d="M337 115c0 -103 -3 -157 -44 -200c-24 -26 -63 -41 -102 -41s-77 13 -102 37c-25 25 -41 57 -41 110v41h81v-48c0 -52 27 -75 62 -75c18 0 34 7 45 22c17 24 20 70 20 148s-3 118 -19 142c-11 16 -28 24 -46 24c-35 0 -62 -27 -62 -72v-24h-77v415h276v-73h-202v-221
c9 13 22 26 35 34c14 8 33 13 53 13c39 0 66 -14 88 -40c30 -37 35 -93 35 -192z" />
    <glyph glyph-name="six.tosf" horiz-adv-x="381" 
d="M336 213c0 -101 -9 -140 -36 -173c-24 -33 -66 -48 -110 -48c-48 0 -86 18 -109 48c-29 38 -36 77 -36 173c0 72 10 129 29 179l120 320h83l-115 -297c14 11 32 17 51 17c35 0 66 -14 87 -41c26 -31 36 -64 36 -178zM255 214c0 62 -1 108 -20 131c-12 13 -27 19 -44 19
c-18 0 -34 -6 -45 -19c-18 -24 -20 -69 -20 -131s2 -107 20 -130c11 -13 27 -19 45 -19c17 0 33 6 44 19c19 23 20 68 20 130z" />
    <glyph glyph-name="seven.tosf" horiz-adv-x="381" 
d="M345 527l-190 -645h-80l188 639h-144v-105h-79v178h305v-67z" />
    <glyph glyph-name="eight.tosf" horiz-adv-x="381" 
d="M336 199c0 -88 -6 -130 -43 -168c-24 -25 -63 -39 -102 -39c-40 0 -78 14 -103 39c-37 38 -43 80 -43 168c0 79 5 108 23 137c10 16 24 29 41 40c-16 11 -30 25 -39 41c-15 28 -20 57 -20 116c0 77 10 118 42 150c25 25 59 37 98 37s75 -12 99 -37c32 -32 42 -73 42 -150
c0 -59 -5 -88 -20 -116c-9 -16 -23 -30 -39 -41c17 -11 31 -24 41 -40c18 -29 23 -58 23 -137zM255 202c0 68 -2 99 -21 121c-11 12 -26 19 -43 19c-18 0 -33 -7 -44 -19c-19 -22 -21 -53 -21 -121c0 -61 4 -97 21 -118c10 -13 26 -19 44 -19c17 0 33 6 43 19
c17 21 21 57 21 118zM250 530c0 49 -3 83 -19 101c-11 11 -24 16 -40 16s-30 -5 -41 -16c-15 -18 -19 -52 -19 -101c0 -50 2 -86 21 -105c10 -10 23 -14 39 -14c15 0 28 4 38 14c18 19 21 55 21 105z" />
    <glyph glyph-name="nine.tosf" horiz-adv-x="381" 
d="M336 381c0 -72 -10 -129 -29 -179l-120 -320h-83l116 297c-15 -11 -33 -17 -51 -17c-36 0 -66 14 -88 41c-26 31 -36 64 -36 178c0 101 9 140 36 173c24 33 66 48 110 48c48 0 86 -18 109 -48c29 -38 36 -77 36 -173zM255 380c0 62 -1 107 -20 130c-11 13 -27 19 -44 19
c-18 0 -34 -6 -45 -19c-18 -23 -20 -68 -20 -130s2 -108 20 -131c12 -13 27 -19 45 -19c17 0 33 6 44 19c19 24 20 69 20 131z" />
    <glyph glyph-name="grave.uc" horiz-adv-x="442" 
d="M258 762h-62l-81 135h74z" />
    <glyph glyph-name="dieresis.uc" horiz-adv-x="442" 
d="M340 777h-82v81h82v-81zM184 777h-82v81h82v-81z" />
    <glyph glyph-name="macron.uc" horiz-adv-x="442" 
d="M335 780h-228v58h228v-58z" />
    <glyph glyph-name="acute.uc" horiz-adv-x="442" 
d="M327 897l-81 -135h-62l69 135h74z" />
    <glyph glyph-name="circumflex.uc" horiz-adv-x="442" 
d="M347 762h-66l-60 87l-60 -87h-66l93 135h66z" />
    <glyph glyph-name="caron.uc" horiz-adv-x="442" 
d="M347 892l-93 -134h-66l-93 134h66l60 -87l60 87h66z" />
    <glyph glyph-name="breve.uc" horiz-adv-x="442" 
d="M339 866c-5 -78 -52 -111 -118 -111s-113 33 -118 111h59c4 -36 27 -52 59 -52s55 16 59 52h59z" />
    <glyph glyph-name="dotaccent.uc" horiz-adv-x="442" 
d="M262 777h-82v81h82v-81z" />
    <glyph glyph-name="ring.uc" horiz-adv-x="442" 
d="M319 850c0 -54 -44 -98 -98 -98s-98 44 -98 98s44 98 98 98s98 -44 98 -98zM270 850c0 27 -22 49 -49 49s-49 -22 -49 -49s22 -49 49 -49s49 22 49 49z" />
    <glyph glyph-name="tilde.uc" horiz-adv-x="442" 
d="M354 814c-34 -34 -56 -42 -80 -42c-22 0 -38 5 -58 17c-15 8 -27 15 -43 15c-13 0 -23 -2 -45 -23l-36 37c33 34 54 43 79 43c23 0 38 -5 58 -18c15 -9 27 -15 43 -15c12 0 23 2 44 23z" />
    <glyph glyph-name="hungarumlaut.uc" horiz-adv-x="442" 
d="M248 897l-68 -135h-59l53 135h74zM385 897l-68 -135h-58l52 135h74z" />
    <glyph glyph-name="diedot.uc" horiz-adv-x="442" 
d="M228 777h-82v81h82v-81z" />
    <glyph glyph-name="Tcedilla" horiz-adv-x="367" 
d="M346 635h-119v-635h-86v635h-120v77h325v-77zM240 -38l-50 -144h-64l57 144h57z" />
    <glyph glyph-name="caroncomma" horiz-adv-x="500" 
d="M462 730l-34 -144h-55l23 144h66z" />
    <glyph glyph-name="commaaccent" 
d="M226 -38l-50 -144h-64l57 144h57z" />
    <glyph glyph-name="commaturn" horiz-adv-x="300" 
d="M161 586l49 144h65l-57 -144h-57z" />
    <glyph glyph-name="tcedilla" horiz-adv-x="260" 
d="M240 0c-46 0 -86 4 -119 32c-29 24 -45 62 -45 116v307h-59v63h59v142h81v-142h80v-63h-80v-304c0 -55 29 -78 83 -78v-73zM187 -38l-50 -144h-64l57 144h57z" />
    <glyph glyph-name="commaaccent.ss01" 
d="M237 -123c0 -53 -39 -93 -100 -93v50c26 0 44 19 44 43s-18 43 -44 43v49c61 0 100 -40 100 -92z" />
    <glyph glyph-name="commaturn.ss01" 
d="M239 567c-61 0 -100 40 -100 93c0 52 39 92 100 92v-49c-26 0 -44 -20 -44 -43c0 -24 18 -44 44 -44v-49z" />
    <glyph glyph-name="caroncomma.ss01" horiz-adv-x="500" 
d="M454 611l-66 -49v173h66v-124z" />
    <glyph glyph-name="Tcedilla.ss01" horiz-adv-x="367" 
d="M346 635h-119v-635h-86v635h-120v77h325v-77zM236 -123c0 -53 -39 -93 -100 -93v50c26 0 44 19 44 43s-18 43 -44 43v49c61 0 100 -40 100 -92z" />
    <glyph glyph-name="tcedilla.ss01" horiz-adv-x="260" 
d="M240 0c-46 0 -86 4 -119 32c-29 24 -45 62 -45 116v307h-59v63h59v142h81v-142h80v-63h-80v-304c0 -55 29 -78 83 -78v-73zM205 -123c0 -53 -39 -93 -100 -93v50c26 0 44 19 44 43s-18 43 -44 43v49c61 0 100 -40 100 -92z" />
    </font>
</defs>
</svg>
