<?xml version="1.0" standalone="no"?>
<!DOCTYPE svg PUBLIC "-//W3C//DTD SVG 1.1//EN" "http://www.w3.org/Graphics/SVG/1.1/DTD/svg11.dtd" >
<svg>
<metadata>
Created by FontForge 20110222 at Mon Sep 26 10:32:14 2011
 By System Administrator
Copyright (c) 2005 by Frantisek Storm, www.stormtype.com. All rights reserved.
</metadata>
<defs>
<font id="EtelkaMediumPro" horiz-adv-x="588" >
  <font-face 
    font-family="Etelka Medium Pro"
    font-weight="400"
    font-stretch="normal"
    units-per-em="1000"
    panose-1="2 0 5 3 8 0 0 2 0 4"
    ascent="800"
    descent="-200"
    x-height="509"
    cap-height="697"
    bbox="-156 -314 1343 890"
    underline-thickness="50"
    underline-position="-100"
    unicode-range="U+0020-FB04"
  />
<missing-glyph horiz-adv-x="530" 
d="M85 152l132 197l-132 196v-393zM397 82l-132 197l-132 -197h264zM445 152v393l-132 -196zM397 615h-264l132 -196zM0 697h530v-697h-530v697z" />
    <glyph glyph-name=".notdef" horiz-adv-x="530" 
d="M85 152l132 197l-132 196v-393zM397 82l-132 197l-132 -197h264zM445 152v393l-132 -196zM397 615h-264l132 -196zM0 697h530v-697h-530v697z" />
    <glyph glyph-name=".null" horiz-adv-x="0" 
 />
    <glyph glyph-name="nonmarkingreturn" horiz-adv-x="266" 
 />
    <glyph glyph-name="space" unicode=" " horiz-adv-x="266" 
 />
    <glyph glyph-name="C" unicode="C" horiz-adv-x="592" 
d="M53 355q0 107 20 176.5t60.5 110t102 56.5t144.5 16q24 0 50.5 -2t53 -5.5t51.5 -8t45 -10.5l-29 -116q-14 5 -32 9t-38 7t-40 4.5t-38 1.5q-57 0 -97 -7.5t-64.5 -32.5t-36 -72.5t-11.5 -127.5t11.5 -129t36 -75t64.5 -34.5t97 -8.5q18 0 38 1.5t40 4.5t38 7t32 9
l29 -118q-20 -6 -45 -10.5t-51.5 -7.5t-53 -5t-50.5 -2q-83 0 -144.5 17.5t-102 60.5t-60.5 113.5t-20 177.5z" />
    <glyph glyph-name="D" unicode="D" horiz-adv-x="736" 
d="M542 350q0 77 -10 123t-33 70.5t-61.5 32t-96.5 7.5h-121v-469h121q58 0 96.5 9t61.5 35t33 72t10 120zM354 697q83 0 144.5 -16t102.5 -55.5t61.5 -106t20.5 -168.5q0 -101 -20.5 -168.5t-61.5 -108t-102.5 -57.5t-144.5 -17h-266v697h266z" />
    <glyph glyph-name="E" unicode="E" horiz-adv-x="620" 
d="M594 697v-114h-374v-161h267v-113h-267v-195h374v-114h-506v697h506z" />
    <glyph glyph-name="F" unicode="F" horiz-adv-x="584" 
d="M584 697v-114h-364v-197h267v-113h-267v-273h-132v697h496z" />
    <glyph glyph-name="G" unicode="G" horiz-adv-x="700" 
d="M493 296h-152v111h287v-391q-21 -7 -51 -12.5t-64 -9.5t-68.5 -6t-64.5 -2q-83 0 -144.5 17.5t-102 60.5t-60.5 113.5t-20 177.5t22 176.5t65.5 110t108.5 56.5t150 16q24 0 52 -2t56.5 -5.5t55 -8t46.5 -10.5l-27 -115q-14 5 -36 9t-46.5 6.5t-48.5 4t-42 1.5
q-59 0 -100 -7.5t-66.5 -32.5t-37 -72.5t-11.5 -127.5t11.5 -129t36 -75.5t64.5 -35t97 -8.5q25 0 49.5 3t40.5 7v180z" />
    <glyph glyph-name="H" unicode="H" horiz-adv-x="736" 
d="M220 0h-132v697h132v-266h298v266h130v-697h-130v309h-298v-309z" />
    <glyph glyph-name="I" unicode="I" horiz-adv-x="308" 
d="M220 697v-697h-132v697h132z" />
    <glyph glyph-name="J" unicode="J" horiz-adv-x="461" 
d="M376 192q0 -62 -18 -102t-48 -63t-68 -32t-78 -9q-43 0 -84 7.5t-74 19.5l26 118q25 -10 56 -15.5t63 -5.5q19 0 35.5 4.5t29 15.5t19.5 30t7 49v488h133z" />
    <glyph glyph-name="K" unicode="K" horiz-adv-x="662" 
d="M513 0q-105 173 -183.5 264.5t-108.5 103.5q16 12 43.5 39.5t63 69.5t77.5 97t88 123h160q-96 -135 -166.5 -216.5t-96.5 -103.5q13 -9 39.5 -36.5t63.5 -74t83.5 -113t98.5 -153.5h-162zM220 0h-132v697h132v-697z" />
    <glyph glyph-name="L" unicode="L" horiz-adv-x="551" 
d="M220 697v-582h329v-115h-461v697h132z" />
    <glyph glyph-name="M" unicode="M" horiz-adv-x="916" 
d="M464 251q21 55 44.5 112.5t48.5 115t50.5 113t49.5 105.5h171v-697h-129v519q-24 -52 -49 -110.5t-50.5 -118t-49.5 -117.5t-45 -109h-103q-20 51 -43.5 110t-47.5 119t-48.5 118t-47.5 108v-519h-127v697h180q25 -51 50.5 -106.5t50.5 -113t49 -115t46 -111.5z" />
    <glyph glyph-name="N" unicode="N" horiz-adv-x="774" 
d="M685 0h-161q-71 131 -148 262.5t-159 262.5v-525h-129v697h173q76 -120 150 -247.5t143 -255.5v503h131v-697z" />
    <glyph glyph-name="O" unicode="O" horiz-adv-x="770" 
d="M385 105q57 0 94 9t58.5 36t30 75.5t8.5 127.5t-8.5 127t-30 73.5t-58.5 33.5t-94 8t-94 -8t-58.5 -33.5t-30 -73.5t-8.5 -127t8.5 -127.5t30 -75.5t58.5 -36t94 -9zM385 714q83 0 145 -16.5t103.5 -57t62 -110t20.5 -175.5q0 -108 -20.5 -179t-62 -113.5t-103.5 -59.5
t-145 -17t-145.5 17t-104 59.5t-62 113.5t-20.5 179q0 106 21 175.5t62.5 110t103.5 57t145 16.5z" />
    <glyph glyph-name="P" unicode="P" horiz-adv-x="673" 
d="M88 0v697h363q55 0 92.5 -18t60 -50.5t32 -76t9.5 -94.5q0 -45 -11 -86.5t-34.5 -73t-59.5 -50t-86 -18.5h-234v-230h-132zM414 340q42 0 64 29.5t22 89.5q0 126 -83 126h-197v-245h194z" />
    <glyph glyph-name="Q" unicode="Q" horiz-adv-x="783" 
d="M391 105q58 0 95 9t58.5 36t30 75.5t8.5 127.5t-8.5 127t-30 73.5t-58.5 33.5t-95 8q-57 0 -94 -8t-58.5 -33.5t-29.5 -73.5t-8 -127t8 -127.5t29.5 -75.5t58.5 -36t94 -9zM391 714q83 0 145 -16.5t103.5 -57t62.5 -110t21 -175.5q0 -83 -12.5 -143t-37 -100.5t-61 -64
t-84.5 -32.5q33 -9 84 -58.5t123 -148.5h-154q-58 89 -108 131.5t-84 46.5q-83 0 -144.5 17.5t-102.5 60t-61.5 113.5t-20.5 178q0 106 20.5 175.5t62 110t103.5 57t145 16.5z" />
    <glyph glyph-name="R" unicode="R" horiz-adv-x="706" 
d="M462 303q18 -6 39.5 -25.5t49 -55.5t63 -91t81.5 -131h-163q-41 72 -74 122.5t-59.5 82.5t-47.5 46.5t-38 14.5h-93v-266h-132v697h363q55 0 92.5 -16t60 -43.5t32 -64.5t9.5 -79q0 -38 -9 -71.5t-30.5 -59.5t-56.5 -42t-87 -18zM220 375h197q38 0 59.5 25.5t21.5 76.5
q0 55 -20.5 81.5t-57.5 26.5h-200v-210z" />
    <glyph glyph-name="S" unicode="S" horiz-adv-x="622" 
d="M530 569q-15 5 -35.5 9.5t-45 8t-51 5.5t-52.5 2q-84 0 -120.5 -20t-36.5 -71q0 -20 6 -34.5t23 -25t46.5 -18t77.5 -11.5q121 -13 177.5 -61.5t56.5 -147.5q0 -62 -19 -103.5t-56.5 -67.5t-94 -37t-131.5 -11q-58 0 -116.5 8.5t-100.5 22.5l29 114q33 -11 84 -18t102 -7
q84 0 122.5 19t38.5 73q0 19 -6 35t-23.5 28.5t-48.5 20.5t-81 13q-58 6 -100.5 18.5t-70.5 35t-41.5 56.5t-13.5 82q0 123 75.5 175t221.5 52q57 0 114 -8.5t99 -22.5z" />
    <glyph glyph-name="T" unicode="T" horiz-adv-x="609" 
d="M238 0v583h-235v114h603v-114h-235v-583h-133z" />
    <glyph glyph-name="U" unicode="U" horiz-adv-x="742" 
d="M664 211q0 -69 -20 -112.5t-58 -68.5t-92.5 -34.5t-122.5 -9.5t-122.5 9.5t-92.5 34.5t-58 68.5t-20 112.5v486h133v-466q0 -35 8.5 -58.5t27 -38t49 -21t75.5 -6.5q42 0 72.5 5.5t50 19.5t29 38t9.5 61v466h131z" />
    <glyph glyph-name="V" unicode="V" horiz-adv-x="648" 
d="M127 697q24 -57 50.5 -127.5t53.5 -145.5t51.5 -150t43.5 -140q26 64 52 136t51 145.5t47.5 145.5t41.5 136h139q-24 -78 -54.5 -167.5t-64 -181t-68.5 -181t-68 -167.5h-169q-26 83 -57 176t-64 185.5t-66.5 179t-64.5 156.5h146z" />
    <glyph glyph-name="W" unicode="W" horiz-adv-x="975" 
d="M493 478q-11 -55 -26 -115t-31.5 -121.5t-34.5 -123t-36 -118.5h-167q-21 83 -45.5 176t-50.5 185.5t-52.5 179t-51.5 156.5h144q19 -57 39 -122t39 -133.5t37.5 -139t34.5 -138.5q16 52 35.5 120t39 140.5t37 143.5t28.5 129h122q16 -56 35 -126t38 -142.5t36 -141.5
t28 -123q43 134 79.5 268.5t65.5 264.5h136q-19 -78 -43 -167.5t-50.5 -181t-54.5 -181t-54 -167.5h-168q-11 60 -24.5 122.5t-28 124t-29 120.5t-27.5 111z" />
    <glyph glyph-name="X" unicode="X" horiz-adv-x="674" 
d="M169 697q38 -49 82.5 -107t92.5 -123q44 61 84.5 119.5t75.5 110.5h162q-54 -78 -115 -165t-126 -177q35 -48 69.5 -96.5t67 -94t62 -87t53.5 -77.5h-164q-38 54 -80.5 115t-89.5 126q-49 -65 -95 -125.5t-90 -115.5h-162q26 32 57 72.5t65.5 86t71 94.5t72.5 99
q-72 97 -140 187t-122 158h169z" />
    <glyph glyph-name="Y" unicode="Y" horiz-adv-x="638" 
d="M134 697q45 -56 94.5 -124.5t99.5 -141.5q53 71 100.5 139.5t83.5 126.5h160q-60 -91 -133 -193.5t-148 -202.5v-301h-132v300q-38 53 -77 107.5t-77.5 106t-75 98.5t-67.5 85h172z" />
    <glyph glyph-name="Z" unicode="Z" horiz-adv-x="621" 
d="M17 32q45 61 96.5 134t102.5 147t98.5 144t84.5 126h-360v114h565v-30q-38 -60 -87 -135.5t-101.5 -151.5t-103 -146t-90.5 -120h375v-114h-580v32z" />
    <glyph glyph-name="AE" unicode="&#xc6;" horiz-adv-x="969" 
d="M409 585q-49 -68 -102 -143.5t-107 -154.5h237v298h-28zM942 697v-114h-374v-161h222v-112h-222v-196h374v-114h-505v174h-311q-63 -95 -112 -174h-158q51 78 111.5 167.5t125 181t129 181t123.5 167.5h597z" />
    <glyph glyph-name="OE" unicode="&#x152;" horiz-adv-x="1098" 
d="M385 105q57 0 94 9t58.5 36t30 75.5t8.5 127.5t-8.5 127t-30 73.5t-58.5 33.5t-94 8t-94 -8t-58.5 -33.5t-30 -73.5t-8.5 -127t8.5 -127.5t30 -75.5t58.5 -36t94 -9zM1072 697v-114h-403q38 -56 45 -161h206v-112h-206q-2 -69 -14.5 -116.5t-35.5 -79.5h408v-114h-554
q-29 -8 -62 -11t-71 -3q-83 0 -145.5 17t-104 59.5t-62 113.5t-20.5 179q0 106 21 175.5t62.5 110t103.5 57t145 16.5q42 0 78.5 -4t68.5 -13h540z" />
    <glyph glyph-name="Oslash" unicode="&#xd8;" horiz-adv-x="770" 
d="M385 105q54 0 90.5 8.5t59 32t32.5 65.5t10 109q0 18 -1 39t-2.5 42t-4 40.5t-6.5 35.5l-298 -346q20 -15 49.5 -20.5t70.5 -5.5zM385 595q-54 0 -90.5 -7.5t-59 -30t-32 -63.5t-9.5 -108q0 -19 1 -41.5t2.5 -45t4 -44t6.5 -37.5l301 351q-21 15 -51.5 20.5t-72.5 5.5z
M755 697l-88 -101q25 -42 37 -101t12 -140q0 -108 -20.5 -179t-62 -113.5t-103.5 -59.5t-145 -17q-66 0 -117.5 10.5t-89.5 34.5l-27 -31h-134l88 101q-26 43 -39 105t-13 149q0 106 21 175.5t62.5 110t103.5 57t145 16.5q66 0 118.5 -10.5t91.5 -36.5l25 30h135z" />
    <glyph glyph-name="Aacute" unicode="&#xc1;" horiz-adv-x="682" 
d="M248 747l129 129h137l-158 -129h-108zM326 585q-26 -68 -53.5 -143.5t-54.5 -154.5h232q-27 78 -52 154t-45 144h-27zM555 0q-15 38 -32.5 82t-34.5 92h-305q-15 -47 -28.5 -90.5t-25.5 -83.5h-138q24 78 54.5 167.5t64 181t67.5 181t66 167.5h207q27 -84 58.5 -177.5
t64.5 -185.5t66 -178t62 -156h-146z" />
    <glyph glyph-name="Acircumflex" unicode="&#xc2;" horiz-adv-x="682" 
d="M340 825l-70 -78h-112l122 129h122l126 -129h-116zM326 585q-26 -68 -53.5 -143.5t-54.5 -154.5h232q-27 78 -52 154t-45 144h-27zM555 0q-15 38 -32.5 82t-34.5 92h-305q-15 -47 -28.5 -90.5t-25.5 -83.5h-138q24 78 54.5 167.5t64 181t67.5 181t66 167.5h207
q27 -84 58.5 -177.5t64.5 -185.5t66 -178t62 -156h-146z" />
    <glyph glyph-name="Adieresis" unicode="&#xc4;" horiz-adv-x="682" 
d="M446 864q34 0 46.5 -10t12.5 -46q0 -39 -12.5 -50t-46.5 -11q-17 0 -28.5 2t-18.5 9t-10 18.5t-3 31.5q0 36 12.5 46t47.5 10zM233 864q34 0 46.5 -10t12.5 -46q0 -39 -12.5 -50t-46.5 -11t-47 11t-13 50q0 36 13 46t47 10zM326 585q-26 -68 -53.5 -143.5t-54.5 -154.5
h232q-27 78 -52 154t-45 144h-27zM555 0q-15 38 -32.5 82t-34.5 92h-305q-15 -47 -28.5 -90.5t-25.5 -83.5h-138q24 78 54.5 167.5t64 181t67.5 181t66 167.5h207q27 -84 58.5 -177.5t64.5 -185.5t66 -178t62 -156h-146z" />
    <glyph glyph-name="Agrave" unicode="&#xc0;" horiz-adv-x="682" 
d="M322 747l-158 129h137l135 -129h-114zM326 585q-26 -68 -53.5 -143.5t-54.5 -154.5h232q-27 78 -52 154t-45 144h-27zM555 0q-15 38 -32.5 82t-34.5 92h-305q-15 -47 -28.5 -90.5t-25.5 -83.5h-138q24 78 54.5 167.5t64 181t67.5 181t66 167.5h207q27 -84 58.5 -177.5
t64.5 -185.5t66 -178t62 -156h-146z" />
    <glyph glyph-name="Aring" unicode="&#xc5;" horiz-adv-x="682" 
d="M345 834q-31 0 -40.5 -10.5t-9.5 -32.5t9.5 -32.5t40.5 -10.5t40.5 10.5t9.5 32.5q0 23 -9.5 33t-40.5 10zM345 890q60 0 89.5 -22t29.5 -76t-29.5 -76t-89.5 -22t-90 22t-30 76t28 76t92 22zM326 585q-26 -68 -53.5 -143.5t-54.5 -154.5h232q-27 78 -52 154t-45 144h-27
zM555 0q-15 38 -32.5 82t-34.5 92h-305q-15 -47 -28.5 -90.5t-25.5 -83.5h-138q24 78 54.5 167.5t64 181t67.5 181t66 167.5h207q27 -84 58.5 -177.5t64.5 -185.5t66 -178t62 -156h-146z" />
    <glyph glyph-name="Atilde" unicode="&#xc3;" horiz-adv-x="682" 
d="M523 829q-14 -39 -44.5 -66t-75.5 -27q-22 0 -40.5 8.5t-35.5 18.5t-33 18.5t-34 8.5q-15 0 -27.5 -10.5t-23.5 -39.5l-56 55q20 35 45 57t62 22q25 0 45 -8t37 -18t33 -18t33 -8t29.5 12t24.5 45zM326 585q-26 -68 -53.5 -143.5t-54.5 -154.5h232q-27 78 -52 154
t-45 144h-27zM555 0q-15 38 -32.5 82t-34.5 92h-305q-15 -47 -28.5 -90.5t-25.5 -83.5h-138q24 78 54.5 167.5t64 181t67.5 181t66 167.5h207q27 -84 58.5 -177.5t64.5 -185.5t66 -178t62 -156h-146z" />
    <glyph glyph-name="Ccedilla" unicode="&#xc7;" horiz-adv-x="592" 
d="M386 0v-42q59 0 84.5 -16.5t25.5 -61.5q0 -47 -31 -65t-106 -18q-35 0 -57 4t-41 12l22 54q12 -6 31 -9t40 -3q23 0 32 5.5t9 20.5q0 19 -20 24t-74 2l36 93h49zM53 355q0 107 20 176.5t60.5 110t102 56.5t144.5 16q24 0 50.5 -2t53 -5.5t51.5 -8t45 -10.5l-29 -116
q-14 5 -32 9t-38 7t-40 4.5t-38 1.5q-57 0 -97 -7.5t-64.5 -32.5t-36 -72.5t-11.5 -127.5t11.5 -129t36 -75t64.5 -34.5t97 -8.5q18 0 38 1.5t40 4.5t38 7t32 9l29 -118q-20 -6 -45 -10.5t-51.5 -7.5t-53 -5t-50.5 -2q-83 0 -144.5 17.5t-102 60.5t-60.5 113.5t-20 177.5z
" />
    <glyph glyph-name="Eacute" unicode="&#xc9;" horiz-adv-x="620" 
d="M252 747l129 129h137l-158 -129h-108zM594 697v-114h-374v-161h267v-113h-267v-195h374v-114h-506v697h506z" />
    <glyph glyph-name="Ecircumflex" unicode="&#xca;" horiz-adv-x="620" 
d="M347 825l-70 -78h-112l122 129h122l126 -129h-116zM594 697v-114h-374v-161h267v-113h-267v-195h374v-114h-506v697h506z" />
    <glyph glyph-name="Edieresis" unicode="&#xcb;" horiz-adv-x="620" 
d="M454 864q34 0 46.5 -10t12.5 -46q0 -39 -12.5 -50t-46.5 -11q-17 0 -28.5 2t-18.5 9t-10 18.5t-3 31.5q0 36 12.5 46t47.5 10zM241 864q34 0 46.5 -10t12.5 -46q0 -39 -12.5 -50t-46.5 -11t-47 11t-13 50q0 36 13 46t47 10zM594 697v-114h-374v-161h267v-113h-267v-195
h374v-114h-506v697h506z" />
    <glyph glyph-name="Egrave" unicode="&#xc8;" horiz-adv-x="620" 
d="M359 747l-158 129h137l135 -129h-114zM594 697v-114h-374v-161h267v-113h-267v-195h374v-114h-506v697h506z" />
    <glyph glyph-name="Iacute" unicode="&#xcd;" horiz-adv-x="308" 
d="M70 747l129 129h137l-158 -129h-108zM220 697v-697h-132v697h132z" />
    <glyph glyph-name="Icircumflex" unicode="&#xce;" horiz-adv-x="308" 
d="M152 825l-70 -78h-112l122 129h122l126 -129h-116zM220 697v-697h-132v697h132z" />
    <glyph glyph-name="Idieresis" unicode="&#xcf;" horiz-adv-x="308" 
d="M262 864q34 0 46.5 -10t12.5 -46q0 -39 -12.5 -50t-46.5 -11q-17 0 -28.5 2t-18.5 9t-10 18.5t-3 31.5q0 36 12.5 46t47.5 10zM49 864q34 0 46.5 -10t12.5 -46q0 -39 -12.5 -50t-46.5 -11t-47 11t-13 50q0 36 13 46t47 10zM220 697v-697h-132v697h132z" />
    <glyph glyph-name="Igrave" unicode="&#xcc;" horiz-adv-x="308" 
d="M128 747l-158 129h137l135 -129h-114zM220 697v-697h-132v697h132z" />
    <glyph glyph-name="Ntilde" unicode="&#xd1;" horiz-adv-x="774" 
d="M576 829q-14 -39 -44.5 -66t-75.5 -27q-22 0 -40.5 8.5t-35.5 18.5t-33 18.5t-34 8.5q-15 0 -27.5 -10.5t-23.5 -39.5l-56 55q20 35 45 57t62 22q25 0 45 -8t37 -18t33 -18t33 -8t29.5 12t24.5 45zM685 0h-161q-71 131 -148 262.5t-159 262.5v-525h-129v697h173
q76 -120 150 -247.5t143 -255.5v503h131v-697z" />
    <glyph glyph-name="Oacute" unicode="&#xd3;" horiz-adv-x="770" 
d="M252 747l129 129h137l-158 -129h-108zM385 105q57 0 94 9t58.5 36t30 75.5t8.5 127.5t-8.5 127t-30 73.5t-58.5 33.5t-94 8t-94 -8t-58.5 -33.5t-30 -73.5t-8.5 -127t8.5 -127.5t30 -75.5t58.5 -36t94 -9zM385 714q83 0 145 -16.5t103.5 -57t62 -110t20.5 -175.5
q0 -108 -20.5 -179t-62 -113.5t-103.5 -59.5t-145 -17t-145.5 17t-104 59.5t-62 113.5t-20.5 179q0 106 21 175.5t62.5 110t103.5 57t145 16.5z" />
    <glyph glyph-name="Ocircumflex" unicode="&#xd4;" horiz-adv-x="770" 
d="M381 825l-70 -78h-112l122 129h122l126 -129h-116zM385 105q57 0 94 9t58.5 36t30 75.5t8.5 127.5t-8.5 127t-30 73.5t-58.5 33.5t-94 8t-94 -8t-58.5 -33.5t-30 -73.5t-8.5 -127t8.5 -127.5t30 -75.5t58.5 -36t94 -9zM385 714q83 0 145 -16.5t103.5 -57t62 -110
t20.5 -175.5q0 -108 -20.5 -179t-62 -113.5t-103.5 -59.5t-145 -17t-145.5 17t-104 59.5t-62 113.5t-20.5 179q0 106 21 175.5t62.5 110t103.5 57t145 16.5z" />
    <glyph glyph-name="Odieresis" unicode="&#xd6;" horiz-adv-x="770" 
d="M490 864q34 0 46.5 -10t12.5 -46q0 -39 -12.5 -50t-46.5 -11q-17 0 -28.5 2t-18.5 9t-10 18.5t-3 31.5q0 36 12.5 46t47.5 10zM277 864q34 0 46.5 -10t12.5 -46q0 -39 -12.5 -50t-46.5 -11t-47 11t-13 50q0 36 13 46t47 10zM385 105q57 0 94 9t58.5 36t30 75.5t8.5 127.5
t-8.5 127t-30 73.5t-58.5 33.5t-94 8t-94 -8t-58.5 -33.5t-30 -73.5t-8.5 -127t8.5 -127.5t30 -75.5t58.5 -36t94 -9zM385 714q83 0 145 -16.5t103.5 -57t62 -110t20.5 -175.5q0 -108 -20.5 -179t-62 -113.5t-103.5 -59.5t-145 -17t-145.5 17t-104 59.5t-62 113.5t-20.5 179
q0 106 21 175.5t62.5 110t103.5 57t145 16.5z" />
    <glyph glyph-name="Ograve" unicode="&#xd2;" horiz-adv-x="770" 
d="M370 747l-158 129h137l135 -129h-114zM385 105q57 0 94 9t58.5 36t30 75.5t8.5 127.5t-8.5 127t-30 73.5t-58.5 33.5t-94 8t-94 -8t-58.5 -33.5t-30 -73.5t-8.5 -127t8.5 -127.5t30 -75.5t58.5 -36t94 -9zM385 714q83 0 145 -16.5t103.5 -57t62 -110t20.5 -175.5
q0 -108 -20.5 -179t-62 -113.5t-103.5 -59.5t-145 -17t-145.5 17t-104 59.5t-62 113.5t-20.5 179q0 106 21 175.5t62.5 110t103.5 57t145 16.5z" />
    <glyph glyph-name="Otilde" unicode="&#xd5;" horiz-adv-x="770" 
d="M568 829q-14 -39 -44.5 -66t-75.5 -27q-22 0 -40.5 8.5t-35.5 18.5t-33 18.5t-34 8.5q-15 0 -27.5 -10.5t-23.5 -39.5l-56 55q20 35 45 57t62 22q25 0 45 -8t37 -18t33 -18t33 -8t29.5 12t24.5 45zM385 105q57 0 94 9t58.5 36t30 75.5t8.5 127.5t-8.5 127t-30 73.5
t-58.5 33.5t-94 8t-94 -8t-58.5 -33.5t-30 -73.5t-8.5 -127t8.5 -127.5t30 -75.5t58.5 -36t94 -9zM385 714q83 0 145 -16.5t103.5 -57t62 -110t20.5 -175.5q0 -108 -20.5 -179t-62 -113.5t-103.5 -59.5t-145 -17t-145.5 17t-104 59.5t-62 113.5t-20.5 179q0 106 21 175.5
t62.5 110t103.5 57t145 16.5z" />
    <glyph glyph-name="Uacute" unicode="&#xda;" horiz-adv-x="742" 
d="M264 747l129 129h137l-158 -129h-108zM664 211q0 -69 -20 -112.5t-58 -68.5t-92.5 -34.5t-122.5 -9.5t-122.5 9.5t-92.5 34.5t-58 68.5t-20 112.5v486h133v-466q0 -35 8.5 -58.5t27 -38t49 -21t75.5 -6.5q42 0 72.5 5.5t50 19.5t29 38t9.5 61v466h131z" />
    <glyph glyph-name="Ucircumflex" unicode="&#xdb;" horiz-adv-x="742" 
d="M366 825l-70 -78h-112l122 129h122l126 -129h-116zM664 211q0 -69 -20 -112.5t-58 -68.5t-92.5 -34.5t-122.5 -9.5t-122.5 9.5t-92.5 34.5t-58 68.5t-20 112.5v486h133v-466q0 -35 8.5 -58.5t27 -38t49 -21t75.5 -6.5q42 0 72.5 5.5t50 19.5t29 38t9.5 61v466h131z" />
    <glyph glyph-name="Udieresis" unicode="&#xdc;" horiz-adv-x="742" 
d="M475 864q34 0 46.5 -10t12.5 -46q0 -39 -12.5 -50t-46.5 -11q-17 0 -28.5 2t-18.5 9t-10 18.5t-3 31.5q0 36 12.5 46t47.5 10zM262 864q34 0 46.5 -10t12.5 -46q0 -39 -12.5 -50t-46.5 -11t-47 11t-13 50q0 36 13 46t47 10zM664 211q0 -69 -20 -112.5t-58 -68.5
t-92.5 -34.5t-122.5 -9.5t-122.5 9.5t-92.5 34.5t-58 68.5t-20 112.5v486h133v-466q0 -35 8.5 -58.5t27 -38t49 -21t75.5 -6.5q42 0 72.5 5.5t50 19.5t29 38t9.5 61v466h131z" />
    <glyph glyph-name="Ugrave" unicode="&#xd9;" horiz-adv-x="742" 
d="M372 747l-158 129h137l135 -129h-114zM664 211q0 -69 -20 -112.5t-58 -68.5t-92.5 -34.5t-122.5 -9.5t-122.5 9.5t-92.5 34.5t-58 68.5t-20 112.5v486h133v-466q0 -35 8.5 -58.5t27 -38t49 -21t75.5 -6.5q42 0 72.5 5.5t50 19.5t29 38t9.5 61v466h131z" />
    <glyph glyph-name="Ydieresis" unicode="&#x178;" horiz-adv-x="638" 
d="M434 864q34 0 46.5 -10t12.5 -46q0 -39 -12.5 -50t-46.5 -11q-17 0 -28.5 2t-18.5 9t-10 18.5t-3 31.5q0 36 12.5 46t47.5 10zM221 864q34 0 46.5 -10t12.5 -46q0 -39 -12.5 -50t-46.5 -11t-47 11t-13 50q0 36 13 46t47 10zM134 697q45 -56 94.5 -124.5t99.5 -141.5
q53 71 100.5 139.5t83.5 126.5h160q-60 -91 -133 -193.5t-148 -202.5v-301h-132v300q-38 53 -77 107.5t-77.5 106t-75 98.5t-67.5 85h172z" />
    <glyph glyph-name="a" unicode="a" horiz-adv-x="560" 
d="M375 98v127q-21 5 -47 7t-54 2q-26 0 -44.5 -2.5t-29.5 -10t-16 -22t-5 -38.5q0 -26 4 -41.5t14.5 -24t29 -11.5t46.5 -3q27 0 53.5 4.5t48.5 12.5zM494 26q-24 -9 -53 -16.5t-59.5 -13t-60.5 -8t-57 -2.5q-60 0 -101.5 8t-66.5 27.5t-36 52t-11 82.5q0 54 14.5 87
t41 50.5t63 23.5t81.5 6q32 0 63 -3.5t63 -10.5q0 33 -5 54.5t-19 34t-38.5 17.5t-64.5 5q-42 0 -82 -7t-72 -18l-23 102q40 11 94 19t109 8q57 0 98.5 -9.5t68.5 -32.5t40 -61t13 -95v-300z" />
    <glyph glyph-name="b" unicode="b" 
d="M69 722h124v-232q21 13 55 23.5t77 10.5q53 0 92.5 -12.5t66 -43t39.5 -82t13 -128.5q0 -78 -14.5 -130.5t-44.5 -84t-76 -44.5t-109 -13q-28 0 -58.5 2.5t-60 7.5t-56.5 12t-48 15v699zM193 104q22 -8 48.5 -12t50.5 -4q33 0 55.5 6t36 24t19.5 51t6 87q0 47 -5.5 78
t-19 49t-35.5 25t-55 7q-42 0 -71.5 -12.5t-29.5 -35.5v-263z" />
    <glyph glyph-name="c" unicode="c" horiz-adv-x="470" 
d="M458 12q-15 -6 -34.5 -11t-40 -8t-41.5 -5t-39 -2q-58 0 -104.5 13t-79.5 44t-50.5 83.5t-17.5 130.5t17.5 129.5t50.5 82t79.5 43t104.5 12.5q18 0 39.5 -2t42.5 -5t40 -7.5t33 -9.5l-28 -106q-24 9 -55.5 15.5t-62.5 6.5q-34 0 -59 -5.5t-41.5 -22.5t-24.5 -48.5
t-8 -84.5q0 -51 8 -82.5t24.5 -49t41.5 -23.5t59 -6q32 0 63 7t55 17z" />
    <glyph glyph-name="d" unicode="d" 
d="M518 23q-21 -8 -48 -15t-56.5 -12t-60 -7.5t-57.5 -2.5q-63 0 -109 12.5t-76.5 43.5t-45 83t-14.5 130q0 77 15.5 129t44 83t69.5 44t92 13q44 0 73 -9t49 -20v227h124v-699zM394 370q0 23 -29 36t-71 13q-33 0 -55 -7.5t-35.5 -26t-19 -49.5t-5.5 -79q0 -52 6 -84.5
t19.5 -50.5t36 -24t55.5 -6q26 0 52 4t46 11v263z" />
    <glyph glyph-name="e" unicode="e" horiz-adv-x="552" 
d="M295 426q-29 0 -49.5 -5t-33.5 -18t-20 -34t-10 -52h214q-2 34 -7.5 55t-17.5 33t-30.5 16.5t-45.5 4.5zM476 14q-19 -6 -42 -11.5t-46.5 -9t-47 -5.5t-42.5 -2q-55 0 -100.5 13t-78 44t-50.5 83.5t-18 130.5q0 76 16 127.5t47 82.5t74.5 44t99.5 13q60 0 103.5 -12.5
t71 -46t39 -92t8.5 -151.5h-329q0 -41 8.5 -66.5t24.5 -40t41 -19.5t58 -5q13 0 31.5 1.5t38.5 4.5t39 6.5t34 8.5z" />
    <glyph glyph-name="f" unicode="f" horiz-adv-x="376" 
d="M214 509h165v-108h-165v-401h-124v401h-85v108h85v34q0 55 15 90.5t40 55.5t58.5 27.5t71.5 7.5q35 0 73 -6t67 -16l-28 -98q-18 6 -43.5 10t-48.5 4q-37 0 -59 -16.5t-22 -65.5v-27z" />
    <glyph glyph-name="g" unicode="g" 
d="M394 21q-21 -13 -53 -23t-76 -10q-53 0 -93 12.5t-67 42.5t-40.5 81t-13.5 129t14.5 130t45 83.5t76.5 44.5t109 13q27 0 57.5 -2.5t60 -7.5t56.5 -12t48 -16v-447q0 -75 -20 -122t-56 -74t-86 -37t-110 -10q-22 0 -46.5 2.5t-48.5 6.5t-46 9.5t-38 11.5l25 100
q35 -11 76 -18t77 -7q35 0 63 5.5t47 19t29 37t10 58.5zM394 405q-22 8 -48.5 12.5t-49.5 4.5q-33 0 -55.5 -6t-36 -24t-19.5 -51t-6 -87q0 -48 5.5 -78.5t19 -48.5t35 -25t54.5 -7q42 0 71.5 12.5t29.5 35.5v262z" />
    <glyph glyph-name="h" unicode="h" horiz-adv-x="583" 
d="M333 524q45 0 79 -9.5t57.5 -35t35.5 -70.5t12 -116v-293h-124v283q0 63 -21 96t-81 33q-19 0 -37 -3t-31.5 -8.5t-21.5 -14t-8 -19.5v-367h-124v722h124v-233q25 13 63 24t77 11z" />
    <glyph glyph-name="i" unicode="i" horiz-adv-x="262" 
d="M132 721q20 0 33.5 -2t22 -8.5t12 -18.5t3.5 -32q0 -44 -15.5 -56.5t-55.5 -12.5q-41 0 -56.5 12.5t-15.5 56.5q0 20 3.5 32t12 18.5t22 8.5t34.5 2zM193 0h-124v509h124v-509z" />
    <glyph glyph-name="j" unicode="j" horiz-adv-x="262" 
d="M132 721q20 0 33.5 -2t22 -8.5t12 -18.5t3.5 -32q0 -44 -15.5 -56.5t-55.5 -12.5q-41 0 -56.5 12.5t-15.5 56.5q0 20 3.5 32t12 18.5t22 8.5t34.5 2zM-16 -100q42 0 63.5 17.5t21.5 68.5v523h124v-520q0 -57 -13 -94t-39.5 -58.5t-65.5 -30.5t-91 -9v103z" />
    <glyph glyph-name="k" unicode="k" horiz-adv-x="551" 
d="M406 0q-87 126 -139.5 193t-73.5 76q21 17 71.5 77.5t125.5 162.5h147q-74 -100 -124.5 -157.5t-70.5 -73.5q20 -12 74.5 -81t135.5 -197h-146zM193 0h-124v722h124v-722z" />
    <glyph glyph-name="l" unicode="l" horiz-adv-x="268" 
d="M193 143q0 -37 9 -64.5t30 -55.5l-109 -47q-26 30 -40 68t-14 94v584h124v-579z" />
    <glyph glyph-name="m" unicode="m" horiz-adv-x="881" 
d="M193 0h-124v480q47 18 110.5 31t124.5 13q86 0 130 -34q42 15 89.5 24.5t91.5 9.5q54 0 92 -12t62 -39.5t35 -73.5t11 -115v-284h-124v271q0 42 -4.5 69.5t-16 43.5t-31 22t-50.5 6q-19 0 -46.5 -3t-52.5 -11q14 -47 14 -114v-284h-124v271q0 42 -4.5 69.5t-16 43.5
t-31 22t-50.5 6q-20 0 -43 -3.5t-42 -8.5v-400z" />
    <glyph glyph-name="n" unicode="n" horiz-adv-x="583" 
d="M193 0h-124v480q23 9 52.5 17t61 14t64.5 9.5t63 3.5q54 0 93 -12t64.5 -39.5t37.5 -73.5t12 -115v-284h-124v271q0 42 -4.5 69.5t-17 43.5t-33.5 22t-54 6q-46 0 -91 -12v-400z" />
    <glyph glyph-name="o" unicode="o" 
d="M293 424q-33 0 -54.5 -6t-35 -24t-19 -51t-5.5 -88q0 -53 5.5 -86t19 -51.5t35 -25t54.5 -6.5t55.5 6.5t36 25t19 51.5t5.5 86q0 55 -5.5 88t-19 51t-36 24t-55.5 6zM293 -14q-61 0 -106.5 13t-75.5 44t-45 83.5t-15 130.5t15 129.5t45.5 82t76 43t105.5 12.5
q61 0 107 -12.5t76.5 -43t45.5 -82t15 -129.5t-15 -130.5t-45.5 -83.5t-76.5 -44t-107 -13z" />
    <glyph glyph-name="p" unicode="p" 
d="M69 486q21 9 48 16t56.5 12t60 7.5t58.5 2.5q63 0 109 -13t76 -43.5t44.5 -82.5t14.5 -130t-15.5 -129.5t-44 -82.5t-69.5 -44t-92 -13q-44 0 -72.5 9t-49.5 20v-207h-124v678zM193 140q0 -23 29 -36t71 -13q33 0 55 7.5t35.5 26t19.5 49.5t6 78q0 52 -6 84.5t-19.5 50.5
t-36 24t-55.5 6q-26 0 -52.5 -3.5t-46.5 -11.5v-262z" />
    <glyph glyph-name="q" unicode="q" 
d="M518 -192h-124v212q-21 -13 -54.5 -23.5t-77.5 -10.5q-53 0 -92.5 12.5t-66 43.5t-39.5 82t-13 129t14.5 130t45 83.5t76.5 44.5t109 13q27 0 57.5 -2.5t60 -7.5t56.5 -12t48 -16v-678zM394 405q-22 8 -48.5 12.5t-49.5 4.5q-33 0 -55.5 -6t-36 -24t-19.5 -51t-6 -87
q0 -48 5.5 -78.5t19 -48.5t35 -25t54.5 -7q42 0 71.5 12.5t29.5 35.5v262z" />
    <glyph glyph-name="r" unicode="r" horiz-adv-x="379" 
d="M69 509h124v-38q14 21 44.5 37t85.5 16q25 0 52 -3v-118q-14 3 -31 5t-34 2q-23 0 -44.5 -3.5t-37.5 -11t-25.5 -18t-9.5 -24.5v-353h-124v509z" />
    <glyph glyph-name="s" unicode="s" horiz-adv-x="491" 
d="M407 399q-30 10 -70 17t-78 7q-23 0 -40 -2t-28.5 -8t-17.5 -17.5t-6 -31.5q0 -26 21.5 -37.5t83.5 -17.5q46 -5 79.5 -15t55 -28t32 -45t10.5 -65q0 -50 -16 -82.5t-44.5 -52t-68.5 -27.5t-89 -8q-20 0 -44.5 2t-49 5.5t-47.5 8.5t-41 11l26 98q14 -5 32 -9.5t38 -7.5
t41 -5t40 -2q51 0 75.5 11t24.5 51q0 13 -4.5 23.5t-16.5 17.5t-33.5 12t-54.5 8q-42 3 -74 11.5t-54 25t-33 43t-11 65.5q0 49 16 82t44.5 52t69 27t88.5 8q40 0 86.5 -7.5t84.5 -20.5z" />
    <glyph glyph-name="t" unicode="t" horiz-adv-x="415" 
d="M219 401v-219q0 -48 16 -68.5t61 -20.5q25 0 46.5 4t40.5 10l22 -98q-27 -10 -65 -16.5t-75 -6.5q-43 0 -75 7.5t-53 28t-31.5 56.5t-10.5 93v230h-85v108h85v86l124 51v-137h169v-108h-169z" />
    <glyph glyph-name="u" unicode="u" horiz-adv-x="583" 
d="M390 509h124v-480q-24 -9 -53 -17t-60.5 -14t-64.5 -9.5t-63 -3.5q-54 0 -93 12t-64.5 39.5t-37.5 73.5t-12 115v284h124v-271q0 -42 4.5 -69.5t16.5 -43.5t33 -22t54 -6q49 0 92 13v399z" />
    <glyph glyph-name="v" unicode="v" horiz-adv-x="511" 
d="M255 125q36 96 68.5 192t57.5 192h126q-37 -125 -84.5 -254.5t-98.5 -254.5h-153q-38 134 -80.5 264t-90.5 245h129q34 -86 66.5 -185.5t59.5 -198.5z" />
    <glyph glyph-name="w" unicode="w" horiz-adv-x="830" 
d="M415 341q-9 -40 -21 -85t-25 -90.5t-26.5 -88.5t-25.5 -77h-153q-37 134 -78 262.5t-86 246.5h131q32 -85 62 -184t54 -198q13 38 29 90t31.5 105.5t28.5 103t21 83.5h121q12 -37 26.5 -86t28.5 -101t26.5 -103t21.5 -92q35 96 65 191t53 191h126q-35 -125 -79.5 -256.5
t-94.5 -252.5h-154q-8 39 -18 85.5t-21.5 93.5t-22.5 89.5t-20 72.5z" />
    <glyph glyph-name="x" unicode="x" horiz-adv-x="521" 
d="M376 0q-21 35 -48.5 76t-58.5 85q-34 -46 -65.5 -86.5t-59.5 -74.5h-138q41 48 93 115t105 139q-52 72 -103.5 139.5t-93.5 115.5h148q26 -32 56 -72t61 -84q32 45 58.5 84.5t46.5 71.5h138q-35 -52 -80.5 -117.5t-94.5 -133.5q48 -68 94 -135t82 -123h-140z" />
    <glyph glyph-name="y" unicode="y" horiz-adv-x="511" 
d="M180 -25q-19 68 -40.5 138.5t-44.5 139.5t-47 134t-48 122h129q34 -85 67 -186t59 -200q36 96 69 193.5t57 192.5h126q-38 -131 -87.5 -265t-105.5 -265q-18 -43 -38.5 -88t-40.5 -83h-138q20 36 42 80.5t41 86.5z" />
    <glyph glyph-name="z" unicode="z" horiz-adv-x="497" 
d="M474 509v-25q-27 -44 -62 -96t-71 -103.5t-70 -98t-59 -78.5h255v-108h-449v25q36 46 75.5 99t75.5 104.5t66 96.5t49 76h-249v108h439z" />
    <glyph glyph-name="ae" unicode="&#xe6;" horiz-adv-x="868" 
d="M611 426q-28 0 -48 -5t-33.5 -17t-21 -33t-10.5 -54h214q-2 34 -7.5 55t-17.5 33t-30.5 16.5t-45.5 4.5zM393 105q-13 31 -16.5 59.5t-3.5 60.5q-41 9 -98 9q-26 0 -44.5 -2.5t-29.5 -10t-16 -22t-5 -38.5t3.5 -39.5t13.5 -24.5t28.5 -12.5t48.5 -3.5q13 0 30 2t33.5 5
t31 7.5t24.5 9.5zM792 14q-19 -6 -42 -11.5t-46.5 -9t-47 -5.5t-42.5 -2q-96 0 -148 36q-19 -9 -44 -16t-52 -11.5t-54.5 -6.5t-51.5 -2q-60 0 -101.5 8t-66.5 27.5t-36 52t-11 82.5q0 54 14.5 87t41 50.5t63.5 23.5t81 6q32 0 63 -3.5t63 -10.5q0 33 -4.5 54.5t-18.5 33.5
t-39 16.5t-65 4.5q-42 0 -82 -6t-72 -17l-23 102q40 11 94 19t109 8q65 0 105.5 -13.5t63.5 -47.5q24 33 63.5 47t97.5 14q60 0 103.5 -12.5t71 -46t39 -92t8.5 -151.5h-329q0 -41 8.5 -66.5t24.5 -40t41 -19.5t58 -5q13 0 31.5 1.5t38.5 4.5t39 6.5t34 8.5z" />
    <glyph glyph-name="germandbls" unicode="&#xdf;" horiz-adv-x="654" 
d="M324 714q137 0 200 -41.5t63 -136.5q0 -35 -5.5 -63.5t-21.5 -50.5t-45 -35.5t-75 -17.5q49 -2 81 -16t50 -37.5t25 -56t7 -71.5q0 -57 -16 -95.5t-50 -62t-87 -34t-127 -10.5q-15 0 -33.5 0.5t-35.5 2.5l14 108q12 -2 29 -3t31 -1q41 0 67.5 6t42 19t21.5 33.5t6 49.5
q0 64 -29 88.5t-98 24.5h-38v103h35q69 0 94 24.5t25 73.5q0 50 -28.5 69t-101.5 19q-66 0 -98 -24.5t-32 -68.5v-510h-125v527q0 51 18.5 87t52 58t80.5 32t104 10z" />
    <glyph glyph-name="oe" unicode="&#x153;" horiz-adv-x="907" 
d="M650 426q-28 0 -48 -5t-33.5 -17t-21.5 -33t-11 -54h214q-1 34 -7 55t-17.5 33t-30 16.5t-45.5 4.5zM293 424q-33 0 -54.5 -6t-35 -24t-19 -51t-5.5 -88q0 -53 5.5 -86t19 -51.5t35 -25t54.5 -6.5t55.5 6.5t36 25t19 51.5t5.5 86q0 55 -5.5 88t-19 51t-36 24t-55.5 6z
M831 14q-39 -13 -89 -20.5t-90 -7.5q-61 0 -105 15.5t-73 53.5q-26 -38 -70.5 -53.5t-110.5 -15.5q-61 0 -106.5 13t-75.5 44t-45 83.5t-15 130.5t15 129.5t45.5 82t76 43t105.5 12.5q64 0 108 -14.5t71 -50.5q26 34 68 49.5t102 15.5t104 -12.5t71.5 -46t39 -92t7.5 -151.5
h-329q1 -41 9 -66.5t24.5 -40t41 -19.5t57.5 -5q14 0 32.5 1.5t38 4.5t38.5 6.5t34 8.5z" />
    <glyph glyph-name="oslash" unicode="&#xf8;" 
d="M293 87q34 0 56.5 8t35 26.5t17.5 48t5 71.5q0 20 -1 38t-4 35l-181 -212q12 -9 30 -12t42 -3zM293 423q-31 0 -52.5 -5t-35 -20.5t-19.5 -44t-7 -74.5q0 -52 7 -86l182 214q-14 9 -32 12.5t-43 3.5zM573 509l-69 -79q17 -31 25 -73t8 -100q0 -78 -15 -130.5t-45.5 -83.5
t-76.5 -44t-107 -13q-92 0 -147 31l-15 -17h-115l69 79q-34 61 -34 178q0 78 15 129.5t45.5 82t76 43t105.5 12.5q47 0 84 -7t65 -24l15 16h116z" />
    <glyph glyph-name="aacute" unicode="&#xe1;" horiz-adv-x="560" 
d="M189 568l121 129h133l-145 -129h-109zM375 98v127q-21 5 -47 7t-54 2q-26 0 -44.5 -2.5t-29.5 -10t-16 -22t-5 -38.5q0 -26 4 -41.5t14.5 -24t29 -11.5t46.5 -3q27 0 53.5 4.5t48.5 12.5zM494 26q-24 -9 -53 -16.5t-59.5 -13t-60.5 -8t-57 -2.5q-60 0 -101.5 8
t-66.5 27.5t-36 52t-11 82.5q0 54 14.5 87t41 50.5t63 23.5t81.5 6q32 0 63 -3.5t63 -10.5q0 33 -5 54.5t-19 34t-38.5 17.5t-64.5 5q-42 0 -82 -7t-72 -18l-23 102q40 11 94 19t109 8q57 0 98.5 -9.5t68.5 -32.5t40 -61t13 -95v-300z" />
    <glyph glyph-name="acircumflex" unicode="&#xe2;" horiz-adv-x="560" 
d="M350 568l-71 76l-69 -76h-113l122 129h122l126 -129h-117zM375 98v127q-21 5 -47 7t-54 2q-26 0 -44.5 -2.5t-29.5 -10t-16 -22t-5 -38.5q0 -26 4 -41.5t14.5 -24t29 -11.5t46.5 -3q27 0 53.5 4.5t48.5 12.5zM494 26q-24 -9 -53 -16.5t-59.5 -13t-60.5 -8t-57 -2.5
q-60 0 -101.5 8t-66.5 27.5t-36 52t-11 82.5q0 54 14.5 87t41 50.5t63 23.5t81.5 6q32 0 63 -3.5t63 -10.5q0 33 -5 54.5t-19 34t-38.5 17.5t-64.5 5q-42 0 -82 -7t-72 -18l-23 102q40 11 94 19t109 8q57 0 98.5 -9.5t68.5 -32.5t40 -61t13 -95v-300z" />
    <glyph glyph-name="adieresis" unicode="&#xe4;" horiz-adv-x="560" 
d="M380 681q33 0 46 -9.5t13 -45.5q0 -40 -13 -51t-46 -11q-35 0 -47.5 11t-12.5 51q0 18 3 29t10 16.5t18.5 7.5t28.5 2zM166 681q34 0 47 -9.5t13 -45.5q0 -40 -13 -51t-47 -11t-46.5 11t-12.5 51q0 36 12.5 45.5t46.5 9.5zM375 98v127q-21 5 -47 7t-54 2
q-26 0 -44.5 -2.5t-29.5 -10t-16 -22t-5 -38.5q0 -26 4 -41.5t14.5 -24t29 -11.5t46.5 -3q27 0 53.5 4.5t48.5 12.5zM494 26q-24 -9 -53 -16.5t-59.5 -13t-60.5 -8t-57 -2.5q-60 0 -101.5 8t-66.5 27.5t-36 52t-11 82.5q0 54 14.5 87t41 50.5t63 23.5t81.5 6q32 0 63 -3.5
t63 -10.5q0 33 -5 54.5t-19 34t-38.5 17.5t-64.5 5q-42 0 -82 -7t-72 -18l-23 102q40 11 94 19t109 8q57 0 98.5 -9.5t68.5 -32.5t40 -61t13 -95v-300z" />
    <glyph glyph-name="agrave" unicode="&#xe0;" horiz-adv-x="560" 
d="M259 568l-144 129h132l122 -129h-110zM375 98v127q-21 5 -47 7t-54 2q-26 0 -44.5 -2.5t-29.5 -10t-16 -22t-5 -38.5q0 -26 4 -41.5t14.5 -24t29 -11.5t46.5 -3q27 0 53.5 4.5t48.5 12.5zM494 26q-24 -9 -53 -16.5t-59.5 -13t-60.5 -8t-57 -2.5q-60 0 -101.5 8
t-66.5 27.5t-36 52t-11 82.5q0 54 14.5 87t41 50.5t63 23.5t81.5 6q32 0 63 -3.5t63 -10.5q0 33 -5 54.5t-19 34t-38.5 17.5t-64.5 5q-42 0 -82 -7t-72 -18l-23 102q40 11 94 19t109 8q57 0 98.5 -9.5t68.5 -32.5t40 -61t13 -95v-300z" />
    <glyph glyph-name="aring" unicode="&#xe5;" horiz-adv-x="560" 
d="M281 684q-31 0 -40.5 -10t-9.5 -33q0 -22 9.5 -32.5t40.5 -10.5t40.5 11t9.5 32q0 23 -9.5 33t-40.5 10zM281 741q60 0 89.5 -22t29.5 -76q0 -55 -29.5 -76.5t-89.5 -21.5t-90 21.5t-30 76.5q0 54 28 76t92 22zM375 98v127q-21 5 -47 7t-54 2q-26 0 -44.5 -2.5t-29.5 -10
t-16 -22t-5 -38.5q0 -26 4 -41.5t14.5 -24t29 -11.5t46.5 -3q27 0 53.5 4.5t48.5 12.5zM494 26q-24 -9 -53 -16.5t-59.5 -13t-60.5 -8t-57 -2.5q-60 0 -101.5 8t-66.5 27.5t-36 52t-11 82.5q0 54 14.5 87t41 50.5t63 23.5t81.5 6q32 0 63 -3.5t63 -10.5q0 33 -5 54.5t-19 34
t-38.5 17.5t-64.5 5q-42 0 -82 -7t-72 -18l-23 102q40 11 94 19t109 8q57 0 98.5 -9.5t68.5 -32.5t40 -61t13 -95v-300z" />
    <glyph glyph-name="atilde" unicode="&#xe3;" horiz-adv-x="560" 
d="M456 652q-14 -41 -43 -67t-74 -26q-23 0 -40.5 8.5t-34 18t-32.5 18t-34 8.5q-15 0 -27.5 -11t-24.5 -40l-56 55q21 37 46 59t63 22q25 0 44 -8.5t35 -18t30.5 -18t32.5 -8.5t29.5 12t23.5 46zM375 98v127q-21 5 -47 7t-54 2q-26 0 -44.5 -2.5t-29.5 -10t-16 -22
t-5 -38.5q0 -26 4 -41.5t14.5 -24t29 -11.5t46.5 -3q27 0 53.5 4.5t48.5 12.5zM494 26q-24 -9 -53 -16.5t-59.5 -13t-60.5 -8t-57 -2.5q-60 0 -101.5 8t-66.5 27.5t-36 52t-11 82.5q0 54 14.5 87t41 50.5t63 23.5t81.5 6q32 0 63 -3.5t63 -10.5q0 33 -5 54.5t-19 34
t-38.5 17.5t-64.5 5q-42 0 -82 -7t-72 -18l-23 102q40 11 94 19t109 8q57 0 98.5 -9.5t68.5 -32.5t40 -61t13 -95v-300z" />
    <glyph glyph-name="ccedilla" unicode="&#xe7;" horiz-adv-x="470" 
d="M309 0v-42q59 0 84.5 -16.5t25.5 -61.5q0 -47 -31 -65t-106 -18q-35 0 -57 4t-41 12l22 54q12 -6 31 -9t40 -3q23 0 32 5.5t9 20.5q0 19 -20 24t-74 2l36 93h49zM458 12q-15 -6 -34.5 -11t-40 -8t-41.5 -5t-39 -2q-58 0 -104.5 13t-79.5 44t-50.5 83.5t-17.5 130.5
t17.5 129.5t50.5 82t79.5 43t104.5 12.5q18 0 39.5 -2t42.5 -5t40 -7.5t33 -9.5l-28 -106q-24 9 -55.5 15.5t-62.5 6.5q-34 0 -59 -5.5t-41.5 -22.5t-24.5 -48.5t-8 -84.5q0 -51 8 -82.5t24.5 -49t41.5 -23.5t59 -6q32 0 63 7t55 17z" />
    <glyph glyph-name="eacute" unicode="&#xe9;" horiz-adv-x="552" 
d="M201 568l121 129h133l-145 -129h-109zM295 426q-29 0 -49.5 -5t-33.5 -18t-20 -34t-10 -52h214q-2 34 -7.5 55t-17.5 33t-30.5 16.5t-45.5 4.5zM476 14q-19 -6 -42 -11.5t-46.5 -9t-47 -5.5t-42.5 -2q-55 0 -100.5 13t-78 44t-50.5 83.5t-18 130.5q0 76 16 127.5t47 82.5
t74.5 44t99.5 13q60 0 103.5 -12.5t71 -46t39 -92t8.5 -151.5h-329q0 -41 8.5 -66.5t24.5 -40t41 -19.5t58 -5q13 0 31.5 1.5t38.5 4.5t39 6.5t34 8.5z" />
    <glyph glyph-name="ecircumflex" unicode="&#xea;" horiz-adv-x="552" 
d="M364 568l-71 76l-69 -76h-113l122 129h122l126 -129h-117zM295 426q-29 0 -49.5 -5t-33.5 -18t-20 -34t-10 -52h214q-2 34 -7.5 55t-17.5 33t-30.5 16.5t-45.5 4.5zM476 14q-19 -6 -42 -11.5t-46.5 -9t-47 -5.5t-42.5 -2q-55 0 -100.5 13t-78 44t-50.5 83.5t-18 130.5
q0 76 16 127.5t47 82.5t74.5 44t99.5 13q60 0 103.5 -12.5t71 -46t39 -92t8.5 -151.5h-329q0 -41 8.5 -66.5t24.5 -40t41 -19.5t58 -5q13 0 31.5 1.5t38.5 4.5t39 6.5t34 8.5z" />
    <glyph glyph-name="edieresis" unicode="&#xeb;" horiz-adv-x="552" 
d="M400 681q33 0 46 -9.5t13 -45.5q0 -40 -13 -51t-46 -11q-35 0 -47.5 11t-12.5 51q0 18 3 29t10 16.5t18.5 7.5t28.5 2zM186 681q34 0 47 -9.5t13 -45.5q0 -40 -13 -51t-47 -11t-46.5 11t-12.5 51q0 36 12.5 45.5t46.5 9.5zM295 426q-29 0 -49.5 -5t-33.5 -18t-20 -34
t-10 -52h214q-2 34 -7.5 55t-17.5 33t-30.5 16.5t-45.5 4.5zM476 14q-19 -6 -42 -11.5t-46.5 -9t-47 -5.5t-42.5 -2q-55 0 -100.5 13t-78 44t-50.5 83.5t-18 130.5q0 76 16 127.5t47 82.5t74.5 44t99.5 13q60 0 103.5 -12.5t71 -46t39 -92t8.5 -151.5h-329q0 -41 8.5 -66.5
t24.5 -40t41 -19.5t58 -5q13 0 31.5 1.5t38.5 4.5t39 6.5t34 8.5z" />
    <glyph glyph-name="egrave" unicode="&#xe8;" horiz-adv-x="552" 
d="M280 568l-144 129h132l122 -129h-110zM295 426q-29 0 -49.5 -5t-33.5 -18t-20 -34t-10 -52h214q-2 34 -7.5 55t-17.5 33t-30.5 16.5t-45.5 4.5zM476 14q-19 -6 -42 -11.5t-46.5 -9t-47 -5.5t-42.5 -2q-55 0 -100.5 13t-78 44t-50.5 83.5t-18 130.5q0 76 16 127.5t47 82.5
t74.5 44t99.5 13q60 0 103.5 -12.5t71 -46t39 -92t8.5 -151.5h-329q0 -41 8.5 -66.5t24.5 -40t41 -19.5t58 -5q13 0 31.5 1.5t38.5 4.5t39 6.5t34 8.5z" />
    <glyph glyph-name="iacute" unicode="&#xed;" horiz-adv-x="262" 
d="M44 568l121 129h133l-145 -129h-109zM193 0h-124v509h124v-509z" />
    <glyph glyph-name="icircumflex" unicode="&#xee;" horiz-adv-x="262" 
d="M200 568l-71 76l-69 -76h-113l122 129h122l126 -129h-117zM193 0h-124v509h124v-509z" />
    <glyph glyph-name="idieresis" unicode="&#xef;" horiz-adv-x="262" 
d="M239 681q33 0 46 -9.5t13 -45.5q0 -40 -13 -51t-46 -11q-35 0 -47.5 11t-12.5 51q0 18 3 29t10 16.5t18.5 7.5t28.5 2zM25 681q34 0 47 -9.5t13 -45.5q0 -40 -13 -51t-47 -11t-46.5 11t-12.5 51q0 36 12.5 45.5t46.5 9.5zM193 0h-124v509h124v-509z" />
    <glyph glyph-name="igrave" unicode="&#xec;" horiz-adv-x="262" 
d="M104 568l-144 129h132l122 -129h-110zM193 0h-124v509h124v-509z" />
    <glyph glyph-name="dotlessi" unicode="&#x131;" horiz-adv-x="262" 
d="M193 0h-124v509h124v-509z" />
    <glyph glyph-name="ntilde" unicode="&#xf1;" horiz-adv-x="583" 
d="M473 652q-14 -41 -43 -67t-74 -26q-23 0 -40.5 8.5t-34 18t-32.5 18t-34 8.5q-15 0 -27.5 -11t-24.5 -40l-56 55q21 37 46 59t63 22q25 0 44 -8.5t35 -18t30.5 -18t32.5 -8.5t29.5 12t23.5 46zM193 0h-124v480q23 9 52.5 17t61 14t64.5 9.5t63 3.5q54 0 93 -12
t64.5 -39.5t37.5 -73.5t12 -115v-284h-124v271q0 42 -4.5 69.5t-17 43.5t-33.5 22t-54 6q-46 0 -91 -12v-400z" />
    <glyph glyph-name="oacute" unicode="&#xf3;" 
d="M198 568l121 129h133l-145 -129h-109zM293 424q-33 0 -54.5 -6t-35 -24t-19 -51t-5.5 -88q0 -53 5.5 -86t19 -51.5t35 -25t54.5 -6.5t55.5 6.5t36 25t19 51.5t5.5 86q0 55 -5.5 88t-19 51t-36 24t-55.5 6zM293 -14q-61 0 -106.5 13t-75.5 44t-45 83.5t-15 130.5t15 129.5
t45.5 82t76 43t105.5 12.5q61 0 107 -12.5t76.5 -43t45.5 -82t15 -129.5t-15 -130.5t-45.5 -83.5t-76.5 -44t-107 -13z" />
    <glyph glyph-name="ocircumflex" unicode="&#xf4;" 
d="M360 568l-71 76l-69 -76h-113l122 129h122l126 -129h-117zM293 424q-33 0 -54.5 -6t-35 -24t-19 -51t-5.5 -88q0 -53 5.5 -86t19 -51.5t35 -25t54.5 -6.5t55.5 6.5t36 25t19 51.5t5.5 86q0 55 -5.5 88t-19 51t-36 24t-55.5 6zM293 -14q-61 0 -106.5 13t-75.5 44t-45 83.5
t-15 130.5t15 129.5t45.5 82t76 43t105.5 12.5q61 0 107 -12.5t76.5 -43t45.5 -82t15 -129.5t-15 -130.5t-45.5 -83.5t-76.5 -44t-107 -13z" />
    <glyph glyph-name="odieresis" unicode="&#xf6;" 
d="M400 681q33 0 46 -9.5t13 -45.5q0 -40 -13 -51t-46 -11q-35 0 -47.5 11t-12.5 51q0 18 3 29t10 16.5t18.5 7.5t28.5 2zM186 681q34 0 47 -9.5t13 -45.5q0 -40 -13 -51t-47 -11t-46.5 11t-12.5 51q0 36 12.5 45.5t46.5 9.5zM293 424q-33 0 -54.5 -6t-35 -24t-19 -51
t-5.5 -88q0 -53 5.5 -86t19 -51.5t35 -25t54.5 -6.5t55.5 6.5t36 25t19 51.5t5.5 86q0 55 -5.5 88t-19 51t-36 24t-55.5 6zM293 -14q-61 0 -106.5 13t-75.5 44t-45 83.5t-15 130.5t15 129.5t45.5 82t76 43t105.5 12.5q61 0 107 -12.5t76.5 -43t45.5 -82t15 -129.5
t-15 -130.5t-45.5 -83.5t-76.5 -44t-107 -13z" />
    <glyph glyph-name="ograve" unicode="&#xf2;" 
d="M287 568l-144 129h132l122 -129h-110zM293 424q-33 0 -54.5 -6t-35 -24t-19 -51t-5.5 -88q0 -53 5.5 -86t19 -51.5t35 -25t54.5 -6.5t55.5 6.5t36 25t19 51.5t5.5 86q0 55 -5.5 88t-19 51t-36 24t-55.5 6zM293 -14q-61 0 -106.5 13t-75.5 44t-45 83.5t-15 130.5t15 129.5
t45.5 82t76 43t105.5 12.5q61 0 107 -12.5t76.5 -43t45.5 -82t15 -129.5t-15 -130.5t-45.5 -83.5t-76.5 -44t-107 -13z" />
    <glyph glyph-name="otilde" unicode="&#xf5;" 
d="M475 652q-14 -41 -43 -67t-74 -26q-23 0 -40.5 8.5t-34 18t-32.5 18t-34 8.5q-15 0 -27.5 -11t-24.5 -40l-56 55q21 37 46 59t63 22q25 0 44 -8.5t35 -18t30.5 -18t32.5 -8.5t29.5 12t23.5 46zM293 424q-33 0 -54.5 -6t-35 -24t-19 -51t-5.5 -88q0 -53 5.5 -86t19 -51.5
t35 -25t54.5 -6.5t55.5 6.5t36 25t19 51.5t5.5 86q0 55 -5.5 88t-19 51t-36 24t-55.5 6zM293 -14q-61 0 -106.5 13t-75.5 44t-45 83.5t-15 130.5t15 129.5t45.5 82t76 43t105.5 12.5q61 0 107 -12.5t76.5 -43t45.5 -82t15 -129.5t-15 -130.5t-45.5 -83.5t-76.5 -44t-107 -13
z" />
    <glyph glyph-name="uacute" unicode="&#xfa;" horiz-adv-x="583" 
d="M200 568l121 129h133l-145 -129h-109zM390 509h124v-480q-24 -9 -53 -17t-60.5 -14t-64.5 -9.5t-63 -3.5q-54 0 -93 12t-64.5 39.5t-37.5 73.5t-12 115v284h124v-271q0 -42 4.5 -69.5t16.5 -43.5t33 -22t54 -6q49 0 92 13v399z" />
    <glyph glyph-name="ucircumflex" unicode="&#xfb;" horiz-adv-x="583" 
d="M365 568l-71 76l-69 -76h-113l122 129h122l126 -129h-117zM390 509h124v-480q-24 -9 -53 -17t-60.5 -14t-64.5 -9.5t-63 -3.5q-54 0 -93 12t-64.5 39.5t-37.5 73.5t-12 115v284h124v-271q0 -42 4.5 -69.5t16.5 -43.5t33 -22t54 -6q49 0 92 13v399z" />
    <glyph glyph-name="udieresis" unicode="&#xfc;" horiz-adv-x="583" 
d="M401 681q33 0 46 -9.5t13 -45.5q0 -40 -13 -51t-46 -11q-35 0 -47.5 11t-12.5 51q0 18 3 29t10 16.5t18.5 7.5t28.5 2zM187 681q34 0 47 -9.5t13 -45.5q0 -40 -13 -51t-47 -11t-46.5 11t-12.5 51q0 36 12.5 45.5t46.5 9.5zM390 509h124v-480q-24 -9 -53 -17t-60.5 -14
t-64.5 -9.5t-63 -3.5q-54 0 -93 12t-64.5 39.5t-37.5 73.5t-12 115v284h124v-271q0 -42 4.5 -69.5t16.5 -43.5t33 -22t54 -6q49 0 92 13v399z" />
    <glyph glyph-name="ugrave" unicode="&#xf9;" horiz-adv-x="583" 
d="M280 568l-144 129h132l122 -129h-110zM390 509h124v-480q-24 -9 -53 -17t-60.5 -14t-64.5 -9.5t-63 -3.5q-54 0 -93 12t-64.5 39.5t-37.5 73.5t-12 115v284h124v-271q0 -42 4.5 -69.5t16.5 -43.5t33 -22t54 -6q49 0 92 13v399z" />
    <glyph glyph-name="ydieresis" unicode="&#xff;" horiz-adv-x="511" 
d="M366 681q33 0 46 -9.5t13 -45.5q0 -40 -13 -51t-46 -11q-35 0 -47.5 11t-12.5 51q0 18 3 29t10 16.5t18.5 7.5t28.5 2zM152 681q34 0 47 -9.5t13 -45.5q0 -40 -13 -51t-47 -11t-46.5 11t-12.5 51q0 36 12.5 45.5t46.5 9.5zM180 -25q-19 68 -40.5 138.5t-44.5 139.5
t-47 134t-48 122h129q34 -85 67 -186t59 -200q36 96 69 193.5t57 192.5h126q-38 -131 -87.5 -265t-105.5 -265q-18 -43 -38.5 -88t-40.5 -83h-138q20 36 42 80.5t41 86.5z" />
    <glyph glyph-name="dollar" unicode="$" horiz-adv-x="622" 
d="M435 203q0 34 -16 53.5t-65 28.5v-163q39 7 60 25t21 56zM185 488q0 -34 16.5 -50t64.5 -24v155q-41 -7 -61 -26t-20 -55zM354 825v-138q50 -1 101 -8t88 -19l-29 -110q-12 5 -30 9t-39.5 7t-45 5t-45.5 2v-171q103 -14 153.5 -59.5t50.5 -132.5q0 -98 -51 -145t-153 -57
v-145h-88v142q-52 1 -104.5 7.5t-90.5 18.5l29 111q28 -10 75 -16t91 -8v180q-99 11 -151.5 51t-52.5 125q0 98 51.5 147t152.5 61v143h88z" />
    <glyph glyph-name="cent" unicode="&#xa2;" horiz-adv-x="458" 
d="M170 380q0 -72 18 -105.5t56 -44.5v301q-19 -5 -33 -15t-23 -27.5t-13.5 -44t-4.5 -64.5zM342 751v-104q26 -2 56 -7.5t51 -13.5l-28 -98q-17 8 -38 11.5t-41 4.5v-328q20 2 41 6t38 12l28 -96q-22 -10 -51.5 -16t-55.5 -8v-121h-98v121q-45 6 -80.5 23t-60.5 49
t-38.5 80t-13.5 117q0 68 13.5 115.5t38.5 78t61 47t80 21.5v106h98z" />
    <glyph glyph-name="sterling" unicode="&#xa3;" horiz-adv-x="610" 
d="M36 398h59v79q0 118 66 177t213 59q57 0 114 -8.5t99 -22.5l-29 -113q-15 5 -35.5 9.5t-45 7.5t-51 5t-52.5 2q-83 0 -115 -26t-32 -82v-87h197v-105h-197v-179h339v-114h-471v293h-59v105z" />
    <glyph glyph-name="yen" unicode="&#xa5;" horiz-adv-x="638" 
d="M81 370h128q-65 91 -129 176t-118 151h172q45 -56 94.5 -124.5t99.5 -141.5q53 71 100.5 139.5t83.5 126.5h160q-51 -76 -109 -159t-121 -168h120v-92h-171v-78h171v-92h-171v-108h-132v108h-178v92h178v78h-178v92z" />
    <glyph glyph-name="florin" unicode="&#x192;" horiz-adv-x="376" 
d="M251 509h170l-14 -107h-170l-32 -416q-6 -57 -26.5 -93.5t-50.5 -58t-66 -29.5t-72 -8q-41 0 -78 6.5t-68 17.5l36 96q22 -9 50 -14.5t53 -5.5q20 0 37 4t30 14t21 27.5t10 43.5l32 416h-90l14 107h90l2 34q3 56 21.5 91.5t46 55.5t62.5 27t71 7q38 0 77 -6t66 -16
l-40 -98q-17 6 -45 10t-50 4q-37 0 -60.5 -16.5t-26.5 -65.5v-27z" />
    <glyph glyph-name="numbersign" unicode="#" horiz-adv-x="712" 
d="M274 276h138l11 159h-138zM47 535h129l10 162h116l-11 -162h138l11 162h115l-10 -162h137l-7 -100h-137l-10 -159h139l-7 -99h-138l-12 -177h-115l11 177h-138l-11 -177h-116l12 177h-128l7 99h127l10 159h-129z" />
    <glyph glyph-name="currency" unicode="&#xa4;" horiz-adv-x="674" 
d="M342 515q-33 0 -55.5 -5t-36.5 -21.5t-20.5 -49t-6.5 -87.5q0 -53 6.5 -85t20.5 -49t36.5 -23t55.5 -6t56.5 6t37.5 23t20.5 49t6.5 85q0 55 -6.5 87.5t-20.5 49t-37.5 21.5t-56.5 5zM342 83q-64 0 -104 17l-80 -100l-104 75l80 103q-34 61 -34 177q0 56 8 97.5t23 70.5
l-77 102l114 72l70 -93q40 17 104 17q30 0 55.5 -3.5t46.5 -11.5l61 91l114 -71l-68 -97q35 -61 35 -174q0 -60 -9 -103t-26 -74l74 -103l-112 -75l-70 98q-42 -15 -101 -15z" />
    <glyph glyph-name="zero" unicode="0" horiz-adv-x="626" 
d="M313 105q39 0 64 10t40 37.5t21 77t6 128.5t-6 126.5t-21 72.5t-40 32.5t-64 7.5q-38 0 -63 -7.5t-40 -32.5t-21 -72.5t-6 -126.5t6 -128.5t21 -77t40 -37.5t63 -10zM313 714q65 0 114 -16t82 -56.5t49.5 -109t16.5 -174.5q0 -107 -16.5 -178.5t-49.5 -114.5t-82 -61
t-114 -18t-114 18t-82 61t-49.5 114.5t-16.5 178.5q0 106 16.5 174.5t49.5 109t82 56.5t114 16z" />
    <glyph glyph-name="one" unicode="1" horiz-adv-x="626" 
d="M281 0v556l-156 -67l-37 108l322 129v-726h-129z" />
    <glyph glyph-name="two" unicode="2" horiz-adv-x="626" 
d="M74 682q44 14 103 23t119 9q65 0 113.5 -9.5t80.5 -32.5t48 -63t16 -100q0 -36 -4.5 -65t-17.5 -57t-36 -55.5t-59.5 -59.5t-88 -70.5t-122.5 -87.5h327v-114h-506v106q86 66 147 113.5t102 82.5t64.5 60.5t35.5 47t15 42t3 46.5q0 57 -29.5 77t-99.5 20q-23 0 -49 -2
t-50.5 -6t-46.5 -8.5t-37 -10.5z" />
    <glyph glyph-name="three" unicode="3" horiz-adv-x="626" 
d="M193 422h96q64 0 90.5 19t26.5 70q0 24 -6 40t-22.5 26t-46 14.5t-75.5 4.5q-20 0 -44 -1.5t-48 -4.5t-45.5 -7t-37.5 -9l-26 114q45 10 105.5 18t120.5 8q75 0 125.5 -10t81.5 -31.5t44 -55.5t13 -81q0 -35 -6 -63.5t-22 -50.5t-45.5 -35.5t-75.5 -17.5q49 -2 81 -16
t50 -37.5t25 -56t7 -71.5q0 -57 -16 -95.5t-50 -62t-87 -34t-127 -10.5q-27 0 -57.5 2t-60.5 5.5t-58.5 8t-52.5 9.5l25 114q17 -5 39.5 -8.5t46.5 -6t48 -4t44 -1.5q50 0 82 5t50 17t24.5 31.5t6.5 47.5q0 59 -28.5 81.5t-95.5 22.5h-99v112z" />
    <glyph glyph-name="four" unicode="4" horiz-adv-x="622" 
d="M365 583q-25 -33 -52 -73.5t-52.5 -81t-47.5 -77.5t-36 -63h188v295zM17 179v41q27 49 63.5 111.5t76.5 127t81 127t77 111.5h176v-409h93v-109h-93v-179h-126v179h-348z" />
    <glyph glyph-name="five" unicode="5" horiz-adv-x="626" 
d="M528 697v-114h-307v-155q20 2 41 3t42 1q73 0 122.5 -12t79 -38t42 -67.5t12.5 -99.5q0 -66 -15 -110.5t-47.5 -70.5t-84.5 -37t-127 -11q-25 0 -54.5 2t-59.5 5.5t-58 8t-50 9.5l26 114q16 -5 37 -8.5t44 -6t46.5 -4t43.5 -1.5q48 0 78.5 4.5t48 16.5t23.5 32t6 50
q0 33 -5.5 54.5t-21.5 34t-45.5 18t-77.5 5.5q-41 0 -88.5 -3.5t-82.5 -10.5v391h432z" />
    <glyph glyph-name="six" unicode="6" horiz-adv-x="626" 
d="M323 105q38 0 62.5 5.5t38 17.5t18.5 31.5t5 48.5q0 30 -5 51t-18.5 34.5t-38 20t-63.5 6.5q-38 0 -71 -3t-58 -7q1 -65 9.5 -105.5t24 -62.5t39.5 -29.5t57 -7.5zM533 571q-28 11 -72 17t-92 6q-40 0 -71.5 -6.5t-54 -25t-35 -52.5t-13.5 -89q30 5 66.5 8t65.5 3
q73 0 122.5 -12t79.5 -38t43 -67.5t13 -99.5q0 -66 -14 -110.5t-45.5 -70.5t-81 -37t-121.5 -11q-74 0 -125.5 17.5t-83.5 59.5t-46 113t-14 178t17.5 176.5t55.5 110.5t97.5 57t144.5 16q47 0 99.5 -7.5t93.5 -19.5z" />
    <glyph glyph-name="seven" unicode="7" horiz-adv-x="626" 
d="M602 657q-23 -37 -50 -86.5t-55 -106t-56 -118t-54 -122t-48.5 -118t-38.5 -106.5h-149q27 75 61.5 158.5t71.5 162.5t74 147.5t69 114.5h-360v114h535v-40z" />
    <glyph glyph-name="eight" unicode="8" horiz-adv-x="626" 
d="M313 -14q-71 0 -121 10.5t-81.5 34.5t-45.5 62.5t-14 94.5q0 39 7 71.5t25 56t49.5 37.5t81.5 16q-47 4 -76 17.5t-45 35.5t-21.5 50.5t-5.5 63.5q0 46 11.5 79.5t39.5 55.5t75.5 32.5t120.5 10.5t120.5 -10.5t75.5 -32.5t39.5 -55.5t11.5 -79.5q0 -35 -5.5 -63.5
t-21.5 -50.5t-45 -35.5t-76 -17.5q50 -2 81.5 -16t49.5 -37.5t25 -56t7 -71.5q0 -56 -14 -94.5t-45.5 -62.5t-81 -34.5t-121.5 -10.5zM313 417q60 0 86.5 22t26.5 76q0 52 -25.5 70.5t-87.5 18.5q-63 0 -88.5 -18.5t-25.5 -70.5q0 -54 27 -76t87 -22zM313 94q36 0 60 5.5
t38.5 18t20.5 33t6 50.5q0 61 -27.5 87t-97.5 26t-97 -26t-27 -87q0 -30 6 -50.5t20 -33t38 -18t60 -5.5z" />
    <glyph glyph-name="nine" unicode="9" horiz-adv-x="626" 
d="M323 380q27 0 55 1.5t53 5.5q9 34 9 72q0 45 -6.5 72.5t-21 41.5t-39 18.5t-60.5 4.5q-39 0 -63 -6.5t-37.5 -20t-18.5 -35t-5 -50.5q0 -32 5 -52.5t20 -32t41 -15.5t68 -4zM171 0q70 66 130 135t95 138q-9 -1 -21 -2t-24.5 -1.5t-23.5 -1t-18 -0.5q-74 0 -123.5 11
t-79.5 35.5t-42.5 64.5t-12.5 99q0 66 14 111.5t45 73t81 39.5t122 12q79 0 130.5 -11t81.5 -39t42 -74.5t12 -116.5q0 -75 -19.5 -140t-53 -123.5t-78 -110t-93.5 -99.5h-164z" />
    <glyph glyph-name="ampersand" unicode="&#x26;" horiz-adv-x="796" 
d="M332 417q56 0 85.5 21.5t29.5 75.5q0 52 -25 71t-84 19t-84 -18.5t-25 -70.5q0 -54 23 -76t80 -22zM313 94q31 0 57 3.5t48.5 12t44 21.5t44.5 33q-54 72 -98.5 111t-89.5 39q-67 0 -98 -26t-31 -87q0 -30 5.5 -50.5t20 -33t38 -18t59.5 -5.5zM761 396q0 -66 -25 -127.5
t-70 -114.5q26 -33 52 -71t56 -83h-150q-24 40 -49 75q-30 -23 -59.5 -39.5t-60.5 -27.5t-65.5 -16.5t-76.5 -5.5q-71 0 -121 9.5t-81.5 32.5t-46 60.5t-14.5 93.5q0 79 43.5 127t143.5 53q-47 4 -75 17.5t-42.5 35t-19 50t-4.5 63.5q0 45 11.5 80t39 58.5t74 35.5t117.5 12
q68 0 114.5 -10t75 -31.5t40.5 -54.5t12 -79q0 -35 -7.5 -63.5t-25.5 -50t-49 -35t-78 -17.5q33 -3 73 -31t94 -95q20 32 30.5 69.5t10.5 79.5h133z" />
    <glyph glyph-name="percent" unicode="%" horiz-adv-x="959" 
d="M742 74q21 0 35 5.5t22 21.5t11.5 43.5t3.5 71.5t-3.5 70.5t-11.5 41t-22 19t-35 4.5t-35 -4.5t-22.5 -19t-12 -41t-3.5 -70.5t3.5 -71.5t12 -43.5t22.5 -21.5t35 -5.5zM742 439q48 0 82.5 -10t56.5 -35t32.5 -68t10.5 -109q0 -67 -10.5 -111.5t-32.5 -71t-56.5 -37.5
t-82.5 -11t-82.5 11t-56.5 37.5t-32.5 71t-10.5 111.5q0 66 10.5 109t32.5 68t56.5 35t82.5 10zM217 349q21 0 35 5.5t22 21.5t11.5 43t3.5 71t-3.5 70.5t-11.5 41t-22 19.5t-35 5t-35 -5t-22.5 -19.5t-12 -41t-3.5 -70.5t3.5 -71t12 -43t22.5 -21.5t35 -5.5zM217 714
q48 0 82.5 -10t56.5 -35t32.5 -68.5t10.5 -109.5q0 -67 -10.5 -111.5t-32.5 -71t-56.5 -37.5t-82.5 -11t-82.5 11t-56.5 37.5t-32.5 71t-10.5 111.5q0 66 10.5 109.5t32.5 68.5t56.5 35t82.5 10zM750 697l-429 -697h-116l428 697h117z" />
    <glyph glyph-name="perthousand" unicode="&#x2030;" horiz-adv-x="1354" 
d="M1137 74q21 0 35 5.5t22 21.5t11.5 43.5t3.5 71.5t-3.5 70.5t-11.5 41t-22 19t-35 4.5t-35 -4.5t-22.5 -19t-12 -41t-3.5 -70.5t3.5 -71.5t12 -43.5t22.5 -21.5t35 -5.5zM1137 439q48 0 82.5 -10t56.5 -35t32.5 -68t10.5 -109q0 -67 -10.5 -111.5t-32.5 -71t-56.5 -37.5
t-82.5 -11t-82.5 11t-56.5 37.5t-32.5 71t-10.5 111.5q0 66 10.5 109t32.5 68t56.5 35t82.5 10zM742 74q21 0 35 5.5t22 21.5t11.5 43.5t3.5 71.5t-3.5 70.5t-11.5 41t-22 19t-35 4.5t-35 -4.5t-22.5 -19t-12 -41t-3.5 -70.5t3.5 -71.5t12 -43.5t22.5 -21.5t35 -5.5z
M742 439q48 0 82.5 -10t56.5 -35t32.5 -68t10.5 -109q0 -67 -10.5 -111.5t-32.5 -71t-56.5 -37.5t-82.5 -11t-82.5 11t-56.5 37.5t-32.5 71t-10.5 111.5q0 66 10.5 109t32.5 68t56.5 35t82.5 10zM217 349q21 0 35 5.5t22 21.5t11.5 43t3.5 71t-3.5 70.5t-11.5 41t-22 19.5
t-35 5t-35 -5t-22.5 -19.5t-12 -41t-3.5 -70.5t3.5 -71t12 -43t22.5 -21.5t35 -5.5zM217 714q48 0 82.5 -10t56.5 -35t32.5 -68.5t10.5 -109.5q0 -67 -10.5 -111.5t-32.5 -71t-56.5 -37.5t-82.5 -11t-82.5 11t-56.5 37.5t-32.5 71t-10.5 111.5q0 66 10.5 109.5t32.5 68.5
t56.5 35t82.5 10zM750 697l-429 -697h-116l428 697h117z" />
    <glyph glyph-name="fraction" unicode="&#x2044;" horiz-adv-x="593" 
d="M577 697l-439 -697h-116l438 697h117z" />
    <glyph glyph-name="fraction" unicode="&#x2215;" horiz-adv-x="593" 
d="M577 697l-439 -697h-116l438 697h117z" />
    <glyph glyph-name="asciicircum" unicode="^" horiz-adv-x="531" 
d="M263 562l-119 -266h-131l192 401h119l194 -401h-134z" />
    <glyph glyph-name="asciitilde" unicode="~" horiz-adv-x="582" 
d="M546 382q-18 -48 -57 -81.5t-96 -33.5q-29 0 -58 13.5t-57 29.5t-54.5 29.5t-49.5 13.5q-18 0 -33.5 -12.5t-30.5 -47.5l-72 69q26 44 57.5 70.5t79.5 26.5q32 0 63 -13t59 -28.5t53.5 -28.5t47.5 -13q23 0 38.5 14.5t29.5 54.5z" />
    <glyph glyph-name="periodcentered" unicode="&#xb7;" horiz-adv-x="297" 
d="M147 379q25 0 41.5 -2.5t26.5 -11t14 -23.5t4 -39q0 -27 -4 -43.5t-14 -25.5t-26.5 -12t-41.5 -3q-23 0 -39 3t-26 12t-14 25.5t-4 43.5q0 24 4 39t14 23.5t26 11t39 2.5z" />
    <glyph glyph-name="periodcentered" unicode="&#x2219;" horiz-adv-x="297" 
d="M147 379q25 0 41.5 -2.5t26.5 -11t14 -23.5t4 -39q0 -27 -4 -43.5t-14 -25.5t-26.5 -12t-41.5 -3q-23 0 -39 3t-26 12t-14 25.5t-4 43.5q0 24 4 39t14 23.5t26 11t39 2.5z" />
    <glyph glyph-name="plus" unicode="+" horiz-adv-x="582" 
d="M48 421h183v184h119v-184h184v-118h-184v-184h-119v184h-183v118z" />
    <glyph glyph-name="plusminus" unicode="&#xb1;" horiz-adv-x="582" 
d="M48 137h486v-118h-486v118zM48 498h183v184h119v-184h184v-118h-184v-184h-119v184h-183v118z" />
    <glyph glyph-name="less" unicode="&#x3c;" horiz-adv-x="582" 
d="M247 362l268 -227l-65 -90l-366 285v61l364 284l67 -88z" />
    <glyph glyph-name="equal" unicode="=" horiz-adv-x="582" 
d="M48 553h486v-118h-486v118zM48 286h486v-118h-486v118z" />
    <glyph glyph-name="greater" unicode="&#x3e;" horiz-adv-x="582" 
d="M353 359l-268 228l65 89l365 -285v-61l-364 -284l-66 88z" />
    <glyph glyph-name="approxequal" unicode="&#x2248;" horiz-adv-x="582" 
d="M546 470q-18 -48 -57 -81t-96 -33q-29 0 -58 13.5t-57 29t-54.5 29t-49.5 13.5q-18 0 -33.5 -12.5t-30.5 -47.5l-72 69q26 44 57.5 71t79.5 27q32 0 63 -13t59 -28.5t53.5 -28.5t47.5 -13q23 0 38.5 14t29.5 54zM546 257q-18 -48 -57 -81t-96 -33q-29 0 -58 13.5t-57 29
t-54.5 29t-49.5 13.5q-18 0 -33.5 -12.5t-30.5 -47.5l-72 69q26 44 57.5 71t79.5 27q32 0 63 -13t59 -28.5t53.5 -28.5t47.5 -13q23 0 38.5 14t29.5 54z" />
    <glyph glyph-name="notequal" unicode="&#x2260;" horiz-adv-x="582" 
d="M504 648l-52 -95h82v-118h-143l-79 -149h222v-118h-282l-52 -96h-123l51 96h-80v118h141l79 149h-220v118h280l52 95h124z" />
    <glyph glyph-name="lessequal" unicode="&#x2264;" horiz-adv-x="582" 
d="M238 436l261 -195l-63 -82l-360 250v52l359 249l64 -81zM48 137h486v-118h-486v118z" />
    <glyph glyph-name="greaterequal" unicode="&#x2265;" horiz-adv-x="582" 
d="M84 629l64 81l359 -249v-52l-361 -250l-62 82l260 195zM535 19h-486v118h486v-118z" />
    <glyph glyph-name="divide" unicode="&#xf7;" horiz-adv-x="582" 
d="M289 645q23 0 38.5 -2.5t24.5 -10t13 -21t4 -36.5q0 -25 -4 -40t-13 -23.5t-24.5 -11t-38.5 -2.5q-22 0 -36.5 2.5t-23.5 11t-13 23.5t-4 40q0 23 4 36.5t13 21t23.5 10t36.5 2.5zM289 224q23 0 38.5 -2.5t24.5 -10t13 -21.5t4 -37q0 -25 -4 -40t-13 -23.5t-24.5 -11
t-38.5 -2.5q-22 0 -36.5 2.5t-23.5 11t-13 23.5t-4 40q0 23 4 37t13 21.5t23.5 10t36.5 2.5zM48 421h486v-118h-486v118z" />
    <glyph glyph-name="partialdiff" unicode="&#x2202;" horiz-adv-x="626" 
d="M440 238q0 37 -9 72q-25 4 -53 5.5t-55 1.5q-42 0 -68 -4.5t-41 -16t-20 -32t-5 -52.5q0 -29 5 -50t18.5 -34.5t37.5 -20t63 -6.5q36 0 60.5 4t39 18.5t21 41.5t6.5 73zM309 428q18 0 41 -1.5t46 -3.5q-35 69 -95 138t-130 136h164q49 -48 93.5 -99.5t78 -110t53 -123.5
t19.5 -140q0 -71 -12 -117t-42 -74t-81.5 -39t-130.5 -11q-72 0 -122 12t-81 39.5t-45 72.5t-14 111q0 58 12.5 98.5t42.5 65t79.5 35.5t123.5 11z" />
    <glyph glyph-name="product" unicode="&#x220f;" horiz-adv-x="736" 
d="M220 0h-132v697h560v-697h-130v578h-298v-578z" />
    <glyph glyph-name="summation" unicode="&#x2211;" horiz-adv-x="622" 
d="M394 345q-45 -66 -87 -125t-80 -107h371v-113h-594q25 33 53.5 74.5t59 86.5t62 92.5t61.5 92.5q-30 46 -61 94t-59.5 94t-54.5 87.5t-46 75.5h576v-114h-357q30 -47 70.5 -108.5t85.5 -129.5z" />
    <glyph glyph-name="radical" unicode="&#x221a;" horiz-adv-x="578" 
d="M165 509q35 -86 67.5 -185.5t58.5 -198.5q12 32 28.5 77.5t34.5 98.5t36.5 109.5t35.5 109.5t31 99t22 78h126q-12 -41 -30 -97.5t-39.5 -120t-45 -131t-46.5 -131t-44.5 -120t-38.5 -97.5h-153q-29 99 -60.5 198t-65.5 189h-82v122h165z" />
    <glyph glyph-name="infinity" unicode="&#x221e;" horiz-adv-x="773" 
d="M436 351q0 -53 23 -76t79 -23q54 0 74 22t20 77t-20 77t-74 22q-56 0 -79 -23t-23 -76zM387 264q-4 -41 -18.5 -66.5t-37 -39.5t-52.5 -19t-66 -5q-48 0 -83 10t-58 34.5t-34 66.5t-11 106q0 63 11 105t34 66.5t58 34.5t83 10q36 0 66 -5t52.5 -19t37 -39t18.5 -66
q4 41 18 66.5t36.5 39.5t52.5 18.5t66 4.5q48 0 83 -10t58 -34.5t34 -66t11 -105.5t-11 -106t-34 -66.5t-58 -34.5t-83 -10q-36 0 -66 5t-52.5 19t-36.5 39.5t-18 66.5zM337 351q0 53 -23 76t-79 23q-54 0 -74 -22t-20 -77q0 -56 20 -78t74 -22q56 0 79 23.5t23 76.5z" />
    <glyph glyph-name="integral" unicode="&#x222b;" horiz-adv-x="339" 
d="M378 604q-18 6 -46 10t-51 4q-18 0 -33 -3t-26 -12t-17 -25t-6 -42v-550q0 -57 -17 -93.5t-45 -58t-63.5 -29.5t-72.5 -8t-76.5 6t-71.5 18l25 96q23 -9 52.5 -14.5t58.5 -5.5q38 0 62 20.5t24 68.5v557q0 51 14.5 85.5t39.5 55.5t58.5 30.5t72.5 9.5q36 0 76.5 -6
t69.5 -16z" />
    <glyph glyph-name="lozenge" unicode="&#x25ca;" horiz-adv-x="600" 
d="M443 266q-14 35 -32 80.5t-36 92.5t-34.5 90.5t-26.5 75.5h-27q-13 -32 -31 -75t-37.5 -90t-38 -92.5t-31.5 -81.5q13 -36 31.5 -82t38 -92.5t37.5 -90t31 -74.5h27q10 31 26.5 74.5t34.5 90.5t36 93t32 81zM582 265q-48 -110 -90.5 -217t-80.5 -216h-207
q-48 104 -94 211t-91 222q45 115 91 223t94 211h207q38 -109 80.5 -216t90.5 -218z" />
    <glyph glyph-name="logicalnot" unicode="&#xac;" horiz-adv-x="519" 
d="M355 0v311h-326v117h457v-428h-131z" />
    <glyph glyph-name="bar" unicode="|" horiz-adv-x="371" 
d="M251 755v-1011h-131v1011h131z" />
    <glyph glyph-name="degree" unicode="&#xb0;" horiz-adv-x="434" 
d="M217 349q21 0 35 5.5t22 21.5t11.5 43t3.5 71t-3.5 70.5t-11.5 41t-22 19.5t-35 5t-35 -5t-22.5 -19.5t-12 -41t-3.5 -70.5t3.5 -71t12 -43t22.5 -21.5t35 -5.5zM217 714q48 0 82.5 -10t56.5 -35t32.5 -68.5t10.5 -109.5q0 -67 -10.5 -111.5t-32.5 -71t-56.5 -37.5
t-82.5 -11t-82.5 11t-56.5 37.5t-32.5 71t-10.5 111.5q0 66 10.5 109.5t32.5 68.5t56.5 35t82.5 10z" />
    <glyph glyph-name="ordfeminine" unicode="&#xaa;" horiz-adv-x="435" 
d="M288 413v89q-14 4 -32 5.5t-38 1.5q-32 0 -49 -8.5t-17 -42.5q0 -32 13 -44.5t52 -12.5q19 0 37.5 3.5t33.5 8.5zM375 362q-17 -6 -37.5 -11.5t-42.5 -9t-44 -5.5t-41 -2q-42 0 -71 5.5t-46.5 19t-25 36.5t-7.5 59q0 38 10 61.5t28.5 36t44.5 16.5t57 4q45 0 88 -10
q0 24 -4 39t-13.5 23.5t-27 11.5t-44.5 3q-29 0 -57 -4t-51 -12l-15 72q27 7 65 13t77 6t68.5 -6.5t49 -22.5t29.5 -42t10 -66v-215z" />
    <glyph glyph-name="ordmasculine" unicode="&#xba;" horiz-adv-x="460" 
d="M229 635q-22 0 -37 -4t-24 -16.5t-12.5 -35.5t-3.5 -60q0 -36 3.5 -58.5t12.5 -35t24 -17.5t37 -5t37.5 5t24.5 17.5t13 35t4 58.5q0 37 -4 60t-13 35.5t-24.5 16.5t-37.5 4zM229 324q-42 0 -74.5 10t-54.5 33t-33.5 60.5t-11.5 92.5t11.5 92.5t33.5 60t54.5 32t74.5 9.5
q43 0 76 -9.5t55 -32t33.5 -60t11.5 -92.5t-11.5 -92.5t-33.5 -60.5t-55 -33t-76 -10z" />
    <glyph glyph-name="underscore" unicode="_" horiz-adv-x="470" 
d="M29 -48h412v-118h-412v118z" />
    <glyph glyph-name="emdash" unicode="&#x2014;" horiz-adv-x="865" 
d="M49 340h767v-118h-767v118z" />
    <glyph glyph-name="endash" unicode="&#x2013;" horiz-adv-x="578" 
d="M49 340h480v-118h-480v118z" />
    <glyph glyph-name="hyphen" unicode="-" horiz-adv-x="304" 
d="M29 340h246v-118h-246v118z" />
    <glyph glyph-name="hyphen" unicode="&#xad;" horiz-adv-x="304" 
d="M29 340h246v-118h-246v118z" />
    <glyph glyph-name="quotesingle" unicode="'" horiz-adv-x="202" 
d="M157 697l-19 -240h-82l-11 240h112z" />
    <glyph glyph-name="quotedbl" unicode="&#x22;" horiz-adv-x="370" 
d="M325 697l-19 -240h-81l-9 240h109zM157 697l-19 -240h-82l-11 240h112z" />
    <glyph glyph-name="quotedblleft" unicode="&#x201c;" horiz-adv-x="450" 
d="M327 767h100l-78 -262h-131zM133 767h100l-78 -262h-131z" />
    <glyph glyph-name="guillemotleft" unicode="&#xab;" horiz-adv-x="668" 
d="M465 314l176 -208l-70 -75l-271 281l270 279l71 -73zM192 314l176 -208l-70 -75l-271 281l270 279l71 -73z" />
    <glyph glyph-name="guilsinglleft" unicode="&#x2039;" horiz-adv-x="395" 
d="M192 314l176 -208l-70 -75l-271 281l270 279l71 -73z" />
    <glyph glyph-name="guilsinglright" unicode="&#x203a;" horiz-adv-x="395" 
d="M204 309l-177 209l70 74l272 -280l-270 -280l-72 73z" />
    <glyph glyph-name="guillemotright" unicode="&#xbb;" horiz-adv-x="668" 
d="M204 309l-177 209l70 74l272 -280l-270 -280l-72 73zM477 309l-177 209l70 74l272 -280l-270 -280l-72 73z" />
    <glyph glyph-name="quotesinglbase" unicode="&#x201a;" horiz-adv-x="245" 
d="M118 -159h-100l78 262h131z" />
    <glyph glyph-name="quotedblbase" unicode="&#x201e;" horiz-adv-x="450" 
d="M123 -164h-100l78 262h131zM317 -164h-100l78 262h131z" />
    <glyph glyph-name="quotedblright" unicode="&#x201d;" horiz-adv-x="450" 
d="M123 501h-100l78 262h131zM317 501h-100l78 262h131z" />
    <glyph glyph-name="quoteright" unicode="&#x2019;" horiz-adv-x="255" 
d="M123 500h-100l78 262h131z" />
    <glyph glyph-name="quoteleft" unicode="&#x2018;" horiz-adv-x="255" 
d="M133 767h100l-78 -262h-131z" />
    <glyph glyph-name="comma" unicode="," horiz-adv-x="285" 
d="M121 -159h-111l78 262h148z" />
    <glyph glyph-name="period" unicode="." horiz-adv-x="285" 
d="M141 143q23 0 38.5 -2.5t24.5 -10t13 -21t4 -36.5q0 -25 -4 -40t-13 -23.5t-24.5 -11.5t-38.5 -3q-22 0 -36.5 3t-23.5 11.5t-13 23.5t-4 40q0 23 4 36.5t13 21t23.5 10t36.5 2.5z" />
    <glyph glyph-name="colon" unicode=":" horiz-adv-x="285" 
d="M141 515q23 0 38.5 -2.5t24.5 -10t13 -21.5t4 -37q0 -25 -4 -40t-13 -23.5t-24.5 -11t-38.5 -2.5q-22 0 -36.5 2.5t-23.5 11t-13 23.5t-4 40q0 23 4 37t13 21.5t23.5 10t36.5 2.5zM141 143q23 0 38.5 -2.5t24.5 -10t13 -21t4 -36.5q0 -25 -4 -40t-13 -23.5t-24.5 -11.5
t-38.5 -3q-22 0 -36.5 3t-23.5 11.5t-13 23.5t-4 40q0 23 4 36.5t13 21t23.5 10t36.5 2.5z" />
    <glyph glyph-name="semicolon" unicode=";" horiz-adv-x="285" 
d="M141 515q23 0 38.5 -2.5t24.5 -10t13 -21.5t4 -37q0 -25 -4 -40t-13 -23.5t-24.5 -11t-38.5 -2.5q-22 0 -36.5 2.5t-23.5 11t-13 23.5t-4 40q0 23 4 37t13 21.5t23.5 10t36.5 2.5zM121 -159h-111l78 262h148z" />
    <glyph glyph-name="ellipsis" unicode="&#x2026;" horiz-adv-x="1141" 
d="M920 143q23 0 38.5 -2.5t24.5 -10t13 -21t4 -36.5q0 -25 -4 -40t-13 -23.5t-24.5 -11.5t-38.5 -3q-21 0 -36 3t-24 11.5t-13 23.5t-4 40q0 23 4 36.5t13 21t24 10t36 2.5zM569 143q22 0 37.5 -2.5t24.5 -10t13 -21t4 -36.5q0 -25 -4 -40t-13 -23.5t-24.5 -11.5t-37.5 -3
t-37 3t-24 11.5t-13 23.5t-4 40q0 23 4 36.5t13 21t24 10t37 2.5zM218 143q23 0 38.5 -2.5t24.5 -10t13 -21t4 -36.5q0 -25 -4 -40t-13 -23.5t-24.5 -11.5t-38.5 -3q-22 0 -36.5 3t-23.5 11.5t-13 23.5t-4 40q0 23 4 36.5t13 21t23.5 10t36.5 2.5z" />
    <glyph glyph-name="question" unicode="?" horiz-adv-x="493" 
d="M170 215q37 40 65 75.5t46.5 70t27.5 70t9 76.5q0 21 -5.5 37t-19.5 27t-37.5 17t-58.5 6q-44 0 -81 -5.5t-62 -15.5l-27 116q17 5 39.5 9.5t47.5 8t49.5 5.5t44.5 2q70 0 119.5 -12.5t80.5 -38t45 -63.5t14 -88q0 -42 -11.5 -80.5t-33.5 -74.5t-52.5 -71t-69.5 -71h-130
zM235 143q23 0 38.5 -2.5t24.5 -10t13 -21t4 -36.5q0 -25 -4 -40t-13 -23.5t-24.5 -11t-38.5 -2.5q-22 0 -36.5 2.5t-23.5 11t-13 23.5t-4 40q0 23 4 36.5t13 21t23.5 10t36.5 2.5z" />
    <glyph glyph-name="questiondown" unicode="&#xbf;" horiz-adv-x="493" 
d="M324 305q-37 -40 -65 -75.5t-46.5 -70t-27.5 -70.5t-9 -76q0 -21 5.5 -37t19.5 -27t37.5 -17t58.5 -6q44 0 81 5.5t62 15.5l27 -116q-17 -5 -39.5 -9.5t-47.5 -8t-49.5 -5.5t-44.5 -2q-70 0 -119.5 12.5t-80.5 38t-45 63.5t-14 88q0 42 11.5 80t33.5 74t52.5 71.5
t69.5 71.5h130zM259 377q-23 0 -38.5 2.5t-24.5 10t-13 21t-4 36.5q0 25 4 40t13 23t24.5 11t38.5 3q22 0 36.5 -3t23.5 -11t13 -23t4 -40q0 -23 -4 -36.5t-13 -21t-23.5 -10t-36.5 -2.5z" />
    <glyph glyph-name="exclam" unicode="!" horiz-adv-x="332" 
d="M166 143q22 0 37.5 -2.5t25 -10t13.5 -21t4 -36.5q0 -25 -4 -40t-13.5 -23.5t-25 -11.5t-37.5 -3t-37 3t-24 11.5t-13 23.5t-4 40q0 23 4 36.5t13 21t24 10t37 2.5zM242 697l-31 -474h-91l-31 474h153z" />
    <glyph glyph-name="exclamdown" unicode="&#xa1;" horiz-adv-x="332" 
d="M166 376q-23 0 -38 2.5t-24 10t-13 21t-4 36.5q0 25 4 40t13 23.5t24 11.5t38 3q22 0 37 -3t24 -11.5t13 -23.5t4 -40q0 -23 -4 -36.5t-13 -21t-24 -10t-37 -2.5zM90 -178l32 474h90l32 -474h-154z" />
    <glyph glyph-name="parenleft" unicode="(" horiz-adv-x="303" 
d="M68 249q0 119 17 207t47 150t70 100.5t86 59.5l57 -93q-30 -15 -57 -43t-46.5 -77.5t-31 -123.5t-11.5 -180q0 -105 11.5 -179t31 -123.5t46.5 -78t57 -43.5l-57 -93q-46 21 -86 59.5t-70 100.5t-47 150t-17 207z" />
    <glyph glyph-name="parenright" unicode=")" horiz-adv-x="303" 
d="M235 249q0 -119 -17 -207t-47 -150t-70 -100.5t-86 -59.5l-58 93q30 15 57 43t46.5 77.5t31 123.5t11.5 180q0 105 -11.5 179t-31 123.5t-46.5 78t-57 43.5l58 93q46 -21 86 -59.5t70 -100.5t47 -150t17 -207z" />
    <glyph glyph-name="bracketleft" unicode="[" horiz-adv-x="341" 
d="M360 755v-108h-141v-800h141v-107h-270v1015h270z" />
    <glyph glyph-name="bracketright" unicode="]" horiz-adv-x="341" 
d="M251 755v-1015h-270v107h141v800h-141v108h270z" />
    <glyph glyph-name="braceleft" unicode="{" horiz-adv-x="338" 
d="M31 197v103q22 0 42 9t35 31.5t24 61.5t9 99q0 64 14 109.5t37 77t52.5 50t60.5 29.5l59 -93q-24 -9 -43.5 -22t-32.5 -37t-20 -61t-7 -93q0 -59 -9 -98.5t-22.5 -63.5t-29 -35t-27.5 -15q12 -4 27.5 -15.5t29 -36t22.5 -64t9 -98.5q0 -56 6.5 -93t19.5 -60.5t32.5 -37
t44.5 -22.5l-59 -92q-31 10 -60.5 29.5t-52.5 51t-37 77t-14 109.5q0 60 -9 99t-24 61.5t-35 31.5t-42 9v-1z" />
    <glyph glyph-name="braceright" unicode="}" horiz-adv-x="338" 
d="M307 198q-22 0 -42 -9t-35 -31.5t-24 -61.5t-9 -99q0 -64 -14 -109.5t-37 -77t-52.5 -50.5t-60.5 -29q-15 23 -29.5 46.5t-29.5 46.5q24 9 43.5 22t32.5 37t20 61t7 93q0 59 9 98t22.5 63t29 35.5t27.5 15.5q-12 4 -27.5 15.5t-29 36t-22.5 64t-9 98.5q0 56 -6.5 93
t-19.5 60.5t-32.5 36.5t-44.5 22q15 23 29.5 46t29.5 46q31 -11 60.5 -29.5t52.5 -50t37 -77t14 -109.5q0 -60 9 -99t24 -61.5t35 -31.5t42 -9v-26v-76z" />
    <glyph glyph-name="slash" unicode="/" horiz-adv-x="467" 
d="M505 697l-356 -697h-134l356 697h134z" />
    <glyph glyph-name="backslash" unicode="\" horiz-adv-x="467" 
d="M105 697l356 -697h-134l-356 697h134z" />
    <glyph glyph-name="asterisk" unicode="*" horiz-adv-x="494" 
d="M30 579h129l-65 113l89 50l64 -112l64 112l89 -50l-66 -113h130v-100h-130l65 -113l-88 -49l-64 110l-64 -110l-89 50l65 112h-129v100z" />
    <glyph glyph-name="bullet" unicode="&#x2022;" 
d="M293 56q-61 0 -106.5 13t-75.5 44t-45 83.5t-15 130.5t15 129.5t45.5 82t76 43t105.5 12.5q61 0 107 -12.5t76.5 -43t45.5 -82t15 -129.5t-15 -130.5t-45.5 -83.5t-76.5 -44t-107 -13z" />
    <glyph glyph-name="section" unicode="&#xa7;" horiz-adv-x="622" 
d="M195 334q-8 -11 -13 -24.5t-5 -32.5t7 -33t25.5 -24t51 -17t84.5 -11q26 -2 48 -6t39 -10q8 11 13 24.5t5 32.5t-7 33.5t-25.5 24.5t-51 16.5t-84.5 10.5q-26 2 -48 5.5t-39 10.5zM524 576q-28 10 -76.5 17t-99.5 7q-80 0 -116 -20t-36 -68q0 -18 6 -31.5t22.5 -23
t45 -16t74.5 -10.5q116 -12 177.5 -56t61.5 -135q0 -33 -13 -63.5t-33 -55.5q36 -39 36 -108q0 -114 -77.5 -165t-216.5 -51q-54 0 -109 8t-94 22l27 108q28 -11 76.5 -17.5t99.5 -6.5q81 0 116.5 20t35.5 67q0 18 -6 31.5t-22 23.5t-44.5 16.5t-74.5 10.5q-117 11 -178 55
t-61 135q0 35 11.5 65.5t31.5 56.5q-33 39 -33 105q0 114 77 165.5t217 51.5q54 0 108.5 -8t93.5 -22z" />
    <glyph glyph-name="dagger" unicode="&#x2020;" horiz-adv-x="446" 
d="M30 579h141v143h103v-143h142v-100h-142v-228h-103v228h-141v100z" />
    <glyph glyph-name="daggerdbl" unicode="&#x2021;" horiz-adv-x="446" 
d="M30 579h141v143h103v-143h142v-100h-142v-96h142v-101h-142v-143h-103v143h-141v101h141v96h-141v100z" />
    <glyph glyph-name="paragraph" unicode="&#xb6;" horiz-adv-x="673" 
d="M468 0v230h-86v-230h-117v230h-46q-51 0 -87 18.5t-59 50t-34 73t-11 86.5q0 51 9.5 94.5t32 76t59.5 50.5t92 18h363v-697h-116z" />
    <glyph glyph-name="copyright" unicode="&#xa9;" horiz-adv-x="837" 
d="M571 157q-26 -10 -61.5 -16t-68.5 -6q-53 0 -92.5 9.5t-65.5 34t-38.5 66.5t-12.5 108t12.5 107.5t38.5 65.5t65.5 33t92.5 9q34 0 69.5 -5.5t60.5 -13.5l-23 -90q-20 8 -48 12t-53 4q-28 0 -47.5 -4t-31.5 -17t-17.5 -37.5t-5.5 -64.5q0 -38 5.5 -62.5t17.5 -38
t31.5 -18.5t47.5 -5q26 0 53.5 5t47.5 13zM418 78q69 0 117 10.5t77 40.5t42 84t13 141t-13 139.5t-42 81t-77 38t-117 9.5t-116.5 -9.5t-76.5 -38t-42 -81t-13 -139.5t13 -141t42 -84t76.5 -40.5t116.5 -10.5zM418 714q89 0 156 -16.5t112 -57t68 -110t23 -175.5
q0 -108 -23 -179t-68 -113.5t-112 -59.5t-156 -17t-156 17t-112 59.5t-67.5 113.5t-22.5 179q0 106 22.5 175.5t67.5 110t112 57t156 16.5z" />
    <glyph glyph-name="registered" unicode="&#xae;" horiz-adv-x="571" 
d="M442 466q0 56 -8 90.5t-26.5 53t-48.5 24.5t-74 6q-43 0 -72.5 -6t-48 -24.5t-26.5 -53t-8 -90.5q0 -53 8 -86.5t26.5 -53t48 -27t72.5 -7.5q44 0 74 7.5t48.5 27t26.5 53t8 86.5zM524 466q0 -72 -14.5 -119.5t-44 -76.5t-74.5 -41t-106 -12t-106 12t-74 41t-43.5 76.5
t-14.5 119.5q0 73 14.5 120.5t44 75.5t74.5 39.5t105 11.5q61 0 106 -11.5t74.5 -39.5t44 -75.5t14.5 -120.5zM330 508q0 12 -4.5 20t-16.5 8h-54v-58h54q12 0 16.5 8t4.5 22zM411 512q0 -46 -18 -63t-50 -17q17 -8 33.5 -29.5t27.5 -68.5h-85q-3 13 -8 27t-11.5 24.5
t-13 17.5t-12.5 7h-19v-76h-78v266h163q38 0 54.5 -26t16.5 -62z" />
    <glyph glyph-name="trademark" unicode="&#x2122;" horiz-adv-x="824" 
d="M569 454l88 243h112v-359h-84v250l-87 -236h-69l-84 236v-250h-84v359h117zM121 338v281h-114v78h316v-78h-113v-281h-89z" />
    <glyph glyph-name="at" unicode="@" horiz-adv-x="939" 
d="M471 342q-27 0 -45.5 -2.5t-30 -10t-16 -22.5t-4.5 -39t4.5 -39t15.5 -23.5t29.5 -12t47.5 -3.5q26 0 43.5 4t28.5 15t16 30t5 49v47q-20 4 -47 5.5t-47 1.5zM429 528q-75 0 -124.5 -9.5t-79.5 -37t-42.5 -78.5t-12.5 -135t13.5 -136.5t47 -82.5t91.5 -41t147 -11
t147.5 13.5t93.5 48t49 93t14 149.5q0 129 -22 187h113q10 -33 15 -80t5 -111q0 -117 -24 -194.5t-74.5 -124t-129 -66t-186.5 -19.5q-110 0 -188.5 17t-129 59.5t-74.5 114.5t-24 182q0 109 25 180t72.5 112t116.5 57t157 16q69 0 117 -10t79 -40t45 -84.5t14 -143.5
q0 -84 -10.5 -134.5t-36 -78t-68.5 -36.5t-107 -9q-58 0 -97 7.5t-63 26.5t-34 52t-10 83q0 53 10.5 85.5t33 50.5t57.5 24t85 6q33 0 68.5 -2.5t56.5 -7.5q0 31 -6.5 52t-22.5 33.5t-42 17.5t-65 5z" />
    <glyph glyph-name="fi" unicode="&#xfb01;" horiz-adv-x="594" 
d="M525 0h-124v401h-187v-401h-124v401h-85v108h85v30q0 56 17.5 92t49.5 56.5t75.5 28.5t96.5 8q51 0 100 -8.5t89 -22.5l-29 -97q-27 9 -64.5 15.5t-79.5 6.5q-30 0 -54 -3.5t-41.5 -12.5t-26.5 -26t-9 -44v-23h311v-509z" />
    <glyph glyph-name="fl" unicode="&#xfb02;" horiz-adv-x="599" 
d="M525 143q0 -35 8 -64t31 -56q-28 -11 -55 -23t-55 -23q-26 29 -39.5 67t-13.5 94v469q-44 11 -86 11q-46 0 -73.5 -16.5t-27.5 -69.5v-23h135v-108h-135v-401h-124v401h-85v108h85v30q0 57 17 93t47 56.5t71.5 28t91.5 7.5q54 0 104.5 -7.5t103.5 -23.5v-550z" />
    <glyph glyph-name="acute" unicode="&#xb4;" horiz-adv-x="481" 
d="M93 568l121 129h133l-145 -129h-109z" />
    <glyph glyph-name="breve" unicode="&#x2d8;" horiz-adv-x="524" 
d="M179 697q0 -35 16.5 -46.5t49.5 -11.5q32 0 49.5 11.5t17.5 46.5h80q0 -72 -38.5 -104.5t-111.5 -32.5q-71 0 -109.5 32.5t-38.5 104.5h85z" />
    <glyph glyph-name="caron" unicode="&#x2c7;" horiz-adv-x="654" 
d="M274 697l71 -76l69 76h113l-122 -129h-122l-126 129h117z" />
    <glyph glyph-name="cedilla" unicode="&#xb8;" horiz-adv-x="641" 
d="M379 0v-42q59 0 84.5 -16.5t25.5 -61.5q0 -47 -31 -65t-106 -18q-35 0 -57 4t-41 12l22 54q12 -6 31 -9t40 -3q23 0 32 5.5t9 20.5q0 19 -20 24t-74 2l36 93h49z" />
    <glyph glyph-name="circumflex" unicode="&#x2c6;" horiz-adv-x="660" 
d="M410 568l-71 76l-69 -76h-113l122 129h122l126 -129h-117z" />
    <glyph glyph-name="dieresis" unicode="&#xa8;" horiz-adv-x="462" 
d="M333 681q33 0 46 -9.5t13 -45.5q0 -40 -13 -51t-46 -11q-35 0 -47.5 11t-12.5 51q0 18 3 29t10 16.5t18.5 7.5t28.5 2zM119 681q34 0 47 -9.5t13 -45.5q0 -40 -13 -51t-47 -11t-46.5 11t-12.5 51q0 36 12.5 45.5t46.5 9.5z" />
    <glyph glyph-name="dotaccent" unicode="&#x2d9;" horiz-adv-x="462" 
d="M186 681q34 0 47 -9.5t13 -45.5q0 -40 -13 -51t-47 -11t-46.5 11t-12.5 51q0 36 12.5 45.5t46.5 9.5z" />
    <glyph glyph-name="grave" unicode="`" horiz-adv-x="481" 
d="M237 568l-144 129h132l122 -129h-110z" />
    <glyph glyph-name="hungarumlaut" unicode="&#x2dd;" horiz-adv-x="550" 
d="M327 568l91 129h109l-114 -129h-86zM163 568l91 129h109l-115 -129h-85z" />
    <glyph glyph-name="macron" unicode="&#xaf;" horiz-adv-x="520" 
d="M123 666h278v-90h-278v90z" />
    <glyph glyph-name="macron" unicode="&#x2c9;" horiz-adv-x="520" 
d="M123 666h278v-90h-278v90z" />
    <glyph glyph-name="ogonek" unicode="&#x2db;" horiz-adv-x="641" 
d="M482 12q-26 -16 -42.5 -29t-25.5 -25t-12.5 -24t-3.5 -26q0 -21 11.5 -30.5t48.5 -9.5q24 0 46.5 7.5t36.5 19.5l35 -63q-24 -18 -61 -26.5t-70 -8.5q-38 0 -63.5 5.5t-40.5 17t-21.5 28t-6.5 38.5q0 40 31.5 74t98.5 52h39z" />
    <glyph glyph-name="ring" unicode="&#x2da;" horiz-adv-x="714" 
d="M360 684q-31 0 -40.5 -10t-9.5 -33q0 -22 9.5 -32.5t40.5 -10.5t40.5 11t9.5 32q0 23 -9.5 33t-40.5 10zM360 741q60 0 89.5 -22t29.5 -76q0 -55 -29.5 -76.5t-89.5 -21.5t-90 21.5t-30 76.5q0 54 28 76t92 22z" />
    <glyph glyph-name="tilde" unicode="&#x2dc;" horiz-adv-x="715" 
d="M508 652q-14 -41 -43 -67t-74 -26q-23 0 -40.5 8.5t-34 18t-32.5 18t-34 8.5q-15 0 -27.5 -11t-24.5 -40l-56 55q21 37 46 59t63 22q25 0 44 -8.5t35 -18t30.5 -18t32.5 -8.5t29.5 12t23.5 46z" />
    <glyph glyph-name="nonbreakingspace" unicode="&#xa0;" horiz-adv-x="266" 
 />
    <glyph glyph-name="Delta" unicode="&#x394;" horiz-adv-x="648" 
d="M313 563q-43 -104 -83 -218.5t-76 -230.5h313q-42 108 -82.5 225.5t-71.5 223.5zM-18 0q24 78 54.5 167.5t64 181t68.5 181t68 167.5h169q25 -83 56.5 -176.5t64.5 -185.5t66.5 -178.5t64.5 -156.5h-676z" />
    <glyph glyph-name="Delta" unicode="&#x2206;" horiz-adv-x="648" 
d="M313 563q-43 -104 -83 -218.5t-76 -230.5h313q-42 108 -82.5 225.5t-71.5 223.5zM-18 0q24 78 54.5 167.5t64 181t68.5 181t68 167.5h169q25 -83 56.5 -176.5t64.5 -185.5t66.5 -178.5t64.5 -156.5h-676z" />
    <glyph glyph-name="Omega" unicode="&#x3a9;" horiz-adv-x="798" 
d="M15 118h158q-22 15 -39.5 42t-30 63t-19.5 80t-7 92q0 92 20.5 153.5t61 98t101 52t139.5 15.5t139 -15.5t100.5 -52t61 -98t20.5 -153.5q0 -48 -7 -92t-19.5 -80t-30 -63t-39.5 -42h159v-118h-321v112q37 10 60 34t36 59.5t18 82.5t5 105q0 62 -8.5 101.5t-29 62
t-55.5 30.5t-89 8t-89 -8t-56 -30.5t-29.5 -62t-8.5 -101.5q0 -57 5 -104t18 -82.5t36 -59.5t59 -34v-113h-319v118z" />
    <glyph glyph-name="Omega" unicode="&#x2126;" horiz-adv-x="798" 
d="M15 118h158q-22 15 -39.5 42t-30 63t-19.5 80t-7 92q0 92 20.5 153.5t61 98t101 52t139.5 15.5t139 -15.5t100.5 -52t61 -98t20.5 -153.5q0 -48 -7 -92t-19.5 -80t-30 -63t-39.5 -42h159v-118h-321v112q37 10 60 34t36 59.5t18 82.5t5 105q0 62 -8.5 101.5t-29 62
t-55.5 30.5t-89 8t-89 -8t-56 -30.5t-29.5 -62t-8.5 -101.5q0 -57 5 -104t18 -82.5t36 -59.5t59 -34v-113h-319v118z" />
    <glyph glyph-name="mu" unicode="&#xb5;" horiz-adv-x="583" 
d="M60 -192l6 405v296h124v-271q0 -33 3.5 -59.5t15 -44.5t33 -27.5t56.5 -9.5q47 0 92 13v399h124v-480q-24 -9 -53 -17t-60.5 -13.5t-64.5 -9t-63 -3.5q-29 0 -52.5 3.5t-42.5 12.5l3 -194h-121z" />
    <glyph glyph-name="mu" unicode="&#x3bc;" horiz-adv-x="583" 
d="M60 -192l6 405v296h124v-271q0 -33 3.5 -59.5t15 -44.5t33 -27.5t56.5 -9.5q47 0 92 13v399h124v-480q-24 -9 -53 -17t-60.5 -13.5t-64.5 -9t-63 -3.5q-29 0 -52.5 3.5t-42.5 12.5l3 -194h-121z" />
    <glyph glyph-name="pi" unicode="&#x3c0;" horiz-adv-x="635" 
d="M25 509h585v-118h-82v-391h-124v391h-176v-269q0 -69 -22.5 -106.5t-57.5 -55.5l-79 84q15 8 25 26t10 50v271h-79v118z" />
    <glyph glyph-name="B" unicode="B" horiz-adv-x="712" 
d="M489 369q50 -2 81 -15.5t48.5 -36.5t24 -55t6.5 -71q0 -103 -48 -147t-132 -44h-381v697h375q52 0 85.5 -12t52.5 -33.5t26 -52.5t7 -69q0 -35 -5 -62.5t-20.5 -48t-44 -33.5t-75.5 -17zM220 419h214q33 0 46.5 22.5t13.5 61.5q0 42 -13 62t-47 20h-214v-166zM440 111
q36 0 51.5 25t15.5 73q0 50 -17.5 76.5t-53.5 26.5h-216v-201h220z" />
    <glyph glyph-name="A" unicode="A" horiz-adv-x="682" 
d="M326 585q-26 -68 -53.5 -143.5t-54.5 -154.5h232q-27 78 -52 154t-45 144h-27zM555 0q-15 38 -32.5 82t-34.5 92h-305q-15 -47 -28.5 -90.5t-25.5 -83.5h-138q24 78 54.5 167.5t64 181t67.5 181t66 167.5h207q27 -84 58.5 -177.5t64.5 -185.5t66 -178t62 -156h-146z" />
    <glyph glyph-name="Eth" unicode="&#xd0;" horiz-adv-x="736" 
d="M542 350q0 77 -10 123t-33 70t-61.5 31.5t-96.5 7.5h-121v-179h159v-92h-159v-197h121q58 0 96.5 9t61.5 35t33 72t10 120zM36 403h52v294h266q83 0 144.5 -16t102.5 -55.5t61.5 -106t20.5 -168.5q0 -101 -20.5 -168.5t-61.5 -108t-102.5 -57.5t-144.5 -17h-266v311h-52
v92z" />
    <glyph glyph-name="IJ" unicode="&#x132;" horiz-adv-x="768" 
d="M682 192q0 -62 -18 -102t-48 -63t-68 -32t-77 -9q-43 0 -84.5 7.5t-73.5 19.5l26 118q24 -10 55.5 -15.5t63.5 -5.5q19 0 35.5 4.5t29 15.5t19.5 30t7 49v488h133v-505zM220 697v-697h-132v697h132z" />
    <glyph glyph-name="Thorn" unicode="&#xde;" horiz-adv-x="673" 
d="M414 237q42 0 64 29.5t22 89.5q0 125 -83 125h-197v-244h194zM220 697v-103h231q55 0 92.5 -18t60 -50.5t32 -76t9.5 -94.5q0 -45 -11 -86.5t-34.5 -73t-59.5 -50t-86 -18.5h-234v-127h-132v697h132z" />
    <glyph glyph-name="Abreve" unicode="&#x102;" horiz-adv-x="682" 
d="M275 871q0 -35 16.5 -46.5t49.5 -11.5q32 0 49.5 11.5t17.5 46.5h80q0 -72 -38.5 -104.5t-111.5 -32.5q-71 0 -109.5 32.5t-38.5 104.5h85zM326 585q-26 -68 -53.5 -143.5t-54.5 -154.5h232q-27 78 -52 154t-45 144h-27zM555 0q-15 38 -32.5 82t-34.5 92h-305
q-15 -47 -28.5 -90.5t-25.5 -83.5h-138q24 78 54.5 167.5t64 181t67.5 181t66 167.5h207q27 -84 58.5 -177.5t64.5 -185.5t66 -178t62 -156h-146z" />
    <glyph glyph-name="Amacron" unicode="&#x100;" horiz-adv-x="682" 
d="M202 845h278v-92h-278v92zM326 585q-26 -68 -53.5 -143.5t-54.5 -154.5h232q-27 78 -52 154t-45 144h-27zM555 0q-15 38 -32.5 82t-34.5 92h-305q-15 -47 -28.5 -90.5t-25.5 -83.5h-138q24 78 54.5 167.5t64 181t67.5 181t66 167.5h207q27 -84 58.5 -177.5t64.5 -185.5
t66 -178t62 -156h-146z" />
    <glyph glyph-name="Aogonek" unicode="&#x104;" horiz-adv-x="682" 
d="M669 12q-26 -16 -42.5 -29t-25.5 -25t-12.5 -24t-3.5 -26q0 -21 11.5 -30.5t48.5 -9.5q24 0 46.5 7.5t36.5 19.5l35 -63q-24 -18 -61 -26.5t-70 -8.5q-38 0 -63.5 5.5t-40.5 17t-21.5 28t-6.5 38.5q0 40 31.5 74t98.5 52h39zM326 585q-26 -68 -53.5 -143.5t-54.5 -154.5
h232q-27 78 -52 154t-45 144h-27zM555 0q-15 38 -32.5 82t-34.5 92h-305q-15 -47 -28.5 -90.5t-25.5 -83.5h-138q24 78 54.5 167.5t64 181t67.5 181t66 167.5h207q27 -84 58.5 -177.5t64.5 -185.5t66 -178t62 -156h-146z" />
    <glyph glyph-name="Cacute" unicode="&#x106;" horiz-adv-x="592" 
d="M245 747l129 129h137l-158 -129h-108zM53 355q0 107 20 176.5t60.5 110t102 56.5t144.5 16q24 0 50.5 -2t53 -5.5t51.5 -8t45 -10.5l-29 -116q-14 5 -32 9t-38 7t-40 4.5t-38 1.5q-57 0 -97 -7.5t-64.5 -32.5t-36 -72.5t-11.5 -127.5t11.5 -129t36 -75t64.5 -34.5
t97 -8.5q18 0 38 1.5t40 4.5t38 7t32 9l29 -118q-20 -6 -45 -10.5t-51.5 -7.5t-53 -5t-50.5 -2q-83 0 -144.5 17.5t-102 60.5t-60.5 113.5t-20 177.5z" />
    <glyph glyph-name="Ccaron" unicode="&#x10c;" horiz-adv-x="592" 
d="M365 798l70 78h112l-122 -129h-122l-126 129h115zM53 355q0 107 20 176.5t60.5 110t102 56.5t144.5 16q24 0 50.5 -2t53 -5.5t51.5 -8t45 -10.5l-29 -116q-14 5 -32 9t-38 7t-40 4.5t-38 1.5q-57 0 -97 -7.5t-64.5 -32.5t-36 -72.5t-11.5 -127.5t11.5 -129t36 -75
t64.5 -34.5t97 -8.5q18 0 38 1.5t40 4.5t38 7t32 9l29 -118q-20 -6 -45 -10.5t-51.5 -7.5t-53 -5t-50.5 -2q-83 0 -144.5 17.5t-102 60.5t-60.5 113.5t-20 177.5z" />
    <glyph glyph-name="Ccircumflex" unicode="&#x108;" horiz-adv-x="592" 
d="M372 825l-70 -78h-112l122 129h122l126 -129h-116zM53 355q0 107 20 176.5t60.5 110t102 56.5t144.5 16q24 0 50.5 -2t53 -5.5t51.5 -8t45 -10.5l-29 -116q-14 5 -32 9t-38 7t-40 4.5t-38 1.5q-57 0 -97 -7.5t-64.5 -32.5t-36 -72.5t-11.5 -127.5t11.5 -129t36 -75
t64.5 -34.5t97 -8.5q18 0 38 1.5t40 4.5t38 7t32 9l29 -118q-20 -6 -45 -10.5t-51.5 -7.5t-53 -5t-50.5 -2q-83 0 -144.5 17.5t-102 60.5t-60.5 113.5t-20 177.5z" />
    <glyph glyph-name="Cdotaccent" unicode="&#x10a;" horiz-adv-x="592" 
d="M375 867q34 0 47 -10t13 -46q0 -39 -13 -50t-47 -11t-46.5 11t-12.5 50q0 36 12.5 46t46.5 10zM53 355q0 107 20 176.5t60.5 110t102 56.5t144.5 16q24 0 50.5 -2t53 -5.5t51.5 -8t45 -10.5l-29 -116q-14 5 -32 9t-38 7t-40 4.5t-38 1.5q-57 0 -97 -7.5t-64.5 -32.5
t-36 -72.5t-11.5 -127.5t11.5 -129t36 -75t64.5 -34.5t97 -8.5q18 0 38 1.5t40 4.5t38 7t32 9l29 -118q-20 -6 -45 -10.5t-51.5 -7.5t-53 -5t-50.5 -2q-83 0 -144.5 17.5t-102 60.5t-60.5 113.5t-20 177.5z" />
    <glyph glyph-name="Dcroat" unicode="&#x110;" horiz-adv-x="736" 
d="M542 350q0 77 -10 123t-33 70t-61.5 31.5t-96.5 7.5h-121v-179h159v-92h-159v-197h121q58 0 96.5 9t61.5 35t33 72t10 120zM36 403h52v294h266q83 0 144.5 -16t102.5 -55.5t61.5 -106t20.5 -168.5q0 -101 -20.5 -168.5t-61.5 -108t-102.5 -57.5t-144.5 -17h-266v311h-52
v92z" />
    <glyph glyph-name="Dcaron" unicode="&#x10e;" horiz-adv-x="736" 
d="M344 798l70 78h112l-122 -129h-122l-126 129h115zM542 350q0 77 -10 123t-33 70.5t-61.5 32t-96.5 7.5h-121v-469h121q58 0 96.5 9t61.5 35t33 72t10 120zM354 697q83 0 144.5 -16t102.5 -55.5t61.5 -106t20.5 -168.5q0 -101 -20.5 -168.5t-61.5 -108t-102.5 -57.5
t-144.5 -17h-266v697h266z" />
    <glyph glyph-name="Ebreve" unicode="&#x114;" horiz-adv-x="620" 
d="M287 871q0 -35 16.5 -46.5t49.5 -11.5q32 0 49.5 11.5t17.5 46.5h80q0 -72 -38.5 -104.5t-111.5 -32.5q-71 0 -109.5 32.5t-38.5 104.5h85zM594 697v-114h-374v-161h267v-113h-267v-195h374v-114h-506v697h506z" />
    <glyph glyph-name="Ecaron" unicode="&#x11a;" horiz-adv-x="620" 
d="M353 798l70 78h112l-122 -129h-122l-126 129h115zM594 697v-114h-374v-161h267v-113h-267v-195h374v-114h-506v697h506z" />
    <glyph glyph-name="Edotaccent" unicode="&#x116;" horiz-adv-x="620" 
d="M362 867q34 0 47 -10t13 -46q0 -39 -13 -50t-47 -11t-46.5 11t-12.5 50q0 36 12.5 46t46.5 10zM594 697v-114h-374v-161h267v-113h-267v-195h374v-114h-506v697h506z" />
    <glyph glyph-name="Emacron" unicode="&#x112;" horiz-adv-x="620" 
d="M203 845h278v-92h-278v92zM594 697v-114h-374v-161h267v-113h-267v-195h374v-114h-506v697h506z" />
    <glyph glyph-name="Eogonek" unicode="&#x118;" horiz-adv-x="620" 
d="M566 12q-26 -16 -42.5 -29t-25.5 -25t-12.5 -24t-3.5 -26q0 -21 11.5 -30.5t48.5 -9.5q24 0 46.5 7.5t36.5 19.5l35 -63q-24 -18 -61 -26.5t-70 -8.5q-38 0 -63.5 5.5t-40.5 17t-21.5 28t-6.5 38.5q0 40 31.5 74t98.5 52h39zM594 697v-114h-374v-161h267v-113h-267v-195
h374v-114h-506v697h506z" />
    <glyph glyph-name="Gbreve" unicode="&#x11e;" horiz-adv-x="700" 
d="M316 871q0 -35 16.5 -46.5t49.5 -11.5q32 0 49.5 11.5t17.5 46.5h80q0 -72 -38.5 -104.5t-111.5 -32.5q-71 0 -109.5 32.5t-38.5 104.5h85zM493 296h-152v111h287v-391q-21 -7 -51 -12.5t-64 -9.5t-68.5 -6t-64.5 -2q-83 0 -144.5 17.5t-102 60.5t-60.5 113.5t-20 177.5
t22 176.5t65.5 110t108.5 56.5t150 16q24 0 52 -2t56.5 -5.5t55 -8t46.5 -10.5l-27 -115q-14 5 -36 9t-46.5 6.5t-48.5 4t-42 1.5q-59 0 -100 -7.5t-66.5 -32.5t-37 -72.5t-11.5 -127.5t11.5 -129t36 -75.5t64.5 -35t97 -8.5q25 0 49.5 3t40.5 7v180z" />
    <glyph glyph-name="Gcircumflex" unicode="&#x11c;" horiz-adv-x="700" 
d="M381 825l-70 -78h-112l122 129h122l126 -129h-116zM493 296h-152v111h287v-391q-21 -7 -51 -12.5t-64 -9.5t-68.5 -6t-64.5 -2q-83 0 -144.5 17.5t-102 60.5t-60.5 113.5t-20 177.5t22 176.5t65.5 110t108.5 56.5t150 16q24 0 52 -2t56.5 -5.5t55 -8t46.5 -10.5l-27 -115
q-14 5 -36 9t-46.5 6.5t-48.5 4t-42 1.5q-59 0 -100 -7.5t-66.5 -32.5t-37 -72.5t-11.5 -127.5t11.5 -129t36 -75.5t64.5 -35t97 -8.5q25 0 49.5 3t40.5 7v180z" />
    <glyph glyph-name="Gcommaaccent" unicode="&#x122;" horiz-adv-x="700" 
d="M365 -218h-97l71 167h134zM493 296h-152v111h287v-391q-21 -7 -51 -12.5t-64 -9.5t-68.5 -6t-64.5 -2q-83 0 -144.5 17.5t-102 60.5t-60.5 113.5t-20 177.5t22 176.5t65.5 110t108.5 56.5t150 16q24 0 52 -2t56.5 -5.5t55 -8t46.5 -10.5l-27 -115q-14 5 -36 9t-46.5 6.5
t-48.5 4t-42 1.5q-59 0 -100 -7.5t-66.5 -32.5t-37 -72.5t-11.5 -127.5t11.5 -129t36 -75.5t64.5 -35t97 -8.5q25 0 49.5 3t40.5 7v180z" />
    <glyph glyph-name="Gdotaccent" unicode="&#x120;" horiz-adv-x="700" 
d="M391 867q34 0 47 -10t13 -46q0 -39 -13 -50t-47 -11t-46.5 11t-12.5 50q0 36 12.5 46t46.5 10zM493 296h-152v111h287v-391q-21 -7 -51 -12.5t-64 -9.5t-68.5 -6t-64.5 -2q-83 0 -144.5 17.5t-102 60.5t-60.5 113.5t-20 177.5t22 176.5t65.5 110t108.5 56.5t150 16
q24 0 52 -2t56.5 -5.5t55 -8t46.5 -10.5l-27 -115q-14 5 -36 9t-46.5 6.5t-48.5 4t-42 1.5q-59 0 -100 -7.5t-66.5 -32.5t-37 -72.5t-11.5 -127.5t11.5 -129t36 -75.5t64.5 -35t97 -8.5q25 0 49.5 3t40.5 7v180z" />
    <glyph glyph-name="Hcircumflex" unicode="&#x124;" horiz-adv-x="736" 
d="M362 825l-70 -78h-112l122 129h122l126 -129h-116zM220 0h-132v697h132v-266h298v266h130v-697h-130v309h-298v-309z" />
    <glyph glyph-name="Hbar" unicode="&#x126;" horiz-adv-x="736" 
d="M518 431v89h-298v-89h298zM29 625h59v72h132v-72h298v72h130v-72h60v-105h-60v-520h-130v309h-298v-309h-132v520h-59v105z" />
    <glyph glyph-name="Ibreve" unicode="&#x12c;" horiz-adv-x="308" 
d="M92 871q0 -35 16.5 -46.5t49.5 -11.5q32 0 49.5 11.5t17.5 46.5h80q0 -72 -38.5 -104.5t-111.5 -32.5q-71 0 -109.5 32.5t-38.5 104.5h85zM220 697v-697h-132v697h132z" />
    <glyph glyph-name="Idotaccent" unicode="&#x130;" horiz-adv-x="308" 
d="M153 867q34 0 47 -10t13 -46q0 -39 -13 -50t-47 -11t-46.5 11t-12.5 50q0 36 12.5 46t46.5 10zM220 697v-697h-132v697h132z" />
    <glyph glyph-name="Imacron" unicode="&#x12a;" horiz-adv-x="308" 
d="M16 845h278v-92h-278v92zM220 697v-697h-132v697h132z" />
    <glyph glyph-name="Iogonek" unicode="&#x12e;" horiz-adv-x="308" 
d="M192 12q-26 -16 -42.5 -29t-25.5 -25t-12.5 -24t-3.5 -26q0 -21 11.5 -30.5t48.5 -9.5q24 0 46.5 7.5t36.5 19.5l35 -63q-24 -18 -61 -26.5t-70 -8.5q-38 0 -63.5 5.5t-40.5 17t-21.5 28t-6.5 38.5q0 40 31.5 74t98.5 52h39zM220 697v-697h-132v697h132z" />
    <glyph glyph-name="Itilde" unicode="&#x128;" horiz-adv-x="308" 
d="M339 829q-14 -39 -44.5 -66t-75.5 -27q-22 0 -40.5 8.5t-35.5 18.5t-33 18.5t-34 8.5q-15 0 -27.5 -10.5t-23.5 -39.5l-56 55q20 35 45 57t62 22q25 0 45 -8t37 -18t33 -18t33 -8t29.5 12t24.5 45zM220 697v-697h-132v697h132z" />
    <glyph glyph-name="Idotaccent" horiz-adv-x="308" 
d="M154 867q34 0 47 -10t13 -46q0 -39 -13 -50t-47 -11t-46.5 11t-12.5 50q0 36 12.5 46t46.5 10zM220 697v-697h-132v697h132z" />
    <glyph glyph-name="Jcircumflex" unicode="&#x134;" horiz-adv-x="461" 
d="M304 825l-70 -78h-112l122 129h122l126 -129h-116zM376 192q0 -62 -18 -102t-48 -63t-68 -32t-78 -9q-43 0 -84 7.5t-74 19.5l26 118q25 -10 56 -15.5t63 -5.5q19 0 35.5 4.5t29 15.5t19.5 30t7 49v488h133z" />
    <glyph glyph-name="Kcommaaccent" unicode="&#x136;" horiz-adv-x="662" 
d="M310 -218h-97l71 167h134zM513 0q-105 173 -183.5 264.5t-108.5 103.5q16 12 43.5 39.5t63 69.5t77.5 97t88 123h160q-96 -135 -166.5 -216.5t-96.5 -103.5q13 -9 39.5 -36.5t63.5 -74t83.5 -113t98.5 -153.5h-162zM220 0h-132v697h132v-697z" />
    <glyph glyph-name="Lacute" unicode="&#x139;" horiz-adv-x="551" 
d="M99 747l129 129h137l-158 -129h-108zM220 697v-582h329v-115h-461v697h132z" />
    <glyph glyph-name="Lcaron" unicode="&#x13d;" horiz-adv-x="551" 
d="M427 722l-57 -192h-73l20 192h110zM220 697v-582h329v-115h-461v697h132z" />
    <glyph glyph-name="Lcommaaccent" unicode="&#x13b;" horiz-adv-x="551" 
d="M287 -218h-97l71 167h134zM220 697v-582h329v-115h-461v697h132z" />
    <glyph glyph-name="Ldot" unicode="&#x13f;" horiz-adv-x="551" 
d="M354 463q34 0 47 -10t13 -46q0 -39 -13 -50t-47 -11t-46.5 11t-12.5 50q0 36 12.5 46t46.5 10zM220 697v-582h329v-115h-461v697h132z" />
    <glyph glyph-name="Ldotaccent" horiz-adv-x="551" 
d="M354 463q34 0 47 -10t13 -46q0 -39 -13 -50t-47 -11t-46.5 11t-12.5 50q0 36 12.5 46t46.5 10zM220 697v-582h329v-115h-461v697h132z" />
    <glyph glyph-name="Lslash" unicode="&#x141;" horiz-adv-x="551" 
d="M376 433l-156 -135v-183h329v-115h-461v189l-67 -58v123l67 58v385h132v-276l156 136v-124z" />
    <glyph glyph-name="Nacute" unicode="&#x143;" horiz-adv-x="774" 
d="M298 747l129 129h137l-158 -129h-108zM685 0h-161q-71 131 -148 262.5t-159 262.5v-525h-129v697h173q76 -120 150 -247.5t143 -255.5v503h131v-697z" />
    <glyph glyph-name="Ncaron" unicode="&#x147;" horiz-adv-x="774" 
d="M401 798l70 78h112l-122 -129h-122l-126 129h115zM685 0h-161q-71 131 -148 262.5t-159 262.5v-525h-129v697h173q76 -120 150 -247.5t143 -255.5v503h131v-697z" />
    <glyph glyph-name="Ncommaaccent" unicode="&#x145;" horiz-adv-x="774" 
d="M352 -218h-97l71 167h134zM685 0h-161q-71 131 -148 262.5t-159 262.5v-525h-129v697h173q76 -120 150 -247.5t143 -255.5v503h131v-697z" />
    <glyph glyph-name="Obreve" unicode="&#x14e;" horiz-adv-x="770" 
d="M321 871q0 -35 16.5 -46.5t49.5 -11.5q32 0 49.5 11.5t17.5 46.5h80q0 -72 -38.5 -104.5t-111.5 -32.5q-71 0 -109.5 32.5t-38.5 104.5h85zM385 105q57 0 94 9t58.5 36t30 75.5t8.5 127.5t-8.5 127t-30 73.5t-58.5 33.5t-94 8t-94 -8t-58.5 -33.5t-30 -73.5t-8.5 -127
t8.5 -127.5t30 -75.5t58.5 -36t94 -9zM385 714q83 0 145 -16.5t103.5 -57t62 -110t20.5 -175.5q0 -108 -20.5 -179t-62 -113.5t-103.5 -59.5t-145 -17t-145.5 17t-104 59.5t-62 113.5t-20.5 179q0 106 21 175.5t62.5 110t103.5 57t145 16.5z" />
    <glyph glyph-name="Ohungarumlaut" unicode="&#x150;" horiz-adv-x="770" 
d="M389 747l91 129h109l-114 -129h-86zM225 747l91 129h109l-115 -129h-85zM385 105q57 0 94 9t58.5 36t30 75.5t8.5 127.5t-8.5 127t-30 73.5t-58.5 33.5t-94 8t-94 -8t-58.5 -33.5t-30 -73.5t-8.5 -127t8.5 -127.5t30 -75.5t58.5 -36t94 -9zM385 714q83 0 145 -16.5
t103.5 -57t62 -110t20.5 -175.5q0 -108 -20.5 -179t-62 -113.5t-103.5 -59.5t-145 -17t-145.5 17t-104 59.5t-62 113.5t-20.5 179q0 106 21 175.5t62.5 110t103.5 57t145 16.5z" />
    <glyph glyph-name="Omacron" unicode="&#x14c;" horiz-adv-x="770" 
d="M246 845h278v-92h-278v92zM385 105q57 0 94 9t58.5 36t30 75.5t8.5 127.5t-8.5 127t-30 73.5t-58.5 33.5t-94 8t-94 -8t-58.5 -33.5t-30 -73.5t-8.5 -127t8.5 -127.5t30 -75.5t58.5 -36t94 -9zM385 714q83 0 145 -16.5t103.5 -57t62 -110t20.5 -175.5q0 -108 -20.5 -179
t-62 -113.5t-103.5 -59.5t-145 -17t-145.5 17t-104 59.5t-62 113.5t-20.5 179q0 106 21 175.5t62.5 110t103.5 57t145 16.5z" />
    <glyph glyph-name="Racute" unicode="&#x154;" horiz-adv-x="706" 
d="M235 747l129 129h137l-158 -129h-108zM462 303q18 -6 39.5 -25.5t49 -55.5t63 -91t81.5 -131h-163q-41 72 -74 122.5t-59.5 82.5t-47.5 46.5t-38 14.5h-93v-266h-132v697h363q55 0 92.5 -16t60 -43.5t32 -64.5t9.5 -79q0 -38 -9 -71.5t-30.5 -59.5t-56.5 -42t-87 -18z
M220 375h197q38 0 59.5 25.5t21.5 76.5q0 55 -20.5 81.5t-57.5 26.5h-200v-210z" />
    <glyph glyph-name="Rcaron" unicode="&#x158;" horiz-adv-x="706" 
d="M348 798l70 78h112l-122 -129h-122l-126 129h115zM462 303q18 -6 39.5 -25.5t49 -55.5t63 -91t81.5 -131h-163q-41 72 -74 122.5t-59.5 82.5t-47.5 46.5t-38 14.5h-93v-266h-132v697h363q55 0 92.5 -16t60 -43.5t32 -64.5t9.5 -79q0 -38 -9 -71.5t-30.5 -59.5t-56.5 -42
t-87 -18zM220 375h197q38 0 59.5 25.5t21.5 76.5q0 55 -20.5 81.5t-57.5 26.5h-200v-210z" />
    <glyph glyph-name="Rcommaaccent" unicode="&#x156;" horiz-adv-x="706" 
d="M329 -218h-97l71 167h134zM462 303q18 -6 39.5 -25.5t49 -55.5t63 -91t81.5 -131h-163q-41 72 -74 122.5t-59.5 82.5t-47.5 46.5t-38 14.5h-93v-266h-132v697h363q55 0 92.5 -16t60 -43.5t32 -64.5t9.5 -79q0 -38 -9 -71.5t-30.5 -59.5t-56.5 -42t-87 -18zM220 375h197
q38 0 59.5 25.5t21.5 76.5q0 55 -20.5 81.5t-57.5 26.5h-200v-210z" />
    <glyph glyph-name="Sacute" unicode="&#x15a;" horiz-adv-x="622" 
d="M213 747l129 129h137l-158 -129h-108zM530 569q-15 5 -35.5 9.5t-45 8t-51 5.5t-52.5 2q-84 0 -120.5 -20t-36.5 -71q0 -20 6 -34.5t23 -25t46.5 -18t77.5 -11.5q121 -13 177.5 -61.5t56.5 -147.5q0 -62 -19 -103.5t-56.5 -67.5t-94 -37t-131.5 -11q-58 0 -116.5 8.5
t-100.5 22.5l29 114q33 -11 84 -18t102 -7q84 0 122.5 19t38.5 73q0 19 -6 35t-23.5 28.5t-48.5 20.5t-81 13q-58 6 -100.5 18.5t-70.5 35t-41.5 56.5t-13.5 82q0 123 75.5 175t221.5 52q57 0 114 -8.5t99 -22.5z" />
    <glyph glyph-name="Scaron" unicode="&#x160;" horiz-adv-x="622" 
d="M323 798l70 78h112l-122 -129h-122l-126 129h115zM530 569q-15 5 -35.5 9.5t-45 8t-51 5.5t-52.5 2q-84 0 -120.5 -20t-36.5 -71q0 -20 6 -34.5t23 -25t46.5 -18t77.5 -11.5q121 -13 177.5 -61.5t56.5 -147.5q0 -62 -19 -103.5t-56.5 -67.5t-94 -37t-131.5 -11
q-58 0 -116.5 8.5t-100.5 22.5l29 114q33 -11 84 -18t102 -7q84 0 122.5 19t38.5 73q0 19 -6 35t-23.5 28.5t-48.5 20.5t-81 13q-58 6 -100.5 18.5t-70.5 35t-41.5 56.5t-13.5 82q0 123 75.5 175t221.5 52q57 0 114 -8.5t99 -22.5z" />
    <glyph glyph-name="Scedilla" unicode="&#x15e;" horiz-adv-x="622" 
d="M329 0v-42q59 0 84.5 -16.5t25.5 -61.5q0 -47 -31 -65t-106 -18q-35 0 -57 4t-41 12l22 54q12 -6 31 -9t40 -3q23 0 32 5.5t9 20.5q0 19 -20 24t-74 2l36 93h49zM530 569q-15 5 -35.5 9.5t-45 8t-51 5.5t-52.5 2q-84 0 -120.5 -20t-36.5 -71q0 -20 6 -34.5t23 -25
t46.5 -18t77.5 -11.5q121 -13 177.5 -61.5t56.5 -147.5q0 -62 -19 -103.5t-56.5 -67.5t-94 -37t-131.5 -11q-58 0 -116.5 8.5t-100.5 22.5l29 114q33 -11 84 -18t102 -7q84 0 122.5 19t38.5 73q0 19 -6 35t-23.5 28.5t-48.5 20.5t-81 13q-58 6 -100.5 18.5t-70.5 35
t-41.5 56.5t-13.5 82q0 123 75.5 175t221.5 52q57 0 114 -8.5t99 -22.5z" />
    <glyph glyph-name="Scedilla" unicode="&#xf6c1;" horiz-adv-x="622" 
d="M329 0v-42q59 0 84.5 -16.5t25.5 -61.5q0 -47 -31 -65t-106 -18q-35 0 -57 4t-41 12l22 54q12 -6 31 -9t40 -3q23 0 32 5.5t9 20.5q0 19 -20 24t-74 2l36 93h49zM530 569q-15 5 -35.5 9.5t-45 8t-51 5.5t-52.5 2q-84 0 -120.5 -20t-36.5 -71q0 -20 6 -34.5t23 -25
t46.5 -18t77.5 -11.5q121 -13 177.5 -61.5t56.5 -147.5q0 -62 -19 -103.5t-56.5 -67.5t-94 -37t-131.5 -11q-58 0 -116.5 8.5t-100.5 22.5l29 114q33 -11 84 -18t102 -7q84 0 122.5 19t38.5 73q0 19 -6 35t-23.5 28.5t-48.5 20.5t-81 13q-58 6 -100.5 18.5t-70.5 35
t-41.5 56.5t-13.5 82q0 123 75.5 175t221.5 52q57 0 114 -8.5t99 -22.5z" />
    <glyph glyph-name="Scircumflex" unicode="&#x15c;" horiz-adv-x="622" 
d="M326 825l-70 -78h-112l122 129h122l126 -129h-116zM530 569q-15 5 -35.5 9.5t-45 8t-51 5.5t-52.5 2q-84 0 -120.5 -20t-36.5 -71q0 -20 6 -34.5t23 -25t46.5 -18t77.5 -11.5q121 -13 177.5 -61.5t56.5 -147.5q0 -62 -19 -103.5t-56.5 -67.5t-94 -37t-131.5 -11
q-58 0 -116.5 8.5t-100.5 22.5l29 114q33 -11 84 -18t102 -7q84 0 122.5 19t38.5 73q0 19 -6 35t-23.5 28.5t-48.5 20.5t-81 13q-58 6 -100.5 18.5t-70.5 35t-41.5 56.5t-13.5 82q0 123 75.5 175t221.5 52q57 0 114 -8.5t99 -22.5z" />
    <glyph glyph-name="Scommaaccent" unicode="&#x218;" horiz-adv-x="622" 
d="M290 -218h-97l71 167h134zM530 569q-15 5 -35.5 9.5t-45 8t-51 5.5t-52.5 2q-84 0 -120.5 -20t-36.5 -71q0 -20 6 -34.5t23 -25t46.5 -18t77.5 -11.5q121 -13 177.5 -61.5t56.5 -147.5q0 -62 -19 -103.5t-56.5 -67.5t-94 -37t-131.5 -11q-58 0 -116.5 8.5t-100.5 22.5
l29 114q33 -11 84 -18t102 -7q84 0 122.5 19t38.5 73q0 19 -6 35t-23.5 28.5t-48.5 20.5t-81 13q-58 6 -100.5 18.5t-70.5 35t-41.5 56.5t-13.5 82q0 123 75.5 175t221.5 52q57 0 114 -8.5t99 -22.5z" />
    <glyph glyph-name="Tbar" unicode="&#x166;" horiz-adv-x="609" 
d="M161 327h77v254h-235v116h603v-116h-235v-254h69v-92h-69v-235h-133v235h-77v92z" />
    <glyph glyph-name="Tcaron" unicode="&#x164;" horiz-adv-x="609" 
d="M311 798l70 78h112l-122 -129h-122l-126 129h115zM238 0v583h-235v114h603v-114h-235v-583h-133z" />
    <glyph glyph-name="Tcommaaccent" unicode="&#x162;" horiz-adv-x="609" 
d="M289 -218h-97l71 167h134zM238 0v583h-235v114h603v-114h-235v-583h-133z" />
    <glyph glyph-name="Tcommaaccent" unicode="&#x21a;" horiz-adv-x="609" 
d="M289 -218h-97l71 167h134zM238 0v583h-235v114h603v-114h-235v-583h-133z" />
    <glyph glyph-name="Ubreve" unicode="&#x16c;" horiz-adv-x="742" 
d="M307 871q0 -35 16.5 -46.5t49.5 -11.5q32 0 49.5 11.5t17.5 46.5h80q0 -72 -38.5 -104.5t-111.5 -32.5q-71 0 -109.5 32.5t-38.5 104.5h85zM664 211q0 -69 -20 -112.5t-58 -68.5t-92.5 -34.5t-122.5 -9.5t-122.5 9.5t-92.5 34.5t-58 68.5t-20 112.5v486h133v-466
q0 -35 8.5 -58.5t27 -38t49 -21t75.5 -6.5q42 0 72.5 5.5t50 19.5t29 38t9.5 61v466h131z" />
    <glyph glyph-name="Uhungarumlaut" unicode="&#x170;" horiz-adv-x="742" 
d="M374 747l91 129h109l-114 -129h-86zM210 747l91 129h109l-115 -129h-85zM664 211q0 -69 -20 -112.5t-58 -68.5t-92.5 -34.5t-122.5 -9.5t-122.5 9.5t-92.5 34.5t-58 68.5t-20 112.5v486h133v-466q0 -35 8.5 -58.5t27 -38t49 -21t75.5 -6.5q42 0 72.5 5.5t50 19.5t29 38
t9.5 61v466h131z" />
    <glyph glyph-name="Umacron" unicode="&#x16a;" horiz-adv-x="742" 
d="M229 845h278v-92h-278v92zM664 211q0 -69 -20 -112.5t-58 -68.5t-92.5 -34.5t-122.5 -9.5t-122.5 9.5t-92.5 34.5t-58 68.5t-20 112.5v486h133v-466q0 -35 8.5 -58.5t27 -38t49 -21t75.5 -6.5q42 0 72.5 5.5t50 19.5t29 38t9.5 61v466h131z" />
    <glyph glyph-name="Uogonek" unicode="&#x172;" horiz-adv-x="742" 
d="M464 12q-26 -16 -42.5 -29t-25.5 -25t-12.5 -24t-3.5 -26q0 -21 11.5 -30.5t48.5 -9.5q24 0 46.5 7.5t36.5 19.5l35 -63q-24 -18 -61 -26.5t-70 -8.5q-38 0 -63.5 5.5t-40.5 17t-21.5 28t-6.5 38.5q0 40 31.5 74t98.5 52h39zM664 211q0 -69 -20 -112.5t-58 -68.5
t-92.5 -34.5t-122.5 -9.5t-122.5 9.5t-92.5 34.5t-58 68.5t-20 112.5v486h133v-466q0 -35 8.5 -58.5t27 -38t49 -21t75.5 -6.5q42 0 72.5 5.5t50 19.5t29 38t9.5 61v466h131z" />
    <glyph glyph-name="Uring" unicode="&#x16e;" horiz-adv-x="742" 
d="M369 834q-31 0 -40.5 -10.5t-9.5 -32.5t9.5 -32.5t40.5 -10.5t40.5 10.5t9.5 32.5q0 23 -9.5 33t-40.5 10zM369 890q60 0 89.5 -22t29.5 -76t-29.5 -76t-89.5 -22t-90 22t-30 76t28 76t92 22zM664 211q0 -69 -20 -112.5t-58 -68.5t-92.5 -34.5t-122.5 -9.5t-122.5 9.5
t-92.5 34.5t-58 68.5t-20 112.5v486h133v-466q0 -35 8.5 -58.5t27 -38t49 -21t75.5 -6.5q42 0 72.5 5.5t50 19.5t29 38t9.5 61v466h131z" />
    <glyph glyph-name="Utilde" unicode="&#x168;" horiz-adv-x="742" 
d="M557 829q-14 -39 -44.5 -66t-75.5 -27q-22 0 -40.5 8.5t-35.5 18.5t-33 18.5t-34 8.5q-15 0 -27.5 -10.5t-23.5 -39.5l-56 55q20 35 45 57t62 22q25 0 45 -8t37 -18t33 -18t33 -8t29.5 12t24.5 45zM664 211q0 -69 -20 -112.5t-58 -68.5t-92.5 -34.5t-122.5 -9.5
t-122.5 9.5t-92.5 34.5t-58 68.5t-20 112.5v486h133v-466q0 -35 8.5 -58.5t27 -38t49 -21t75.5 -6.5q42 0 72.5 5.5t50 19.5t29 38t9.5 61v466h131z" />
    <glyph glyph-name="Wcircumflex" unicode="&#x174;" horiz-adv-x="975" 
d="M490 825l-70 -78h-112l122 129h122l126 -129h-116zM493 478q-11 -55 -26 -115t-31.5 -121.5t-34.5 -123t-36 -118.5h-167q-21 83 -45.5 176t-50.5 185.5t-52.5 179t-51.5 156.5h144q19 -57 39 -122t39 -133.5t37.5 -139t34.5 -138.5q16 52 35.5 120t39 140.5t37 143.5
t28.5 129h122q16 -56 35 -126t38 -142.5t36 -141.5t28 -123q43 134 79.5 268.5t65.5 264.5h136q-19 -78 -43 -167.5t-50.5 -181t-54.5 -181t-54 -167.5h-168q-11 60 -24.5 122.5t-28 124t-29 120.5t-27.5 111z" />
    <glyph glyph-name="Yacute" unicode="&#xdd;" horiz-adv-x="638" 
d="M226 747l129 129h137l-158 -129h-108zM134 697q45 -56 94.5 -124.5t99.5 -141.5q53 71 100.5 139.5t83.5 126.5h160q-60 -91 -133 -193.5t-148 -202.5v-301h-132v300q-38 53 -77 107.5t-77.5 106t-75 98.5t-67.5 85h172z" />
    <glyph glyph-name="Ycircumflex" unicode="&#x176;" horiz-adv-x="638" 
d="M324 825l-70 -78h-112l122 129h122l126 -129h-116zM134 697q45 -56 94.5 -124.5t99.5 -141.5q53 71 100.5 139.5t83.5 126.5h160q-60 -91 -133 -193.5t-148 -202.5v-301h-132v300q-38 53 -77 107.5t-77.5 106t-75 98.5t-67.5 85h172z" />
    <glyph glyph-name="Zacute" unicode="&#x179;" horiz-adv-x="621" 
d="M217 747l129 129h137l-158 -129h-108zM17 32q45 61 96.5 134t102.5 147t98.5 144t84.5 126h-360v114h565v-30q-38 -60 -87 -135.5t-101.5 -151.5t-103 -146t-90.5 -120h375v-114h-580v32z" />
    <glyph glyph-name="Zcaron" unicode="&#x17d;" horiz-adv-x="621" 
d="M329 798l70 78h112l-122 -129h-122l-126 129h115zM17 32q45 61 96.5 134t102.5 147t98.5 144t84.5 126h-360v114h565v-30q-38 -60 -87 -135.5t-101.5 -151.5t-103 -146t-90.5 -120h375v-114h-580v32z" />
    <glyph glyph-name="Zdotaccent" unicode="&#x17b;" horiz-adv-x="621" 
d="M317 867q34 0 47 -10t13 -46q0 -39 -13 -50t-47 -11t-46.5 11t-12.5 50q0 36 12.5 46t46.5 10zM17 32q45 61 96.5 134t102.5 147t98.5 144t84.5 126h-360v114h565v-30q-38 -60 -87 -135.5t-101.5 -151.5t-103 -146t-90.5 -120h375v-114h-580v32z" />
    <glyph glyph-name="eth" unicode="&#xf0;" horiz-adv-x="626" 
d="M323 317q-42 0 -68 -4.5t-41 -16t-20 -32t-5 -52.5q0 -29 5 -50t18.5 -34.5t37.5 -20t63 -6.5q36 0 60.5 4t39 18.5t21 41.5t6.5 73q0 37 -9 72q-25 4 -53 5.5t-55 1.5zM206 545l70 44q-25 28 -51.5 54.5l-53.5 53.5h164q11 -11 23 -22t24 -23l61 38l48 -65l-55 -35
q63 -78 103 -167.5t40 -198.5q0 -71 -12 -117t-42 -74t-81.5 -39t-130.5 -11q-72 0 -122 12t-81 39.5t-45 72.5t-14 111q0 58 12.5 98.5t42.5 65t79.5 35.5t123.5 11q7 0 18 -0.5t23.5 -1t24.5 -1.5t21 -2q-27 52 -69 102l-72 -45z" />
    <glyph glyph-name="ij" unicode="&#x133;" horiz-adv-x="524" 
d="M244 -100q43 0 64.5 17.5t21.5 68.5v523h124v-520q0 -57 -13 -94t-39.5 -58.5t-66 -30.5t-91.5 -9v103zM392 721q20 0 34 -2t22.5 -8.5t12 -18.5t3.5 -32q0 -44 -16 -56.5t-56 -12.5q-20 0 -34 2.5t-22.5 10t-12 21t-3.5 35.5q0 20 3.5 32t12 18.5t22.5 8.5t34 2z
M132 721q20 0 33.5 -2t22 -8.5t12 -18.5t3.5 -32q0 -44 -15.5 -56.5t-55.5 -12.5q-41 0 -56.5 12.5t-15.5 56.5q0 20 3.5 32t12 18.5t22 8.5t34.5 2zM193 0h-124v509h124v-509z" />
    <glyph glyph-name="thorn" unicode="&#xfe;" 
d="M193 140q0 -23 29 -36t71 -13q33 0 55 7.5t35.5 26t19.5 49.5t6 78q0 52 -6 84.5t-19.5 50.5t-36 24t-55.5 6q-26 0 -52.5 -3.5t-46.5 -11.5v-262zM69 709h124v-195q25 5 50.5 7.5t48.5 2.5q63 0 109 -13t76 -43.5t44.5 -82.5t14.5 -130t-15.5 -129.5t-44 -82.5
t-69.5 -44t-92 -13q-44 0 -72.5 9t-49.5 20v-207h-124v901z" />
    <glyph glyph-name="abreve" unicode="&#x103;" horiz-adv-x="560" 
d="M213 697q0 -35 16.5 -46.5t49.5 -11.5q32 0 49.5 11.5t17.5 46.5h80q0 -72 -38.5 -104.5t-111.5 -32.5q-71 0 -109.5 32.5t-38.5 104.5h85zM375 98v127q-21 5 -47 7t-54 2q-26 0 -44.5 -2.5t-29.5 -10t-16 -22t-5 -38.5q0 -26 4 -41.5t14.5 -24t29 -11.5t46.5 -3
q27 0 53.5 4.5t48.5 12.5zM494 26q-24 -9 -53 -16.5t-59.5 -13t-60.5 -8t-57 -2.5q-60 0 -101.5 8t-66.5 27.5t-36 52t-11 82.5q0 54 14.5 87t41 50.5t63 23.5t81.5 6q32 0 63 -3.5t63 -10.5q0 33 -5 54.5t-19 34t-38.5 17.5t-64.5 5q-42 0 -82 -7t-72 -18l-23 102
q40 11 94 19t109 8q57 0 98.5 -9.5t68.5 -32.5t40 -61t13 -95v-300z" />
    <glyph glyph-name="amacron" unicode="&#x101;" horiz-adv-x="560" 
d="M138 666h278v-90h-278v90zM375 98v127q-21 5 -47 7t-54 2q-26 0 -44.5 -2.5t-29.5 -10t-16 -22t-5 -38.5q0 -26 4 -41.5t14.5 -24t29 -11.5t46.5 -3q27 0 53.5 4.5t48.5 12.5zM494 26q-24 -9 -53 -16.5t-59.5 -13t-60.5 -8t-57 -2.5q-60 0 -101.5 8t-66.5 27.5t-36 52
t-11 82.5q0 54 14.5 87t41 50.5t63 23.5t81.5 6q32 0 63 -3.5t63 -10.5q0 33 -5 54.5t-19 34t-38.5 17.5t-64.5 5q-42 0 -82 -7t-72 -18l-23 102q40 11 94 19t109 8q57 0 98.5 -9.5t68.5 -32.5t40 -61t13 -95v-300z" />
    <glyph glyph-name="aogonek" unicode="&#x105;" horiz-adv-x="560" 
d="M453 12q-26 -16 -42.5 -29t-25.5 -25t-12.5 -24t-3.5 -26q0 -21 11.5 -30.5t48.5 -9.5q24 0 46.5 7.5t36.5 19.5l35 -63q-24 -18 -61 -26.5t-70 -8.5q-38 0 -63.5 5.5t-40.5 17t-21.5 28t-6.5 38.5q0 40 31.5 74t98.5 52h39zM375 98v127q-21 5 -47 7t-54 2
q-26 0 -44.5 -2.5t-29.5 -10t-16 -22t-5 -38.5q0 -26 4 -41.5t14.5 -24t29 -11.5t46.5 -3q27 0 53.5 4.5t48.5 12.5zM494 26q-24 -9 -53 -16.5t-59.5 -13t-60.5 -8t-57 -2.5q-60 0 -101.5 8t-66.5 27.5t-36 52t-11 82.5q0 54 14.5 87t41 50.5t63 23.5t81.5 6q32 0 63 -3.5
t63 -10.5q0 33 -5 54.5t-19 34t-38.5 17.5t-64.5 5q-42 0 -82 -7t-72 -18l-23 102q40 11 94 19t109 8q57 0 98.5 -9.5t68.5 -32.5t40 -61t13 -95v-300z" />
    <glyph glyph-name="cacute" unicode="&#x107;" horiz-adv-x="470" 
d="M188 568l121 129h133l-145 -129h-109zM458 12q-15 -6 -34.5 -11t-40 -8t-41.5 -5t-39 -2q-58 0 -104.5 13t-79.5 44t-50.5 83.5t-17.5 130.5t17.5 129.5t50.5 82t79.5 43t104.5 12.5q18 0 39.5 -2t42.5 -5t40 -7.5t33 -9.5l-28 -106q-24 9 -55.5 15.5t-62.5 6.5
q-34 0 -59 -5.5t-41.5 -22.5t-24.5 -48.5t-8 -84.5q0 -51 8 -82.5t24.5 -49t41.5 -23.5t59 -6q32 0 63 7t55 17z" />
    <glyph glyph-name="ccaron" unicode="&#x10d;" horiz-adv-x="470" 
d="M223 697l71 -76l69 76h113l-122 -129h-122l-126 129h117zM458 12q-15 -6 -34.5 -11t-40 -8t-41.5 -5t-39 -2q-58 0 -104.5 13t-79.5 44t-50.5 83.5t-17.5 130.5t17.5 129.5t50.5 82t79.5 43t104.5 12.5q18 0 39.5 -2t42.5 -5t40 -7.5t33 -9.5l-28 -106q-24 9 -55.5 15.5
t-62.5 6.5q-34 0 -59 -5.5t-41.5 -22.5t-24.5 -48.5t-8 -84.5q0 -51 8 -82.5t24.5 -49t41.5 -23.5t59 -6q32 0 63 7t55 17z" />
    <glyph glyph-name="ccircumflex" unicode="&#x109;" horiz-adv-x="470" 
d="M360 568l-71 76l-69 -76h-113l122 129h122l126 -129h-117zM458 12q-15 -6 -34.5 -11t-40 -8t-41.5 -5t-39 -2q-58 0 -104.5 13t-79.5 44t-50.5 83.5t-17.5 130.5t17.5 129.5t50.5 82t79.5 43t104.5 12.5q18 0 39.5 -2t42.5 -5t40 -7.5t33 -9.5l-28 -106q-24 9 -55.5 15.5
t-62.5 6.5q-34 0 -59 -5.5t-41.5 -22.5t-24.5 -48.5t-8 -84.5q0 -51 8 -82.5t24.5 -49t41.5 -23.5t59 -6q32 0 63 7t55 17z" />
    <glyph glyph-name="cdotaccent" unicode="&#x10b;" horiz-adv-x="470" 
d="M294 681q34 0 47 -9.5t13 -45.5q0 -40 -13 -51t-47 -11t-46.5 11t-12.5 51q0 36 12.5 45.5t46.5 9.5zM458 12q-15 -6 -34.5 -11t-40 -8t-41.5 -5t-39 -2q-58 0 -104.5 13t-79.5 44t-50.5 83.5t-17.5 130.5t17.5 129.5t50.5 82t79.5 43t104.5 12.5q18 0 39.5 -2t42.5 -5
t40 -7.5t33 -9.5l-28 -106q-24 9 -55.5 15.5t-62.5 6.5q-34 0 -59 -5.5t-41.5 -22.5t-24.5 -48.5t-8 -84.5q0 -51 8 -82.5t24.5 -49t41.5 -23.5t59 -6q32 0 63 7t55 17z" />
    <glyph glyph-name="dcroat" unicode="&#x111;" 
d="M394 370q0 23 -29 36t-71 13q-33 0 -55 -7.5t-35.5 -26t-19 -49.5t-5.5 -79q0 -52 6 -84.5t19.5 -50.5t36 -24t55.5 -6q26 0 52 4t46 11v263zM305 666h89v56h124v-56h49v-89h-49v-554q-21 -8 -48 -15t-56.5 -12t-60 -7.5t-57.5 -2.5q-63 0 -109 12.5t-76.5 43.5t-45 83
t-14.5 130q0 77 15.5 129t44 83t69.5 44t92 13q44 0 73 -9t49 -20v82h-89v89z" />
    <glyph glyph-name="dcaron" unicode="&#x10f;" 
d="M684 722l-57 -192h-73l20 192h110zM518 23q-21 -8 -48 -15t-56.5 -12t-60 -7.5t-57.5 -2.5q-63 0 -109 12.5t-76.5 43.5t-45 83t-14.5 130q0 77 15.5 129t44 83t69.5 44t92 13q44 0 73 -9t49 -20v227h124v-699zM394 370q0 23 -29 36t-71 13q-33 0 -55 -7.5t-35.5 -26
t-19 -49.5t-5.5 -79q0 -52 6 -84.5t19.5 -50.5t36 -24t55.5 -6q26 0 52 4t46 11v263z" />
    <glyph glyph-name="dmacron" 
d="M394 370q0 23 -29 36t-71 13q-33 0 -55 -7.5t-35.5 -26t-19 -49.5t-5.5 -79q0 -52 6 -84.5t19.5 -50.5t36 -24t55.5 -6q26 0 52 4t46 11v263zM305 666h89v56h124v-56h49v-89h-49v-554q-21 -8 -48 -15t-56.5 -12t-60 -7.5t-57.5 -2.5q-63 0 -109 12.5t-76.5 43.5t-45 83
t-14.5 130q0 77 15.5 129t44 83t69.5 44t92 13q44 0 73 -9t49 -20v82h-89v89z" />
    <glyph glyph-name="ebreve" unicode="&#x115;" horiz-adv-x="552" 
d="M226 697q0 -35 16.5 -46.5t49.5 -11.5q32 0 49.5 11.5t17.5 46.5h80q0 -72 -38.5 -104.5t-111.5 -32.5q-71 0 -109.5 32.5t-38.5 104.5h85zM295 426q-29 0 -49.5 -5t-33.5 -18t-20 -34t-10 -52h214q-2 34 -7.5 55t-17.5 33t-30.5 16.5t-45.5 4.5zM476 14
q-19 -6 -42 -11.5t-46.5 -9t-47 -5.5t-42.5 -2q-55 0 -100.5 13t-78 44t-50.5 83.5t-18 130.5q0 76 16 127.5t47 82.5t74.5 44t99.5 13q60 0 103.5 -12.5t71 -46t39 -92t8.5 -151.5h-329q0 -41 8.5 -66.5t24.5 -40t41 -19.5t58 -5q13 0 31.5 1.5t38.5 4.5t39 6.5t34 8.5z
" />
    <glyph glyph-name="ecaron" unicode="&#x11b;" horiz-adv-x="552" 
d="M222 697l71 -76l69 76h113l-122 -129h-122l-126 129h117zM295 426q-29 0 -49.5 -5t-33.5 -18t-20 -34t-10 -52h214q-2 34 -7.5 55t-17.5 33t-30.5 16.5t-45.5 4.5zM476 14q-19 -6 -42 -11.5t-46.5 -9t-47 -5.5t-42.5 -2q-55 0 -100.5 13t-78 44t-50.5 83.5t-18 130.5
q0 76 16 127.5t47 82.5t74.5 44t99.5 13q60 0 103.5 -12.5t71 -46t39 -92t8.5 -151.5h-329q0 -41 8.5 -66.5t24.5 -40t41 -19.5t58 -5q13 0 31.5 1.5t38.5 4.5t39 6.5t34 8.5z" />
    <glyph glyph-name="edotaccent" unicode="&#x117;" horiz-adv-x="552" 
d="M291 681q34 0 47 -9.5t13 -45.5q0 -40 -13 -51t-47 -11t-46.5 11t-12.5 51q0 36 12.5 45.5t46.5 9.5zM295 426q-29 0 -49.5 -5t-33.5 -18t-20 -34t-10 -52h214q-2 34 -7.5 55t-17.5 33t-30.5 16.5t-45.5 4.5zM476 14q-19 -6 -42 -11.5t-46.5 -9t-47 -5.5t-42.5 -2
q-55 0 -100.5 13t-78 44t-50.5 83.5t-18 130.5q0 76 16 127.5t47 82.5t74.5 44t99.5 13q60 0 103.5 -12.5t71 -46t39 -92t8.5 -151.5h-329q0 -41 8.5 -66.5t24.5 -40t41 -19.5t58 -5q13 0 31.5 1.5t38.5 4.5t39 6.5t34 8.5z" />
    <glyph glyph-name="emacron" unicode="&#x113;" horiz-adv-x="552" 
d="M156 666h278v-90h-278v90zM295 426q-29 0 -49.5 -5t-33.5 -18t-20 -34t-10 -52h214q-2 34 -7.5 55t-17.5 33t-30.5 16.5t-45.5 4.5zM476 14q-19 -6 -42 -11.5t-46.5 -9t-47 -5.5t-42.5 -2q-55 0 -100.5 13t-78 44t-50.5 83.5t-18 130.5q0 76 16 127.5t47 82.5t74.5 44
t99.5 13q60 0 103.5 -12.5t71 -46t39 -92t8.5 -151.5h-329q0 -41 8.5 -66.5t24.5 -40t41 -19.5t58 -5q13 0 31.5 1.5t38.5 4.5t39 6.5t34 8.5z" />
    <glyph glyph-name="eogonek" unicode="&#x119;" horiz-adv-x="552" 
d="M449 12q-26 -16 -42.5 -29t-25.5 -25t-12.5 -24t-3.5 -26q0 -21 11.5 -30.5t48.5 -9.5q24 0 46.5 7.5t36.5 19.5l35 -63q-24 -18 -61 -26.5t-70 -8.5q-38 0 -63.5 5.5t-40.5 17t-21.5 28t-6.5 38.5q0 40 31.5 74t98.5 52h39zM295 426q-29 0 -49.5 -5t-33.5 -18t-20 -34
t-10 -52h214q-2 34 -7.5 55t-17.5 33t-30.5 16.5t-45.5 4.5zM476 14q-19 -6 -42 -11.5t-46.5 -9t-47 -5.5t-42.5 -2q-55 0 -100.5 13t-78 44t-50.5 83.5t-18 130.5q0 76 16 127.5t47 82.5t74.5 44t99.5 13q60 0 103.5 -12.5t71 -46t39 -92t8.5 -151.5h-329q0 -41 8.5 -66.5
t24.5 -40t41 -19.5t58 -5q13 0 31.5 1.5t38.5 4.5t39 6.5t34 8.5z" />
    <glyph glyph-name="gacute" 
d="M200 568l121 129h133l-145 -129h-109zM394 21q-21 -13 -53 -23t-76 -10q-53 0 -93 12.5t-67 42.5t-40.5 81t-13.5 129t14.5 130t45 83.5t76.5 44.5t109 13q27 0 57.5 -2.5t60 -7.5t56.5 -12t48 -16v-447q0 -75 -20 -122t-56 -74t-86 -37t-110 -10q-22 0 -46.5 2.5
t-48.5 6.5t-46 9.5t-38 11.5l25 100q35 -11 76 -18t77 -7q35 0 63 5.5t47 19t29 37t10 58.5zM394 405q-22 8 -48.5 12.5t-49.5 4.5q-33 0 -55.5 -6t-36 -24t-19.5 -51t-6 -87q0 -48 5.5 -78.5t19 -48.5t35 -25t54.5 -7q42 0 71.5 12.5t29.5 35.5v262z" />
    <glyph glyph-name="gbreve" unicode="&#x11f;" 
d="M236 697q0 -35 16.5 -46.5t49.5 -11.5q32 0 49.5 11.5t17.5 46.5h80q0 -72 -38.5 -104.5t-111.5 -32.5q-71 0 -109.5 32.5t-38.5 104.5h85zM394 21q-21 -13 -53 -23t-76 -10q-53 0 -93 12.5t-67 42.5t-40.5 81t-13.5 129t14.5 130t45 83.5t76.5 44.5t109 13
q27 0 57.5 -2.5t60 -7.5t56.5 -12t48 -16v-447q0 -75 -20 -122t-56 -74t-86 -37t-110 -10q-22 0 -46.5 2.5t-48.5 6.5t-46 9.5t-38 11.5l25 100q35 -11 76 -18t77 -7q35 0 63 5.5t47 19t29 37t10 58.5zM394 405q-22 8 -48.5 12.5t-49.5 4.5q-33 0 -55.5 -6t-36 -24
t-19.5 -51t-6 -87q0 -48 5.5 -78.5t19 -48.5t35 -25t54.5 -7q42 0 71.5 12.5t29.5 35.5v262z" />
    <glyph glyph-name="gcircumflex" unicode="&#x11d;" 
d="M370 568l-71 76l-69 -76h-113l122 129h122l126 -129h-117zM394 21q-21 -13 -53 -23t-76 -10q-53 0 -93 12.5t-67 42.5t-40.5 81t-13.5 129t14.5 130t45 83.5t76.5 44.5t109 13q27 0 57.5 -2.5t60 -7.5t56.5 -12t48 -16v-447q0 -75 -20 -122t-56 -74t-86 -37t-110 -10
q-22 0 -46.5 2.5t-48.5 6.5t-46 9.5t-38 11.5l25 100q35 -11 76 -18t77 -7q35 0 63 5.5t47 19t29 37t10 58.5zM394 405q-22 8 -48.5 12.5t-49.5 4.5q-33 0 -55.5 -6t-36 -24t-19.5 -51t-6 -87q0 -48 5.5 -78.5t19 -48.5t35 -25t54.5 -7q42 0 71.5 12.5t29.5 35.5v262z" />
    <glyph glyph-name="gcommaaccent" unicode="&#x123;" 
d="M319 584h-97l71 167h134zM394 21q-21 -13 -53 -23t-76 -10q-53 0 -93 12.5t-67 42.5t-40.5 81t-13.5 129t14.5 130t45 83.5t76.5 44.5t109 13q27 0 57.5 -2.5t60 -7.5t56.5 -12t48 -16v-447q0 -75 -20 -122t-56 -74t-86 -37t-110 -10q-22 0 -46.5 2.5t-48.5 6.5t-46 9.5
t-38 11.5l25 100q35 -11 76 -18t77 -7q35 0 63 5.5t47 19t29 37t10 58.5zM394 405q-22 8 -48.5 12.5t-49.5 4.5q-33 0 -55.5 -6t-36 -24t-19.5 -51t-6 -87q0 -48 5.5 -78.5t19 -48.5t35 -25t54.5 -7q42 0 71.5 12.5t29.5 35.5v262z" />
    <glyph glyph-name="gdotaccent" unicode="&#x121;" 
d="M294 681q34 0 47 -9.5t13 -45.5q0 -40 -13 -51t-47 -11t-46.5 11t-12.5 51q0 36 12.5 45.5t46.5 9.5zM394 21q-21 -13 -53 -23t-76 -10q-53 0 -93 12.5t-67 42.5t-40.5 81t-13.5 129t14.5 130t45 83.5t76.5 44.5t109 13q27 0 57.5 -2.5t60 -7.5t56.5 -12t48 -16v-447
q0 -75 -20 -122t-56 -74t-86 -37t-110 -10q-22 0 -46.5 2.5t-48.5 6.5t-46 9.5t-38 11.5l25 100q35 -11 76 -18t77 -7q35 0 63 5.5t47 19t29 37t10 58.5zM394 405q-22 8 -48.5 12.5t-49.5 4.5q-33 0 -55.5 -6t-36 -24t-19.5 -51t-6 -87q0 -48 5.5 -78.5t19 -48.5t35 -25
t54.5 -7q42 0 71.5 12.5t29.5 35.5v262z" />
    <glyph glyph-name="hcircumflex" unicode="&#x125;" horiz-adv-x="583" 
d="M202 825l-70 -78h-112l122 129h122l126 -129h-116zM333 524q45 0 79 -9.5t57.5 -35t35.5 -70.5t12 -116v-293h-124v283q0 63 -21 96t-81 33q-19 0 -37 -3t-31.5 -8.5t-21.5 -14t-8 -19.5v-367h-124v722h124v-233q25 13 63 24t77 11z" />
    <glyph glyph-name="hbar" unicode="&#x127;" horiz-adv-x="583" 
d="M18 668h51v54h124v-54h103v-87h-103v-92q25 13 63 24t77 11q45 0 79 -9.5t57.5 -35t35.5 -70.5t12 -116v-293h-124v283q0 40 -6.5 65.5t-19.5 39.5t-32 19t-44 5q-19 0 -37 -3t-31.5 -8.5t-21.5 -14t-8 -19.5v-367h-124v581h-51v87z" />
    <glyph glyph-name="ibreve" unicode="&#x12d;" horiz-adv-x="262" 
d="M68 697q0 -35 16.5 -46.5t49.5 -11.5q32 0 49.5 11.5t17.5 46.5h80q0 -72 -38.5 -104.5t-111.5 -32.5q-71 0 -109.5 32.5t-38.5 104.5h85zM193 0h-124v509h124v-509z" />
    <glyph glyph-name="imacron" unicode="&#x12b;" horiz-adv-x="262" 
d="M-7 666h278v-90h-278v90zM193 0h-124v509h124v-509z" />
    <glyph glyph-name="iogonek" unicode="&#x12f;" horiz-adv-x="262" 
d="M178 12q-26 -16 -42.5 -29t-25.5 -25t-12.5 -24t-3.5 -26q0 -21 11.5 -30.5t48.5 -9.5q24 0 46.5 7.5t36.5 19.5l35 -63q-24 -18 -61 -26.5t-70 -8.5q-38 0 -63.5 5.5t-40.5 17t-21.5 28t-6.5 38.5q0 40 31.5 74t98.5 52h39zM132 721q20 0 33.5 -2t22 -8.5t12 -18.5
t3.5 -32q0 -44 -15.5 -56.5t-55.5 -12.5q-41 0 -56.5 12.5t-15.5 56.5q0 20 3.5 32t12 18.5t22 8.5t34.5 2zM193 0h-124v509h124v-509z" />
    <glyph glyph-name="itilde" unicode="&#x129;" horiz-adv-x="262" 
d="M314 652q-14 -41 -43 -67t-74 -26q-23 0 -40.5 8.5t-34 18t-32.5 18t-34 8.5q-15 0 -27.5 -11t-24.5 -40l-56 55q21 37 46 59t63 22q25 0 44 -8.5t35 -18t30.5 -18t32.5 -8.5t29.5 12t23.5 46zM193 0h-124v509h124v-509z" />
    <glyph glyph-name="jcircumflex" unicode="&#x135;" horiz-adv-x="262" 
d="M193 -10q0 -57 -13 -94t-39.5 -59t-65.5 -31t-91 -9v103q42 0 63.5 18t21.5 69v522h124v-519zM199 568l-71 76l-69 -76h-113l122 129h122l126 -129h-117z" />
    <glyph glyph-name="kcommaaccent" unicode="&#x137;" horiz-adv-x="551" 
d="M256 -218h-97l71 167h134zM406 0q-87 126 -139.5 193t-73.5 76q21 17 71.5 77.5t125.5 162.5h147q-74 -100 -124.5 -157.5t-70.5 -73.5q20 -12 74.5 -81t135.5 -197h-146zM193 0h-124v722h124v-722z" />
    <glyph glyph-name="lacute" unicode="&#x13a;" horiz-adv-x="268" 
d="M58 747l129 129h137l-158 -129h-108zM193 143q0 -37 9 -64.5t30 -55.5l-109 -47q-26 30 -40 68t-14 94v584h124v-579z" />
    <glyph glyph-name="lcaron" unicode="&#x13e;" horiz-adv-x="268" 
d="M366 722l-57 -192h-73l20 192h110zM193 143q0 -37 9 -64.5t30 -55.5l-109 -47q-26 30 -40 68t-14 94v584h124v-579z" />
    <glyph glyph-name="lcommaaccent" unicode="&#x13c;" horiz-adv-x="268" 
d="M134 -218h-97l71 167h134zM193 143q0 -37 9 -64.5t30 -55.5l-109 -47q-26 30 -40 68t-14 94v584h124v-579z" />
    <glyph glyph-name="ldot" unicode="&#x140;" horiz-adv-x="268" 
d="M282 460q34 0 47 -9.5t13 -45.5q0 -40 -13 -51t-47 -11t-46.5 11t-12.5 51q0 36 12.5 45.5t46.5 9.5zM193 143q0 -37 9 -64.5t30 -55.5l-109 -47q-26 30 -40 68t-14 94v584h124v-579z" />
    <glyph glyph-name="ldotaccent" horiz-adv-x="268" 
d="M289 450q34 0 47 -9.5t13 -45.5q0 -40 -13 -51t-47 -11t-46.5 11t-12.5 51q0 36 12.5 45.5t46.5 9.5zM193 143q0 -37 9 -64.5t30 -55.5l-109 -47q-26 30 -40 68t-14 94v584h124v-579z" />
    <glyph glyph-name="lslash" unicode="&#x142;" horiz-adv-x="288" 
d="M203 494l69 75v-124l-69 -75v-227q0 -6 0.5 -12t1.5 -12q2 -29 10 -51t27 -45q-27 -11 -54 -23t-55 -23q-24 26 -37 56.5t-15 78.5q-1 14 -1.5 28.5t-0.5 29.5v67q-16 -17 -32 -34.5t-32 -34.5v123q16 17 32 34.5t32 34.5v362h124v-228z" />
    <glyph glyph-name="nacute" unicode="&#x144;" horiz-adv-x="583" 
d="M182 568l121 129h133l-145 -129h-109zM193 0h-124v480q23 9 52.5 17t61 14t64.5 9.5t63 3.5q54 0 93 -12t64.5 -39.5t37.5 -73.5t12 -115v-284h-124v271q0 42 -4.5 69.5t-17 43.5t-33.5 22t-54 6q-46 0 -91 -12v-400z" />
    <glyph glyph-name="ncaron" unicode="&#x148;" horiz-adv-x="583" 
d="M221 697l71 -76l69 76h113l-122 -129h-122l-126 129h117zM193 0h-124v480q23 9 52.5 17t61 14t64.5 9.5t63 3.5q54 0 93 -12t64.5 -39.5t37.5 -73.5t12 -115v-284h-124v271q0 42 -4.5 69.5t-17 43.5t-33.5 22t-54 6q-46 0 -91 -12v-400z" />
    <glyph glyph-name="ncommaaccent" unicode="&#x146;" horiz-adv-x="583" 
d="M256 -218h-97l71 167h134zM193 0h-124v480q23 9 52.5 17t61 14t64.5 9.5t63 3.5q54 0 93 -12t64.5 -39.5t37.5 -73.5t12 -115v-284h-124v271q0 42 -4.5 69.5t-17 43.5t-33.5 22t-54 6q-46 0 -91 -12v-400z" />
    <glyph glyph-name="obreve" unicode="&#x14f;" 
d="M229 697q0 -35 16.5 -46.5t49.5 -11.5q32 0 49.5 11.5t17.5 46.5h80q0 -72 -38.5 -104.5t-111.5 -32.5q-71 0 -109.5 32.5t-38.5 104.5h85zM293 424q-33 0 -54.5 -6t-35 -24t-19 -51t-5.5 -88q0 -53 5.5 -86t19 -51.5t35 -25t54.5 -6.5t55.5 6.5t36 25t19 51.5t5.5 86
q0 55 -5.5 88t-19 51t-36 24t-55.5 6zM293 -14q-61 0 -106.5 13t-75.5 44t-45 83.5t-15 130.5t15 129.5t45.5 82t76 43t105.5 12.5q61 0 107 -12.5t76.5 -43t45.5 -82t15 -129.5t-15 -130.5t-45.5 -83.5t-76.5 -44t-107 -13z" />
    <glyph glyph-name="ohungarumlaut" unicode="&#x151;" 
d="M300 568l91 129h109l-114 -129h-86zM136 568l91 129h109l-115 -129h-85zM293 424q-33 0 -54.5 -6t-35 -24t-19 -51t-5.5 -88q0 -53 5.5 -86t19 -51.5t35 -25t54.5 -6.5t55.5 6.5t36 25t19 51.5t5.5 86q0 55 -5.5 88t-19 51t-36 24t-55.5 6zM293 -14q-61 0 -106.5 13
t-75.5 44t-45 83.5t-15 130.5t15 129.5t45.5 82t76 43t105.5 12.5q61 0 107 -12.5t76.5 -43t45.5 -82t15 -129.5t-15 -130.5t-45.5 -83.5t-76.5 -44t-107 -13z" />
    <glyph glyph-name="omacron" unicode="&#x14d;" 
d="M154 666h278v-90h-278v90zM293 424q-33 0 -54.5 -6t-35 -24t-19 -51t-5.5 -88q0 -53 5.5 -86t19 -51.5t35 -25t54.5 -6.5t55.5 6.5t36 25t19 51.5t5.5 86q0 55 -5.5 88t-19 51t-36 24t-55.5 6zM293 -14q-61 0 -106.5 13t-75.5 44t-45 83.5t-15 130.5t15 129.5t45.5 82
t76 43t105.5 12.5q61 0 107 -12.5t76.5 -43t45.5 -82t15 -129.5t-15 -130.5t-45.5 -83.5t-76.5 -44t-107 -13z" />
    <glyph glyph-name="racute" unicode="&#x155;" horiz-adv-x="379" 
d="M146 568l121 129h133l-145 -129h-109zM69 509h124v-38q14 21 44.5 37t85.5 16q25 0 52 -3v-118q-14 3 -31 5t-34 2q-23 0 -44.5 -3.5t-37.5 -11t-25.5 -18t-9.5 -24.5v-353h-124v509z" />
    <glyph glyph-name="rcaron" unicode="&#x159;" horiz-adv-x="379" 
d="M162 697l71 -76l69 76h113l-122 -129h-122l-126 129h117zM69 509h124v-38q14 21 44.5 37t85.5 16q25 0 52 -3v-118q-14 3 -31 5t-34 2q-23 0 -44.5 -3.5t-37.5 -11t-25.5 -18t-9.5 -24.5v-353h-124v509z" />
    <glyph glyph-name="rcommaaccent" unicode="&#x157;" horiz-adv-x="379" 
d="M116 -218h-97l71 167h134zM69 509h124v-38q14 21 44.5 37t85.5 16q25 0 52 -3v-118q-14 3 -31 5t-34 2q-23 0 -44.5 -3.5t-37.5 -11t-25.5 -18t-9.5 -24.5v-353h-124v509z" />
    <glyph glyph-name="sacute" unicode="&#x15b;" horiz-adv-x="491" 
d="M148 568l121 129h133l-145 -129h-109zM407 399q-30 10 -70 17t-78 7q-23 0 -40 -2t-28.5 -8t-17.5 -17.5t-6 -31.5q0 -26 21.5 -37.5t83.5 -17.5q46 -5 79.5 -15t55 -28t32 -45t10.5 -65q0 -50 -16 -82.5t-44.5 -52t-68.5 -27.5t-89 -8q-20 0 -44.5 2t-49 5.5t-47.5 8.5
t-41 11l26 98q14 -5 32 -9.5t38 -7.5t41 -5t40 -2q51 0 75.5 11t24.5 51q0 13 -4.5 23.5t-16.5 17.5t-33.5 12t-54.5 8q-42 3 -74 11.5t-54 25t-33 43t-11 65.5q0 49 16 82t44.5 52t69 27t88.5 8q40 0 86.5 -7.5t84.5 -20.5z" />
    <glyph glyph-name="scaron" unicode="&#x161;" horiz-adv-x="491" 
d="M183 697l71 -76l69 76h113l-122 -129h-122l-126 129h117zM407 399q-30 10 -70 17t-78 7q-23 0 -40 -2t-28.5 -8t-17.5 -17.5t-6 -31.5q0 -26 21.5 -37.5t83.5 -17.5q46 -5 79.5 -15t55 -28t32 -45t10.5 -65q0 -50 -16 -82.5t-44.5 -52t-68.5 -27.5t-89 -8q-20 0 -44.5 2
t-49 5.5t-47.5 8.5t-41 11l26 98q14 -5 32 -9.5t38 -7.5t41 -5t40 -2q51 0 75.5 11t24.5 51q0 13 -4.5 23.5t-16.5 17.5t-33.5 12t-54.5 8q-42 3 -74 11.5t-54 25t-33 43t-11 65.5q0 49 16 82t44.5 52t69 27t88.5 8q40 0 86.5 -7.5t84.5 -20.5z" />
    <glyph glyph-name="scedilla" unicode="&#x15f;" horiz-adv-x="491" 
d="M261 0v-42q59 0 84.5 -16.5t25.5 -61.5q0 -47 -31 -65t-106 -18q-35 0 -57 4t-41 12l22 54q12 -6 31 -9t40 -3q23 0 32 5.5t9 20.5q0 19 -20 24t-74 2l36 93h49zM407 399q-30 10 -70 17t-78 7q-23 0 -40 -2t-28.5 -8t-17.5 -17.5t-6 -31.5q0 -26 21.5 -37.5t83.5 -17.5
q46 -5 79.5 -15t55 -28t32 -45t10.5 -65q0 -50 -16 -82.5t-44.5 -52t-68.5 -27.5t-89 -8q-20 0 -44.5 2t-49 5.5t-47.5 8.5t-41 11l26 98q14 -5 32 -9.5t38 -7.5t41 -5t40 -2q51 0 75.5 11t24.5 51q0 13 -4.5 23.5t-16.5 17.5t-33.5 12t-54.5 8q-42 3 -74 11.5t-54 25
t-33 43t-11 65.5q0 49 16 82t44.5 52t69 27t88.5 8q40 0 86.5 -7.5t84.5 -20.5z" />
    <glyph glyph-name="scedilla" unicode="&#xf6c2;" horiz-adv-x="491" 
d="M261 0v-42q59 0 84.5 -16.5t25.5 -61.5q0 -47 -31 -65t-106 -18q-35 0 -57 4t-41 12l22 54q12 -6 31 -9t40 -3q23 0 32 5.5t9 20.5q0 19 -20 24t-74 2l36 93h49zM407 399q-30 10 -70 17t-78 7q-23 0 -40 -2t-28.5 -8t-17.5 -17.5t-6 -31.5q0 -26 21.5 -37.5t83.5 -17.5
q46 -5 79.5 -15t55 -28t32 -45t10.5 -65q0 -50 -16 -82.5t-44.5 -52t-68.5 -27.5t-89 -8q-20 0 -44.5 2t-49 5.5t-47.5 8.5t-41 11l26 98q14 -5 32 -9.5t38 -7.5t41 -5t40 -2q51 0 75.5 11t24.5 51q0 13 -4.5 23.5t-16.5 17.5t-33.5 12t-54.5 8q-42 3 -74 11.5t-54 25
t-33 43t-11 65.5q0 49 16 82t44.5 52t69 27t88.5 8q40 0 86.5 -7.5t84.5 -20.5z" />
    <glyph glyph-name="scircumflex" unicode="&#x15d;" horiz-adv-x="491" 
d="M326 568l-71 76l-69 -76h-113l122 129h122l126 -129h-117zM407 399q-30 10 -70 17t-78 7q-23 0 -40 -2t-28.5 -8t-17.5 -17.5t-6 -31.5q0 -26 21.5 -37.5t83.5 -17.5q46 -5 79.5 -15t55 -28t32 -45t10.5 -65q0 -50 -16 -82.5t-44.5 -52t-68.5 -27.5t-89 -8q-20 0 -44.5 2
t-49 5.5t-47.5 8.5t-41 11l26 98q14 -5 32 -9.5t38 -7.5t41 -5t40 -2q51 0 75.5 11t24.5 51q0 13 -4.5 23.5t-16.5 17.5t-33.5 12t-54.5 8q-42 3 -74 11.5t-54 25t-33 43t-11 65.5q0 49 16 82t44.5 52t69 27t88.5 8q40 0 86.5 -7.5t84.5 -20.5z" />
    <glyph glyph-name="scommaaccent" unicode="&#x219;" horiz-adv-x="491" 
d="M222 -218h-97l71 167h134zM407 399q-30 10 -70 17t-78 7q-23 0 -40 -2t-28.5 -8t-17.5 -17.5t-6 -31.5q0 -26 21.5 -37.5t83.5 -17.5q46 -5 79.5 -15t55 -28t32 -45t10.5 -65q0 -50 -16 -82.5t-44.5 -52t-68.5 -27.5t-89 -8q-20 0 -44.5 2t-49 5.5t-47.5 8.5t-41 11
l26 98q14 -5 32 -9.5t38 -7.5t41 -5t40 -2q51 0 75.5 11t24.5 51q0 13 -4.5 23.5t-16.5 17.5t-33.5 12t-54.5 8q-42 3 -74 11.5t-54 25t-33 43t-11 65.5q0 49 16 82t44.5 52t69 27t88.5 8q40 0 86.5 -7.5t84.5 -20.5z" />
    <glyph glyph-name="tbar" unicode="&#x167;" horiz-adv-x="415" 
d="M38 299h57v103h-85v107h85v86l124 51v-137h169v-107h-169v-103h97v-82h-97v-35q0 -48 17 -68.5t62 -20.5q25 0 45.5 4t39.5 10l22 -98q-27 -10 -64.5 -16.5t-74.5 -6.5q-42 0 -74 7.5t-53.5 28t-32.5 56.5t-11 93v46h-57v82z" />
    <glyph glyph-name="tcaron" unicode="&#x165;" horiz-adv-x="415" 
d="M421 770l-57 -192h-73l20 192h110zM219 401v-219q0 -48 16 -68.5t61 -20.5q25 0 46.5 4t40.5 10l22 -98q-27 -10 -65 -16.5t-75 -6.5q-43 0 -75 7.5t-53 28t-31.5 56.5t-10.5 93v230h-85v108h85v86l124 51v-137h169v-108h-169z" />
    <glyph glyph-name="tcommaaccent" unicode="&#x163;" horiz-adv-x="415" 
d="M193 -218h-97l71 167h134zM219 401v-219q0 -48 16 -68.5t61 -20.5q25 0 46.5 4t40.5 10l22 -98q-27 -10 -65 -16.5t-75 -6.5q-43 0 -75 7.5t-53 28t-31.5 56.5t-10.5 93v230h-85v108h85v86l124 51v-137h169v-108h-169z" />
    <glyph glyph-name="tcommaaccent" unicode="&#x21b;" horiz-adv-x="415" 
d="M193 -218h-97l71 167h134zM219 401v-219q0 -48 16 -68.5t61 -20.5q25 0 46.5 4t40.5 10l22 -98q-27 -10 -65 -16.5t-75 -6.5q-43 0 -75 7.5t-53 28t-31.5 56.5t-10.5 93v230h-85v108h85v86l124 51v-137h169v-108h-169z" />
    <glyph glyph-name="ubreve" unicode="&#x16d;" horiz-adv-x="583" 
d="M225 697q0 -35 16.5 -46.5t49.5 -11.5q32 0 49.5 11.5t17.5 46.5h80q0 -72 -38.5 -104.5t-111.5 -32.5q-71 0 -109.5 32.5t-38.5 104.5h85zM390 509h124v-480q-24 -9 -53 -17t-60.5 -14t-64.5 -9.5t-63 -3.5q-54 0 -93 12t-64.5 39.5t-37.5 73.5t-12 115v284h124v-271
q0 -42 4.5 -69.5t16.5 -43.5t33 -22t54 -6q49 0 92 13v399z" />
    <glyph glyph-name="uhungarumlaut" unicode="&#x171;" horiz-adv-x="583" 
d="M292 568l91 129h109l-114 -129h-86zM128 568l91 129h109l-115 -129h-85zM390 509h124v-480q-24 -9 -53 -17t-60.5 -14t-64.5 -9.5t-63 -3.5q-54 0 -93 12t-64.5 39.5t-37.5 73.5t-12 115v284h124v-271q0 -42 4.5 -69.5t16.5 -43.5t33 -22t54 -6q49 0 92 13v399z" />
    <glyph glyph-name="umacron" unicode="&#x16b;" horiz-adv-x="583" 
d="M149 666h278v-90h-278v90zM390 509h124v-480q-24 -9 -53 -17t-60.5 -14t-64.5 -9.5t-63 -3.5q-54 0 -93 12t-64.5 39.5t-37.5 73.5t-12 115v284h124v-271q0 -42 4.5 -69.5t16.5 -43.5t33 -22t54 -6q49 0 92 13v399z" />
    <glyph glyph-name="uogonek" unicode="&#x173;" horiz-adv-x="583" 
d="M451 12q-26 -16 -42.5 -29t-25.5 -25t-12.5 -24t-3.5 -26q0 -21 11.5 -30.5t48.5 -9.5q24 0 46.5 7.5t36.5 19.5l35 -63q-24 -18 -61 -26.5t-70 -8.5q-38 0 -63.5 5.5t-40.5 17t-21.5 28t-6.5 38.5q0 40 31.5 74t98.5 52h39zM390 509h124v-480q-24 -9 -53 -17t-60.5 -14
t-64.5 -9.5t-63 -3.5q-54 0 -93 12t-64.5 39.5t-37.5 73.5t-12 115v284h124v-271q0 -42 4.5 -69.5t16.5 -43.5t33 -22t54 -6q49 0 92 13v399z" />
    <glyph glyph-name="uring" unicode="&#x16f;" horiz-adv-x="583" 
d="M293 684q-31 0 -40.5 -10t-9.5 -33q0 -22 9.5 -32.5t40.5 -10.5t40.5 11t9.5 32q0 23 -9.5 33t-40.5 10zM293 741q60 0 89.5 -22t29.5 -76q0 -55 -29.5 -76.5t-89.5 -21.5t-90 21.5t-30 76.5q0 54 28 76t92 22zM390 509h124v-480q-24 -9 -53 -17t-60.5 -14t-64.5 -9.5
t-63 -3.5q-54 0 -93 12t-64.5 39.5t-37.5 73.5t-12 115v284h124v-271q0 -42 4.5 -69.5t16.5 -43.5t33 -22t54 -6q49 0 92 13v399z" />
    <glyph glyph-name="utilde" unicode="&#x169;" horiz-adv-x="583" 
d="M475 652q-14 -41 -43 -67t-74 -26q-23 0 -40.5 8.5t-34 18t-32.5 18t-34 8.5q-15 0 -27.5 -11t-24.5 -40l-56 55q21 37 46 59t63 22q25 0 44 -8.5t35 -18t30.5 -18t32.5 -8.5t29.5 12t23.5 46zM390 509h124v-480q-24 -9 -53 -17t-60.5 -14t-64.5 -9.5t-63 -3.5
q-54 0 -93 12t-64.5 39.5t-37.5 73.5t-12 115v284h124v-271q0 -42 4.5 -69.5t16.5 -43.5t33 -22t54 -6q49 0 92 13v399z" />
    <glyph glyph-name="wcircumflex" unicode="&#x175;" horiz-adv-x="830" 
d="M485 568l-71 76l-69 -76h-113l122 129h122l126 -129h-117zM415 341q-9 -40 -21 -85t-25 -90.5t-26.5 -88.5t-25.5 -77h-153q-37 134 -78 262.5t-86 246.5h131q32 -85 62 -184t54 -198q13 38 29 90t31.5 105.5t28.5 103t21 83.5h121q12 -37 26.5 -86t28.5 -101t26.5 -103
t21.5 -92q35 96 65 191t53 191h126q-35 -125 -79.5 -256.5t-94.5 -252.5h-154q-8 39 -18 85.5t-21.5 93.5t-22.5 89.5t-20 72.5z" />
    <glyph glyph-name="yacute" unicode="&#xfd;" horiz-adv-x="511" 
d="M179 568l121 129h133l-145 -129h-109zM180 -25q-19 68 -40.5 138.5t-44.5 139.5t-47 134t-48 122h129q34 -85 67 -186t59 -200q36 96 69 193.5t57 192.5h126q-38 -131 -87.5 -265t-105.5 -265q-18 -43 -38.5 -88t-40.5 -83h-138q20 36 42 80.5t41 86.5z" />
    <glyph glyph-name="ycircumflex" unicode="&#x177;" horiz-adv-x="511" 
d="M325 568l-71 76l-69 -76h-113l122 129h122l126 -129h-117zM180 -25q-19 68 -40.5 138.5t-44.5 139.5t-47 134t-48 122h129q34 -85 67 -186t59 -200q36 96 69 193.5t57 192.5h126q-38 -131 -87.5 -265t-105.5 -265q-18 -43 -38.5 -88t-40.5 -83h-138q20 36 42 80.5
t41 86.5z" />
    <glyph glyph-name="zacute" unicode="&#x17a;" horiz-adv-x="497" 
d="M176 568l121 129h133l-145 -129h-109zM474 509v-25q-27 -44 -62 -96t-71 -103.5t-70 -98t-59 -78.5h255v-108h-449v25q36 46 75.5 99t75.5 104.5t66 96.5t49 76h-249v108h439z" />
    <glyph glyph-name="zcaron" unicode="&#x17e;" horiz-adv-x="497" 
d="M184 697l71 -76l69 76h113l-122 -129h-122l-126 129h117zM474 509v-25q-27 -44 -62 -96t-71 -103.5t-70 -98t-59 -78.5h255v-108h-449v25q36 46 75.5 99t75.5 104.5t66 96.5t49 76h-249v108h439z" />
    <glyph glyph-name="zdotaccent" unicode="&#x17c;" horiz-adv-x="497" 
d="M253 681q34 0 47 -9.5t13 -45.5q0 -40 -13 -51t-47 -11t-46.5 11t-12.5 51q0 36 12.5 45.5t46.5 9.5zM474 509v-25q-27 -44 -62 -96t-71 -103.5t-70 -98t-59 -78.5h255v-108h-449v25q36 46 75.5 99t75.5 104.5t66 96.5t49 76h-249v108h439z" />
    <glyph glyph-name="Euro" unicode="&#x20ac;" horiz-adv-x="592" 
d="M53 355q0 107 20 176.5t60.5 110t102 56.5t144.5 16q24 0 50.5 -2t53 -5.5t51.5 -8t45 -10.5l-29 -116q-14 5 -32 9t-38 7t-40 4.5t-38 1.5q-42 0 -74 -4t-55.5 -16t-39.5 -33.5t-25 -56.5h239v-85h-253q-1 -8 -1 -22.5v-22.5v-23t1 -22h253v-85h-239q9 -37 24.5 -60
t39 -35.5t56 -17t74.5 -4.5q18 0 38 1.5t40 4.5t38 7t32 9l29 -118q-20 -6 -45 -10.5t-51.5 -7.5t-53 -5t-50.5 -2q-83 0 -144.5 17.5t-102 60.5t-60.5 113.5t-20 177.5z" />
    <glyph glyph-name="zerop" horiz-adv-x="632" 
d="M316 105q39 0 64 10t40 37.5t21 77t6 128.5t-6 126.5t-21 72.5t-40 32.5t-64 7.5q-38 0 -63 -7.5t-40 -32.5t-21 -72.5t-6 -126.5t6 -128.5t21 -77t40 -37.5t63 -10zM316 714q65 0 114 -16t82 -56.5t49.5 -109t16.5 -174.5q0 -107 -16.5 -178.5t-49.5 -114.5t-82 -61
t-114 -18t-114 18t-82 61t-49.5 114.5t-16.5 178.5q0 106 16.5 174.5t49.5 109t82 56.5t114 16z" />
    <glyph glyph-name="onep" horiz-adv-x="397" 
d="M179 0v556l-156 -67l-36 108l322 129v-726h-130z" />
    <glyph glyph-name="twop" horiz-adv-x="609" 
d="M68 682q45 14 103.5 23t119.5 9q65 0 113 -9.5t80 -32.5t48 -63t16 -100q0 -36 -4.5 -65t-17.5 -57t-35.5 -55.5t-59 -59.5t-88 -70.5t-122.5 -87.5h327v-114h-506v106q86 66 147 113.5t102 82.5t64.5 60.5t35.5 47t15 42t3 46.5q0 57 -29.5 77t-100.5 20q-23 0 -49 -2
t-50.5 -6t-46 -8.5t-36.5 -10.5z" />
    <glyph glyph-name="threep" horiz-adv-x="599" 
d="M182 422h96q64 0 90.5 19t26.5 70q0 24 -6 40t-22.5 26t-46 14.5t-75.5 4.5q-20 0 -44 -1.5t-48 -4.5t-45.5 -7t-37.5 -9l-26 114q45 10 105.5 18t120.5 8q75 0 125.5 -10t81.5 -31.5t44 -55.5t13 -81q0 -35 -6 -63.5t-22 -50.5t-45.5 -35.5t-75.5 -17.5q49 -2 81 -16
t50 -37.5t25 -56t7 -71.5q0 -57 -16 -95.5t-50 -62t-87 -34t-127 -10.5q-27 0 -57.5 2t-60.5 5.5t-58.5 8t-52.5 9.5l25 114q17 -5 39.5 -8.5t46.5 -6t48 -4t44 -1.5q50 0 82 5t50 17t24.5 31.5t6.5 47.5q0 59 -28.5 81.5t-95.5 22.5h-99v112z" />
    <glyph glyph-name="fourp" horiz-adv-x="606" 
d="M364 583q-25 -33 -52 -73.5t-52.5 -81t-47.5 -77.5t-36 -63h188v295zM16 179v41q27 49 63.5 111.5t76.5 127t81 127t77 111.5h176v-409h93v-109h-93v-179h-126v179h-348z" />
    <glyph glyph-name="fivep" horiz-adv-x="608" 
d="M524 697v-114h-308v-155q20 2 41 3t43 1q73 0 122 -12t78.5 -38t42 -67.5t12.5 -99.5q0 -66 -15 -110.5t-47.5 -70.5t-84.5 -37t-126 -11q-26 0 -55.5 2t-59.5 5.5t-58 8t-49 9.5l26 114q16 -5 37 -8.5t44 -6t46 -4t43 -1.5q48 0 78.5 4.5t48 16.5t23.5 32t6 50
q0 33 -5.5 54.5t-21.5 34t-45 18t-77 5.5q-42 0 -89 -3.5t-82 -10.5v391h432z" />
    <glyph glyph-name="sixp" horiz-adv-x="629" 
d="M323 105q38 0 62.5 5.5t38 17.5t18.5 31.5t5 48.5q0 30 -4.5 51t-17.5 34.5t-35 20t-57 6.5q-56 0 -88 -3.5t-52 -6.5q1 -65 9.5 -105.5t24 -62.5t39.5 -29.5t57 -7.5zM533 571q-28 11 -72 17t-92 6q-40 0 -71.5 -6.5t-54 -25t-35 -52.5t-13.5 -89q30 5 66.5 8t65.5 3
q73 0 122.5 -12t79.5 -38t43 -67.5t13 -99.5q0 -66 -14 -110.5t-45.5 -70.5t-81 -37t-121.5 -11q-74 0 -125.5 17.5t-83.5 59.5t-46 113t-14 178t17.5 176.5t55.5 110.5t97.5 57t144.5 16q47 0 99.5 -7.5t93.5 -19.5z" />
    <glyph glyph-name="sevenp" horiz-adv-x="528" 
d="M547 657q-23 -37 -50 -86.5t-55 -106t-56 -118t-54 -122t-48.5 -118t-38.5 -106.5h-149q27 75 61.5 158.5t71.5 162.5t74 147.5t69 114.5h-360v114h535v-40z" />
    <glyph glyph-name="eightp" horiz-adv-x="631" 
d="M315 -14q-71 0 -121 10.5t-81.5 34.5t-45.5 62.5t-14 94.5q0 39 7 71.5t25 56t49.5 37.5t81.5 16q-47 4 -76 17.5t-45 35.5t-21.5 50.5t-5.5 63.5q0 46 11.5 79.5t39.5 55.5t75.5 32.5t120.5 10.5t120.5 -10.5t76 -32.5t40 -55.5t11.5 -79.5q0 -35 -5.5 -63.5
t-21.5 -50.5t-45 -35.5t-76 -17.5q49 -2 80.5 -16t49.5 -37.5t25 -56t7 -71.5q0 -56 -14 -94.5t-45 -62.5t-81 -34.5t-121 -10.5h-1zM316 417q60 0 86.5 22t26.5 76q0 52 -25.5 70.5t-87.5 18.5q-63 0 -88.5 -18.5t-25.5 -70.5q0 -54 27 -76t87 -22zM316 94q36 0 60 5.5
t38 18t20 33t6 50.5q0 61 -27.5 87t-96.5 26q-70 0 -97.5 -26t-27.5 -87q0 -30 6 -50.5t20 -33t38.5 -18t60.5 -5.5z" />
    <glyph glyph-name="ninep" horiz-adv-x="626" 
d="M321 380q26 0 54 1.5t54 5.5q5 17 6.5 35t1.5 37q0 45 -6.5 72.5t-21 41.5t-38.5 18.5t-60 4.5q-39 0 -63 -6.5t-38 -20t-19 -35t-5 -50.5q0 -32 5.5 -52.5t20 -32t41 -15.5t68.5 -4zM168 0q70 66 130.5 135t94.5 138q-9 -1 -21 -2t-24.5 -1.5t-23.5 -1t-17 -0.5
q-74 0 -123.5 11t-79.5 35.5t-42.5 64.5t-12.5 99q0 66 14 111.5t45 73t81 39.5t122 12q78 0 129.5 -11t81.5 -39t42 -74.5t12 -116.5q0 -75 -19.5 -140t-53 -123.5t-77.5 -110t-93 -99.5h-165z" />
    <glyph glyph-name="zeroop" horiz-adv-x="563" 
d="M283 424q-29 0 -49 -6t-32 -24t-17.5 -51t-5.5 -88q0 -53 5.5 -86t17.5 -51.5t32 -25t49 -6.5q30 0 49.5 6.5t31 25t16 51.5t4.5 86q0 55 -4.5 88t-16 51t-31 24t-49.5 6zM283 -14q-55 0 -98 13t-73 44t-45.5 83.5t-15.5 130.5t15.5 129.5t45.5 82t73 43t98 12.5
t98 -12.5t72 -43t44 -82t15 -129.5t-15 -130.5t-44 -83.5t-71.5 -44t-98.5 -13z" />
    <glyph glyph-name="oneop" horiz-adv-x="380" 
d="M186 0v362l-156 -71l-36 104l317 129v-524h-125z" />
    <glyph glyph-name="twoop" horiz-adv-x="565" 
d="M62 501q19 4 45 8.5t54.5 7.5t57 5t52.5 2q66 0 110.5 -9t71 -28.5t37.5 -50t11 -72.5q0 -35 -12.5 -68t-42.5 -65.5t-80.5 -64.5t-126.5 -65h273v-101h-455v91q101 56 162 94t93.5 65t43 47.5t10.5 42.5q0 19 -5 32.5t-18 22t-35.5 12.5t-57.5 4q-17 0 -39 -2t-45 -5.5
t-43 -8t-32 -9.5z" />
    <glyph glyph-name="threeop" horiz-adv-x="582" 
d="M164 233h96q64 0 90.5 18.5t26.5 69.5q0 24 -6 40t-22.5 26t-46 14.5t-75.5 4.5q-20 0 -44 -1.5t-48 -4.5t-45.5 -7t-37.5 -9l-26 114q45 10 105.5 18t120.5 8q75 0 125.5 -10t81.5 -31.5t44 -55.5t13 -81q0 -35 -6 -63.5t-22 -50t-45.5 -34.5t-75.5 -17q49 -2 81 -16
t50 -37t25 -55.5t7 -71.5q0 -57 -16 -95.5t-50 -62t-87 -34t-127 -10.5q-27 0 -57.5 2t-60.5 5.5t-58.5 8t-52.5 9.5l25 114q17 -5 39.5 -8.5t46.5 -6t48 -4t44 -1.5q50 0 82 5t50 17t24.5 31.5t6.5 47.5q0 59 -28.5 80.5t-95.5 21.5h-99v112z" />
    <glyph glyph-name="fourop" horiz-adv-x="590" 
d="M358 399q-25 -32 -52 -73t-52 -82t-46.5 -78.5t-35.5 -62.5h186v296zM12 0v40q27 48 63.5 109.5t76.5 125t80.5 125t76.5 109.5h175v-406h93v-103h-93v-192h-126v192h-346z" />
    <glyph glyph-name="fiveop" horiz-adv-x="598" 
d="M515 509v-114h-307v-153q20 2 41 3t42 1q73 0 122.5 -12t79 -38.5t42 -67.5t12.5 -99q0 -66 -15 -110.5t-47.5 -71.5t-84.5 -38.5t-127 -11.5q-25 0 -54.5 2t-59.5 5.5t-58 8t-50 9.5l26 114q16 -5 37 -8.5t44 -6t46.5 -4t43.5 -1.5q48 0 78.5 5t48 17.5t23.5 33t6 50.5
q0 32 -5.5 53.5t-21.5 34.5t-45.5 18.5t-77.5 5.5q-41 0 -88.5 -3.5t-82.5 -10.5v389h432z" />
    <glyph glyph-name="sixop" horiz-adv-x="634" 
d="M321 105q38 0 62.5 5.5t38 17.5t18.5 31.5t5 48.5q0 30 -5 51t-18.5 34.5t-38 20t-63.5 6.5q-38 0 -71 -3t-58 -7q1 -65 9.5 -105.5t24 -62.5t39.5 -29.5t57 -7.5zM531 571q-28 11 -72 17t-92 6q-40 0 -71.5 -6.5t-54 -25t-35 -52.5t-13.5 -89q30 5 66.5 8t65.5 3
q73 0 122.5 -12t79.5 -38t43 -67.5t13 -99.5q0 -66 -14 -110.5t-45.5 -70.5t-81 -37t-121.5 -11q-74 0 -125.5 17.5t-83.5 59.5t-46 113t-14 178t17.5 176.5t55.5 110.5t97.5 57t144.5 16q47 0 99.5 -7.5t93.5 -19.5z" />
    <glyph glyph-name="sevenop" horiz-adv-x="524" 
d="M530 470q-23 -37 -50 -86.5t-56 -107t-58 -119.5t-55.5 -123.5t-49.5 -119t-39 -106.5h-149q27 75 62.5 159t73.5 164t76 149.5t70 114.5h-360v114h535v-39z" />
    <glyph glyph-name="eightop" horiz-adv-x="627" 
d="M313 -14q-71 0 -121 10.5t-81.5 34.5t-45.5 62.5t-14 94.5q0 39 7 71.5t25 56t49.5 37.5t81.5 16q-47 4 -76 17.5t-45 35.5t-21.5 50.5t-5.5 63.5q0 46 11.5 79.5t39.5 55.5t75.5 32.5t120.5 10.5t120.5 -10.5t76 -32.5t40 -55.5t11.5 -79.5q0 -35 -5.5 -63.5
t-21.5 -50.5t-45 -35.5t-76 -17.5q49 -2 80.5 -16t49.5 -37.5t25 -56t7 -71.5q0 -56 -14 -94.5t-45 -62.5t-81 -34.5t-121 -10.5h-1zM314 417q60 0 86.5 22t26.5 76q0 52 -25.5 70.5t-87.5 18.5q-63 0 -88.5 -18.5t-25.5 -70.5q0 -54 27 -76t87 -22zM314 94q36 0 60 5.5
t38 18t20 33t6 50.5q0 61 -27.5 87t-96.5 26q-70 0 -97.5 -26t-27.5 -87q0 -30 6 -50.5t20 -33t38.5 -18t60.5 -5.5z" />
    <glyph glyph-name="nineop" horiz-adv-x="630" 
d="M323 190q27 0 55 1.5t53 5.5q9 34 9 72q0 45 -6.5 72.5t-21 41.5t-39 18.5t-60.5 4.5q-39 0 -63 -6.5t-37.5 -20t-18.5 -35t-5 -50.5q0 -32 5 -52.5t20 -32t41 -15.5t68 -4zM169 -192q70 66 131 136t96 139q-9 -1 -21 -2t-24.5 -1.5t-23.5 -1t-18 -0.5q-74 0 -123.5 11
t-79.5 35.5t-42.5 64.5t-12.5 99q0 66 14 111.5t45 73t81 39.5t122 12q79 0 130.5 -11t81.5 -39t42 -74.5t12 -116.5q0 -75 -20 -140.5t-54 -124t-78.5 -110.5t-93.5 -100h-164z" />
    <glyph glyph-name="zerooldstyle" unicode="&#xf730;" horiz-adv-x="626" 
d="M315 424q-29 0 -49 -6t-32.5 -24t-18 -51t-5.5 -88q0 -53 5.5 -86t18 -51.5t32.5 -25t49 -6.5q30 0 49.5 6.5t30.5 25t15.5 51.5t4.5 86q0 55 -4.5 88t-16 51t-31 24t-48.5 6zM315 -14q-56 0 -99 13t-72.5 44t-45 83.5t-15.5 130.5t15.5 129.5t45.5 82t73 43t98 12.5
t98 -12.5t71.5 -43t43.5 -82t15 -129.5t-14.5 -130.5t-43.5 -83.5t-71.5 -44t-98.5 -13z" />
    <glyph glyph-name="oneoldstyle" unicode="&#xf731;" horiz-adv-x="626" 
d="M316 0v362l-156 -71l-36 104l317 129v-524h-125z" />
    <glyph glyph-name="twooldstyle" unicode="&#xf732;" horiz-adv-x="626" 
d="M93 501q19 4 45 8.5t54.5 7.5t57 5t52.5 2q66 0 110.5 -9t71 -28.5t37.5 -50t11 -72.5q0 -35 -12.5 -68t-42.5 -65.5t-80.5 -64.5t-126.5 -65h273v-101h-455v91q101 56 162 94t93.5 65t43 47.5t10.5 42.5q0 19 -5 32.5t-18 22t-35.5 12.5t-57.5 4q-17 0 -39 -2t-45 -5.5
t-43 -8t-32 -9.5z" />
    <glyph glyph-name="threeoldstyle" unicode="&#xf733;" horiz-adv-x="626" 
d="M192 233h97q63 0 89.5 18.5t26.5 69.5q0 24 -6 40t-22.5 26t-46 14.5t-75.5 4.5q-20 0 -43.5 -1.5t-47.5 -4.5t-46 -7t-38 -9l-26 114q46 10 106.5 18t120.5 8q75 0 125.5 -10t81.5 -31.5t44 -55.5t13 -81q0 -35 -6 -63.5t-22.5 -50t-45.5 -34.5t-76 -17q49 -2 81 -16
t50.5 -37t25.5 -55.5t7 -71.5q0 -57 -16 -95.5t-50 -62t-87.5 -34t-127.5 -10.5q-27 0 -57.5 2t-60.5 5.5t-58.5 8t-52.5 9.5l26 114q17 -5 39.5 -8.5t46.5 -6t48 -4t44 -1.5q50 0 81.5 5t49.5 17t25 31.5t7 47.5q0 59 -28.5 80.5t-96.5 21.5h-99v112z" />
    <glyph glyph-name="fouroldstyle" unicode="&#xf734;" horiz-adv-x="626" 
d="M369 399q-25 -32 -52 -73t-52 -82t-46.5 -78.5t-35.5 -62.5h186v296zM23 0v40q27 48 63.5 109.5t76.5 125t80.5 125t76.5 109.5h175v-406h93v-103h-93v-192h-126v192h-346z" />
    <glyph glyph-name="fiveoldstyle" unicode="&#xf735;" horiz-adv-x="626" 
d="M528 509v-114h-308v-153q20 2 41 3t43 1q73 0 122 -12t78.5 -38.5t42 -67.5t12.5 -99q0 -66 -15 -110.5t-47.5 -71.5t-84.5 -38.5t-126 -11.5q-26 0 -55.5 2t-59.5 5.5t-58 8t-49 9.5l26 114q16 -5 37 -8.5t44 -6t46 -4t43 -1.5q48 0 78.5 5t48 17.5t23.5 33t6 50.5
q0 32 -5.5 53.5t-21.5 34.5t-45 18.5t-77 5.5q-42 0 -89 -3.5t-82 -10.5v389h432z" />
    <glyph glyph-name="sixoldstyle" unicode="&#xf736;" horiz-adv-x="626" 
d="M324 105q38 0 62.5 5.5t38 17.5t18.5 31.5t5 48.5q0 30 -4.5 51t-17.5 34.5t-35 20t-57 6.5q-41 0 -77.5 -2.5t-62.5 -7.5q1 -65 9.5 -105.5t24 -62.5t39.5 -29.5t57 -7.5zM534 571q-28 11 -72 17t-92 6q-42 0 -73.5 -6.5t-53.5 -25t-34 -52.5t-13 -89q30 5 66.5 8
t65.5 3q73 0 122.5 -12t79.5 -38t43 -67.5t13 -99.5q0 -66 -14 -110.5t-45.5 -70.5t-81 -37t-121.5 -11q-74 0 -125.5 17.5t-83.5 59.5t-46 113t-14 178t17.5 176.5t55.5 110.5t97.5 57t144.5 16q47 0 99.5 -7.5t93.5 -19.5z" />
    <glyph glyph-name="sevenoldstyle" unicode="&#xf737;" horiz-adv-x="626" 
d="M597 470q-23 -37 -50 -86.5t-56 -107t-58 -119.5t-55.5 -123.5t-49.5 -119t-39 -106.5h-149q27 75 62.5 159t73.5 164t76 149.5t70 114.5h-360v114h535v-39z" />
    <glyph glyph-name="eightoldstyle" unicode="&#xf738;" horiz-adv-x="626" 
d="M313 -14q-71 0 -121 10.5t-81.5 34.5t-45.5 62.5t-14 94.5q0 39 7 71.5t25 56t49.5 37.5t81.5 16q-47 4 -76 17.5t-45 35.5t-21.5 50.5t-5.5 63.5q0 46 11.5 79.5t39.5 55.5t75.5 32.5t120.5 10.5t120.5 -10.5t75.5 -32.5t39.5 -55.5t11.5 -79.5q0 -35 -5.5 -63.5
t-21.5 -50.5t-45 -35.5t-76 -17.5q50 -2 81.5 -16t49.5 -37.5t25 -56t7 -71.5q0 -56 -14 -94.5t-45.5 -62.5t-81 -34.5t-121.5 -10.5zM313 417q60 0 86.5 22t26.5 76q0 52 -25.5 70.5t-87.5 18.5q-63 0 -88.5 -18.5t-25.5 -70.5q0 -54 27 -76t87 -22zM313 94q36 0 60 5.5
t38.5 18t20.5 33t6 50.5q0 61 -27.5 87t-97.5 26t-97 -26t-27 -87q0 -30 6 -50.5t20 -33t38 -18t60 -5.5z" />
    <glyph glyph-name="nineoldstyle" unicode="&#xf739;" horiz-adv-x="626" 
d="M323 190q27 0 55 1.5t53 5.5q9 34 9 72q0 45 -6.5 72.5t-21 41.5t-39 18.5t-60.5 4.5q-39 0 -63 -6.5t-37.5 -20t-18.5 -35t-5 -50.5q0 -32 5 -52.5t20 -32t41 -15.5t68 -4zM169 -192q70 66 131 136t96 139q-9 -1 -21 -2t-24.5 -1.5t-23.5 -1t-18 -0.5q-74 0 -123.5 11
t-79.5 35.5t-42.5 64.5t-12.5 99q0 66 14 111.5t45 73t81 39.5t122 12q79 0 130.5 -11t81.5 -39t42 -74.5t12 -116.5q0 -75 -20 -140.5t-54 -124t-78.5 -110.5t-93.5 -100h-164z" />
    <glyph glyph-name="onesuperior" unicode="&#xb9;" horiz-adv-x="377" 
d="M159 278v306l-95 -41l-27 88l226 94v-447h-104z" />
    <glyph glyph-name="twosuperior" unicode="&#xb2;" horiz-adv-x="429" 
d="M50 694q26 8 64.5 13.5t76.5 5.5q93 0 138 -29.5t45 -103.5q0 -45 -20 -81.5t-71 -54.5q-57 -20 -88 -35t-35 -46h215v-89h-339q4 50 14 85.5t27.5 60.5t42.5 42.5t59 31.5q41 16 64 33t23 45q0 26 -18 36t-65 10q-28 0 -62.5 -5t-53.5 -12z" />
    <glyph glyph-name="threesuperior" unicode="&#xb3;" horiz-adv-x="423" 
d="M131 537h50q41 0 55 10t14 37q0 25 -15.5 33.5t-66.5 8.5q-65 0 -107 -14l-16 85q29 7 65.5 11.5t74.5 4.5q94 0 136.5 -25t42.5 -85q0 -46 -19 -72.5t-77 -31.5q61 -3 83.5 -32t22.5 -80q0 -70 -48 -97.5t-141 -27.5q-34 0 -73.5 4.5t-69.5 12.5l16 85q21 -6 52.5 -10
t58.5 -4q54 0 72 11t18 41q0 32 -16 42t-60 10h-52v83z" />
    <glyph glyph-name="multiply" unicode="&#xd7;" horiz-adv-x="582" 
d="M77 233l129 130l-130 129l84 84l130 -130l130 131l84 -85l-130 -130l130 -130l-84 -83l-130 130l-129 -130z" />
    <glyph glyph-name="minus" unicode="&#x2212;" horiz-adv-x="582" 
d="M48 421h486v-118h-486v118z" />
    <glyph glyph-name="estimated" unicode="&#x212e;" horiz-adv-x="711" 
d="M365 595q-41 0 -71.5 -6t-51 -25t-32 -53t-14.5 -90h333q-2 55 -13 89t-31 53t-50 25.5t-70 6.5zM195 303q2 -62 13.5 -100t35 -60t60 -29.5t88.5 -7.5q18 0 41.5 2t47.5 5t46 7t36 9l28 -118q-20 -6 -45 -10.5t-51.5 -7.5t-53 -5t-50.5 -2q-83 0 -146 18t-106 60.5
t-64.5 113.5t-21.5 177t21 175.5t61.5 110t98 57t131.5 16.5q76 0 133.5 -20.5t95 -65.5t56.5 -117.5t19 -175.5v-32h-474z" />
    <glyph glyph-name="brokenbar" unicode="&#xa6;" horiz-adv-x="371" 
d="M251 111v-367h-131v367h131zM251 755v-367h-131v367h131z" />
    <glyph glyph-name="publish" horiz-adv-x="837" 
d="M418 622q-69 0 -116.5 -9.5t-76.5 -38t-42 -81t-13 -139.5t13 -141t42 -84t76.5 -40.5t116.5 -10.5t117 10.5t77 40.5t42 84t13 141t-13 139.5t-42 81t-77 38t-117 9.5zM611 410q0 -67 -29 -106.5t-89 -39.5h-127v-122h-105v417h231q65 0 92 -41t27 -108zM505 411
q0 29 -9.5 44.5t-34.5 15.5h-95v-117h93q26 0 36 14.5t10 42.5zM777 355q0 -108 -23 -179t-68 -113.5t-112 -59.5t-156 -17t-156 17t-112 59.5t-67.5 113.5t-22.5 179q0 106 22.5 175.5t67.5 110t112 57t156 16.5t156 -16.5t112 -57t68 -110t23 -175.5z" />
    <glyph glyph-name="Asmall" unicode="&#xf761;" horiz-adv-x="563" 
d="M267 409q-18 -45 -36 -94t-35 -101h153q-18 54 -33 102t-28 93h-21zM427 0q-11 26 -23 57t-24 66h-213q-11 -33 -19.5 -64t-16.5 -59h-128q16 57 38 122.5t46.5 132t50 132t48.5 122.5h193q18 -61 39.5 -129t45 -135.5t47 -130.5t46.5 -114h-130z" />
    <glyph glyph-name="Bsmall" unicode="&#xf762;" horiz-adv-x="580" 
d="M402 270q38 -1 63 -11t39.5 -27t20 -41t5.5 -52q0 -75 -40 -107t-110 -32h-311v509h307q43 0 70.5 -8.5t43.5 -24.5t22 -38.5t6 -50.5q0 -25 -4.5 -45.5t-17 -35.5t-35.5 -24t-59 -12zM193 311h147q27 0 38 13t11 39q0 29 -11 39.5t-38 10.5h-147v-102zM345 96
q29 0 42 13t13 45q0 35 -14.5 50.5t-43.5 15.5h-149v-124h152z" />
    <glyph glyph-name="Csmall" unicode="&#xf763;" horiz-adv-x="470" 
d="M458 12q-15 -6 -34.5 -11t-40 -8t-41.5 -5t-39 -2q-58 0 -104.5 13t-79.5 44t-50.5 83.5t-17.5 130.5t17.5 129.5t50.5 82t79.5 43t104.5 12.5q18 0 39.5 -2t42.5 -5t40 -7.5t33 -9.5l-28 -106q-24 9 -55.5 15.5t-62.5 6.5q-34 0 -59 -5.5t-41.5 -22.5t-24.5 -48.5
t-8 -84.5q0 -51 8 -82.5t24.5 -49t41.5 -23.5t59 -6q32 0 63 7t55 17z" />
    <glyph glyph-name="Dsmall" unicode="&#xf764;" horiz-adv-x="584" 
d="M193 413v-317h83q33 0 57 6t40 23t23.5 48.5t7.5 81.5q0 52 -7.5 83t-23.5 47.5t-40 22t-57 5.5h-83zM285 509q61 0 107.5 -11.5t77.5 -40t46.5 -77.5t15.5 -123q0 -75 -15.5 -124.5t-46.5 -79t-77.5 -41.5t-107.5 -12h-216v509h216z" />
    <glyph glyph-name="Esmall" unicode="&#xf765;" horiz-adv-x="505" 
d="M467 408h-274v-95h210v-95h-210v-117h274v-101h-398v509h398v-101z" />
    <glyph glyph-name="Fsmall" unicode="&#xf766;" horiz-adv-x="474" 
d="M69 509h398v-101h-274v-120h210v-97h-210v-191h-124v509z" />
    <glyph glyph-name="Gsmall" unicode="&#xf767;" horiz-adv-x="569" 
d="M505 21q-40 -14 -95.5 -24.5t-106.5 -10.5q-57 0 -103.5 13t-79.5 44t-51 83.5t-18 130.5t19.5 129.5t54 82t82.5 43t106 12.5q18 0 41.5 -2t46.5 -5t45 -7.5t37 -9.5l-32 -102q-26 9 -61 15.5t-73 6.5q-34 0 -59.5 -6t-43 -23.5t-26.5 -50t-9 -85.5q0 -51 8.5 -83
t25.5 -50t42 -25t57 -7q20 0 43 3.5t39 10.5v96h-108v97h219v-276z" />
    <glyph glyph-name="Hsmall" unicode="&#xf768;" horiz-adv-x="587" 
d="M193 216v-216h-124v509h124v-187h200v187h124v-509h-124v216h-200z" />
    <glyph glyph-name="Ismall" unicode="&#xf769;" horiz-adv-x="262" 
d="M193 0h-124v509h124v-509z" />
    <glyph glyph-name="Jsmall" unicode="&#xf76a;" horiz-adv-x="414" 
d="M346 176q0 -57 -17 -94t-45 -58.5t-63.5 -29.5t-72.5 -8q-41 0 -78.5 6t-69.5 17l24 106q23 -9 52.5 -14.5t59.5 -5.5q18 0 33.5 4t27 14.5t18.5 27.5t7 44v324h124v-333z" />
    <glyph glyph-name="Ksmall" unicode="&#xf76b;" horiz-adv-x="551" 
d="M406 0q-87 126 -139.5 193t-73.5 76q21 17 71.5 77.5t125.5 162.5h147q-74 -100 -124.5 -157.5t-70.5 -73.5q20 -12 74.5 -81t135.5 -197h-146zM193 0h-124v509h124v-509z" />
    <glyph glyph-name="Lsmall" unicode="&#xf76c;" horiz-adv-x="432" 
d="M193 111h240v-111h-364v509h124v-398z" />
    <glyph glyph-name="Msmall" unicode="&#xf76d;" horiz-adv-x="753" 
d="M382 206q31 81 62.5 155.5t66.5 147.5h173v-509h-123v371q-18 -38 -36.5 -82t-37 -89t-35.5 -89t-31 -81h-93q-14 37 -30.5 81.5t-34.5 90t-36 89t-35 80.5v-371h-123v509h181q35 -74 67.5 -148.5t64.5 -154.5z" />
    <glyph glyph-name="Nsmall" unicode="&#xf76e;" horiz-adv-x="593" 
d="M400 509h124v-509h-124q-23 41 -48.5 84t-52 85t-53.5 81t-53 71v-321h-124v509h122q54 -69 108.5 -148.5t100.5 -162.5v311z" />
    <glyph glyph-name="Osmall" unicode="&#xf76f;" 
d="M293 423q-33 0 -54.5 -5.5t-35 -23.5t-19 -51t-5.5 -88q0 -53 5.5 -86t19 -51t35 -24.5t54.5 -6.5t55.5 6.5t36 24.5t19 51t5.5 86q0 55 -5.5 88t-19 51t-36 23.5t-55.5 5.5zM293 -14q-61 0 -106.5 13t-75.5 44t-45 83.5t-15 130.5t15 129.5t45.5 82t76 43t105.5 12.5
q61 0 107 -12.5t76.5 -43t45.5 -82t15 -129.5t-15 -130.5t-45.5 -83.5t-76.5 -44t-107 -13z" />
    <glyph glyph-name="Psmall" unicode="&#xf770;" horiz-adv-x="563" 
d="M193 185v-185h-124v509h296q86 0 123 -41t37 -123q0 -73 -34.5 -116.5t-115.5 -43.5h-182zM193 413v-137h147q27 0 41 16t14 51q0 37 -13.5 53.5t-41.5 16.5h-147z" />
    <glyph glyph-name="Qsmall" unicode="&#xf771;" 
d="M293 424q-33 0 -54.5 -6t-35 -24t-19 -51t-5.5 -88q0 -53 5.5 -86t19 -51.5t35 -25t54.5 -6.5t55.5 6.5t36 25t19 51.5t5.5 86q0 55 -5.5 88t-19 51t-36 24t-55.5 6zM283 -14q-55 0 -98 13t-73 44t-45.5 83.5t-15.5 130.5t15 129.5t45.5 82t76 43t105.5 12.5
q61 0 107 -12.5t76.5 -43t45.5 -82t15 -129.5q0 -55 -7.5 -96.5t-22.5 -71.5t-37.5 -49.5t-52.5 -31.5q17 -4 35.5 -16.5t41 -35t49 -56.5t59.5 -82h-139q-54 82 -99.5 125t-80.5 43z" />
    <glyph glyph-name="Rsmall" unicode="&#xf772;" horiz-adv-x="574" 
d="M334 279q30 0 46.5 16.5t16.5 49.5q0 64 -61 64h-143v-130h141zM369 509q46 0 76 -12t48 -32t25.5 -47t7.5 -58q0 -27 -6.5 -51.5t-22.5 -44t-43 -31.5t-68 -13q19 -5 36 -15t37 -33t46 -64t64 -108h-144q-30 57 -53 92.5t-41.5 55t-34.5 26.5t-32 7h-71v-181h-124v509
h300z" />
    <glyph glyph-name="Ssmall" unicode="&#xf773;" horiz-adv-x="491" 
d="M407 399q-30 10 -70 17t-78 7q-23 0 -40 -2t-28.5 -8t-17.5 -17.5t-6 -31.5q0 -26 21.5 -37.5t83.5 -17.5q46 -5 79.5 -15t55 -28t32 -45t10.5 -65q0 -50 -16 -82.5t-44.5 -52t-68.5 -27.5t-89 -8q-20 0 -44.5 2t-49 5.5t-47.5 8.5t-41 11l26 98q14 -5 32 -9.5t38 -7.5
t41 -5t40 -2q51 0 75.5 11t24.5 51q0 13 -4.5 23.5t-16.5 17.5t-33.5 12t-54.5 8q-42 3 -74 11.5t-54 25t-33 43t-11 65.5q0 49 16 82t44.5 52t69 27t88.5 8q40 0 86.5 -7.5t84.5 -20.5z" />
    <glyph glyph-name="Tsmall" unicode="&#xf774;" horiz-adv-x="485" 
d="M304 0h-124v401h-175v108h475v-108h-176v-401z" />
    <glyph glyph-name="Usmall" unicode="&#xf775;" horiz-adv-x="578" 
d="M289 97q60 0 79.5 24t19.5 78v310h123v-303q0 -62 -12 -104.5t-38 -68t-68.5 -36.5t-103.5 -11t-103.5 11t-69 36.5t-38.5 68t-12 104.5v303h124v-310q0 -54 19.5 -78t79.5 -24z" />
    <glyph glyph-name="Vsmall" unicode="&#xf776;" horiz-adv-x="522" 
d="M264 125q36 96 68.5 192t57.5 192h126q-37 -125 -84.5 -254.5t-98.5 -254.5h-153q-38 134 -80.5 264t-90.5 245h129q34 -86 66.5 -185.5t59.5 -198.5z" />
    <glyph glyph-name="Wsmall" unicode="&#xf777;" horiz-adv-x="830" 
d="M415 341q-9 -40 -21 -85t-25 -90.5t-26.5 -88.5t-25.5 -77h-153q-37 134 -78 262.5t-86 246.5h131q32 -85 62 -184t54 -198q13 38 29 90t31.5 105.5t28.5 103t21 83.5h121q12 -37 26.5 -86t28.5 -101t26.5 -103t21.5 -92q35 96 65 191t53 191h126q-35 -125 -79.5 -256.5
t-94.5 -252.5h-154q-8 39 -18 85.5t-21.5 93.5t-22.5 89.5t-20 72.5z" />
    <glyph glyph-name="Xsmall" unicode="&#xf778;" horiz-adv-x="521" 
d="M376 0q-21 35 -48.5 76t-58.5 85q-34 -46 -65.5 -86.5t-59.5 -74.5h-138q41 48 93 115t105 139q-52 72 -103.5 139.5t-93.5 115.5h148q26 -32 56 -72t61 -84q32 45 58.5 84.5t46.5 71.5h138q-35 -52 -80.5 -117.5t-94.5 -133.5q48 -68 94 -135t82 -123h-140z" />
    <glyph glyph-name="Ysmall" unicode="&#xf779;" horiz-adv-x="487" 
d="M250 332q16 19 33 42t33.5 46.5t32 46t27.5 42.5h136q-47 -72 -99 -144t-103 -134v-231h-124v231q-25 35 -52.5 73t-55.5 74.5t-54.5 70t-48.5 60.5h144q31 -37 65.5 -84.5t65.5 -92.5z" />
    <glyph glyph-name="Zsmall" unicode="&#xf77a;" horiz-adv-x="497" 
d="M474 509v-25q-27 -44 -62 -96t-71 -103.5t-70 -98t-59 -78.5h255v-108h-449v25q36 46 75.5 99t75.5 104.5t66 96.5t49 76h-249v108h439z" />
    <glyph glyph-name="AEsmall" unicode="&#xf7e6;" horiz-adv-x="808" 
d="M349 417q-33 -45 -69.5 -96.5t-71.5 -103.5h164v200h-23zM706 218h-210v-117h274v-101h-398v125h-224q-23 -34 -43 -65.5t-37 -59.5h-135q36 57 80 122.5t91.5 132t95 132t90.5 122.5h480v-101h-274v-95h210v-95z" />
    <glyph glyph-name="OEsmall" unicode="&#xf6fa;" horiz-adv-x="825" 
d="M293 424q-33 0 -54.5 -6t-35 -24t-19 -51t-5.5 -88q0 -53 5.5 -86t19 -51.5t35 -25t54.5 -6.5t55.5 6.5t36 25t19 51.5t5.5 86q0 55 -5.5 88t-19 51t-36 24t-55.5 6zM787 408h-278q11 -18 17.5 -41t8.5 -54h188v-95h-188q-1 -40 -8 -68.5t-19 -48.5h279v-101h-384
q-23 -8 -50.5 -11t-59.5 -3q-61 0 -106.5 13t-75.5 44t-45 83.5t-15 130.5t15 129.5t45.5 82t76 43t105.5 12.5q65 0 113 -15h381v-101z" />
    <glyph glyph-name="Ethsmall" unicode="&#xf7f0;" horiz-adv-x="584" 
d="M193 413v-103h89v-90h-89v-124h83q33 0 57 6t40 23t23.5 48.5t7.5 81.5q0 52 -7.5 83t-23.5 47.5t-40 22t-57 5.5h-83zM22 310h47v199h216q61 0 107.5 -11.5t77.5 -40t46.5 -77.5t15.5 -123q0 -75 -15.5 -124.5t-46.5 -79t-77.5 -41.5t-107.5 -12h-216v220h-47v90z" />
    <glyph glyph-name="IJsmall" horiz-adv-x="675" 
d="M607 176q0 -57 -17 -94t-45 -58.5t-63.5 -29.5t-72.5 -8q-41 0 -78.5 6t-69.5 17l24 106q23 -9 52.5 -14.5t59.5 -5.5q18 0 33.5 4t27 14.5t18.5 27.5t7 44v324h124v-333zM193 0h-124v509h124v-509z" />
    <glyph glyph-name="Oslashsmall" unicode="&#xf7f8;" 
d="M293 87q35 0 57.5 8t35.5 27.5t18 51.5t5 79q0 19 -1 35t-5 33l-186 -217q13 -10 31.5 -13.5t44.5 -3.5zM293 423q-31 0 -53 -5.5t-36 -21.5t-20.5 -45t-6.5 -76q0 -26 2 -49t5 -40l187 220q-14 10 -33 13.5t-45 3.5zM569 509l-67 -76q17 -31 26 -74t9 -102
q0 -78 -15 -130.5t-45.5 -83.5t-76.5 -44t-107 -13q-96 0 -151 33l-17 -19h-105l66 76q-17 32 -26 76.5t-9 104.5q0 78 15 129.5t45.5 82t76 43t105.5 12.5q48 0 86 -7.5t67 -25.5l16 18h107z" />
    <glyph glyph-name="Thornsmall" unicode="&#xf7fe;" horiz-adv-x="563" 
d="M193 325v-137h147q27 0 41 16t14 51q0 37 -13.5 53.5t-41.5 16.5h-147zM193 0h-124v509h124v-88h172q86 0 123 -41t37 -123q0 -73 -34.5 -116.5t-115.5 -43.5h-182v-97z" />
    <glyph glyph-name="Aacutesmall" unicode="&#xf7e1;" horiz-adv-x="563" 
d="M182 568l121 129h133l-145 -129h-109zM267 409q-18 -45 -36 -94t-35 -101h153q-18 54 -33 102t-28 93h-21zM427 0q-11 26 -23 57t-24 66h-213q-11 -33 -19.5 -64t-16.5 -59h-128q16 57 38 122.5t46.5 132t50 132t48.5 122.5h193q18 -61 39.5 -129t45 -135.5t47 -130.5
t46.5 -114h-130z" />
    <glyph glyph-name="Abrevesmall" horiz-adv-x="563" 
d="M215 697q0 -35 16.5 -46.5t49.5 -11.5q32 0 49.5 11.5t17.5 46.5h80q0 -72 -38.5 -104.5t-111.5 -32.5q-71 0 -109.5 32.5t-38.5 104.5h85zM267 409q-18 -45 -36 -94t-35 -101h153q-18 54 -33 102t-28 93h-21zM427 0q-11 26 -23 57t-24 66h-213q-11 -33 -19.5 -64
t-16.5 -59h-128q16 57 38 122.5t46.5 132t50 132t48.5 122.5h193q18 -61 39.5 -129t45 -135.5t47 -130.5t46.5 -114h-130z" />
    <glyph glyph-name="Acircumflexsmall" unicode="&#xf7e2;" horiz-adv-x="563" 
d="M349 568l-71 76l-69 -76h-113l122 129h122l126 -129h-117zM267 409q-18 -45 -36 -94t-35 -101h153q-18 54 -33 102t-28 93h-21zM427 0q-11 26 -23 57t-24 66h-213q-11 -33 -19.5 -64t-16.5 -59h-128q16 57 38 122.5t46.5 132t50 132t48.5 122.5h193q18 -61 39.5 -129
t45 -135.5t47 -130.5t46.5 -114h-130z" />
    <glyph glyph-name="Adieresissmall" unicode="&#xf7e4;" horiz-adv-x="563" 
d="M386 681q33 0 46 -9.5t13 -45.5q0 -40 -13 -51t-46 -11q-35 0 -47.5 11t-12.5 51q0 18 3 29t10 16.5t18.5 7.5t28.5 2zM172 681q34 0 47 -9.5t13 -45.5q0 -40 -13 -51t-47 -11t-46.5 11t-12.5 51q0 36 12.5 45.5t46.5 9.5zM267 409q-18 -45 -36 -94t-35 -101h153
q-18 54 -33 102t-28 93h-21zM427 0q-11 26 -23 57t-24 66h-213q-11 -33 -19.5 -64t-16.5 -59h-128q16 57 38 122.5t46.5 132t50 132t48.5 122.5h193q18 -61 39.5 -129t45 -135.5t47 -130.5t46.5 -114h-130z" />
    <glyph glyph-name="Agravesmall" unicode="&#xf7e0;" horiz-adv-x="563" 
d="M275 568l-144 129h132l122 -129h-110zM267 409q-18 -45 -36 -94t-35 -101h153q-18 54 -33 102t-28 93h-21zM427 0q-11 26 -23 57t-24 66h-213q-11 -33 -19.5 -64t-16.5 -59h-128q16 57 38 122.5t46.5 132t50 132t48.5 122.5h193q18 -61 39.5 -129t45 -135.5t47 -130.5
t46.5 -114h-130z" />
    <glyph glyph-name="Amacronsmall" horiz-adv-x="563" 
d="M138 666h278v-90h-278v90zM267 409q-18 -45 -36 -94t-35 -101h153q-18 54 -33 102t-28 93h-21zM427 0q-11 26 -23 57t-24 66h-213q-11 -33 -19.5 -64t-16.5 -59h-128q16 57 38 122.5t46.5 132t50 132t48.5 122.5h193q18 -61 39.5 -129t45 -135.5t47 -130.5t46.5 -114
h-130z" />
    <glyph glyph-name="Aogoneksmall" horiz-adv-x="563" 
d="M521 12q-26 -16 -42.5 -29t-25.5 -25t-12.5 -24t-3.5 -26q0 -21 11.5 -30.5t48.5 -9.5q24 0 46.5 7.5t36.5 19.5l35 -63q-24 -18 -61 -26.5t-70 -8.5q-38 0 -63.5 5.5t-40.5 17t-21.5 28t-6.5 38.5q0 40 31.5 74t98.5 52h39zM267 409q-18 -45 -36 -94t-35 -101h153
q-18 54 -33 102t-28 93h-21zM427 0q-11 26 -23 57t-24 66h-213q-11 -33 -19.5 -64t-16.5 -59h-128q16 57 38 122.5t46.5 132t50 132t48.5 122.5h193q18 -61 39.5 -129t45 -135.5t47 -130.5t46.5 -114h-130z" />
    <glyph glyph-name="Aringsmall" unicode="&#xf7e5;" horiz-adv-x="563" 
d="M277 684q-31 0 -40.5 -10t-9.5 -33q0 -22 9.5 -32.5t40.5 -10.5t40.5 11t9.5 32q0 23 -9.5 33t-40.5 10zM277 741q60 0 89.5 -22t29.5 -76q0 -55 -29.5 -76.5t-89.5 -21.5t-90 21.5t-30 76.5q0 54 28 76t92 22zM267 409q-18 -45 -36 -94t-35 -101h153q-18 54 -33 102
t-28 93h-21zM427 0q-11 26 -23 57t-24 66h-213q-11 -33 -19.5 -64t-16.5 -59h-128q16 57 38 122.5t46.5 132t50 132t48.5 122.5h193q18 -61 39.5 -129t45 -135.5t47 -130.5t46.5 -114h-130z" />
    <glyph glyph-name="Atildesmall" unicode="&#xf7e3;" horiz-adv-x="563" 
d="M462 652q-14 -41 -43 -67t-74 -26q-23 0 -40.5 8.5t-34 18t-32.5 18t-34 8.5q-15 0 -27.5 -11t-24.5 -40l-56 55q21 37 46 59t63 22q25 0 44 -8.5t35 -18t30.5 -18t32.5 -8.5t29.5 12t23.5 46zM267 409q-18 -45 -36 -94t-35 -101h153q-18 54 -33 102t-28 93h-21zM427 0
q-11 26 -23 57t-24 66h-213q-11 -33 -19.5 -64t-16.5 -59h-128q16 57 38 122.5t46.5 132t50 132t48.5 122.5h193q18 -61 39.5 -129t45 -135.5t47 -130.5t46.5 -114h-130z" />
    <glyph glyph-name="Ccedillasmall" unicode="&#xf7e7;" horiz-adv-x="470" 
d="M309 0v-42q59 0 84.5 -16.5t25.5 -61.5q0 -47 -31 -65t-106 -18q-35 0 -57 4t-41 12l22 54q12 -6 31 -9t40 -3q23 0 32 5.5t9 20.5q0 19 -20 24t-74 2l36 93h49zM458 12q-15 -6 -34.5 -11t-40 -8t-41.5 -5t-39 -2q-58 0 -104.5 13t-79.5 44t-50.5 83.5t-17.5 130.5
t17.5 129.5t50.5 82t79.5 43t104.5 12.5q18 0 39.5 -2t42.5 -5t40 -7.5t33 -9.5l-28 -106q-24 9 -55.5 15.5t-62.5 6.5q-34 0 -59 -5.5t-41.5 -22.5t-24.5 -48.5t-8 -84.5q0 -51 8 -82.5t24.5 -49t41.5 -23.5t59 -6q32 0 63 7t55 17z" />
    <glyph glyph-name="Cacutesmall" horiz-adv-x="470" 
d="M196 568l121 129h133l-145 -129h-109zM458 12q-15 -6 -34.5 -11t-40 -8t-41.5 -5t-39 -2q-58 0 -104.5 13t-79.5 44t-50.5 83.5t-17.5 130.5t17.5 129.5t50.5 82t79.5 43t104.5 12.5q18 0 39.5 -2t42.5 -5t40 -7.5t33 -9.5l-28 -106q-24 9 -55.5 15.5t-62.5 6.5
q-34 0 -59 -5.5t-41.5 -22.5t-24.5 -48.5t-8 -84.5q0 -51 8 -82.5t24.5 -49t41.5 -23.5t59 -6q32 0 63 7t55 17z" />
    <glyph glyph-name="Ccircumflexsmall" horiz-adv-x="470" 
d="M360 568l-71 76l-69 -76h-113l122 129h122l126 -129h-117zM458 12q-15 -6 -34.5 -11t-40 -8t-41.5 -5t-39 -2q-58 0 -104.5 13t-79.5 44t-50.5 83.5t-17.5 130.5t17.5 129.5t50.5 82t79.5 43t104.5 12.5q18 0 39.5 -2t42.5 -5t40 -7.5t33 -9.5l-28 -106q-24 9 -55.5 15.5
t-62.5 6.5q-34 0 -59 -5.5t-41.5 -22.5t-24.5 -48.5t-8 -84.5q0 -51 8 -82.5t24.5 -49t41.5 -23.5t59 -6q32 0 63 7t55 17z" />
    <glyph glyph-name="Ccaronsmall" horiz-adv-x="470" 
d="M223 697l71 -76l69 76h113l-122 -129h-122l-126 129h117zM458 12q-15 -6 -34.5 -11t-40 -8t-41.5 -5t-39 -2q-58 0 -104.5 13t-79.5 44t-50.5 83.5t-17.5 130.5t17.5 129.5t50.5 82t79.5 43t104.5 12.5q18 0 39.5 -2t42.5 -5t40 -7.5t33 -9.5l-28 -106q-24 9 -55.5 15.5
t-62.5 6.5q-34 0 -59 -5.5t-41.5 -22.5t-24.5 -48.5t-8 -84.5q0 -51 8 -82.5t24.5 -49t41.5 -23.5t59 -6q32 0 63 7t55 17z" />
    <glyph glyph-name="Cdotaccentsmall" horiz-adv-x="470" 
d="M294 681q34 0 47 -9.5t13 -45.5q0 -40 -13 -51t-47 -11t-46.5 11t-12.5 51q0 36 12.5 45.5t46.5 9.5zM458 12q-15 -6 -34.5 -11t-40 -8t-41.5 -5t-39 -2q-58 0 -104.5 13t-79.5 44t-50.5 83.5t-17.5 130.5t17.5 129.5t50.5 82t79.5 43t104.5 12.5q18 0 39.5 -2t42.5 -5
t40 -7.5t33 -9.5l-28 -106q-24 9 -55.5 15.5t-62.5 6.5q-34 0 -59 -5.5t-41.5 -22.5t-24.5 -48.5t-8 -84.5q0 -51 8 -82.5t24.5 -49t41.5 -23.5t59 -6q32 0 63 7t55 17z" />
    <glyph glyph-name="Dcroatsmall" horiz-adv-x="584" 
d="M193 413v-103h89v-90h-89v-124h83q33 0 57 6t40 23t23.5 48.5t7.5 81.5q0 52 -7.5 83t-23.5 47.5t-40 22t-57 5.5h-83zM22 310h47v199h216q61 0 107.5 -11.5t77.5 -40t46.5 -77.5t15.5 -123q0 -75 -15.5 -124.5t-46.5 -79t-77.5 -41.5t-107.5 -12h-216v220h-47v90z" />
    <glyph glyph-name="Dcaronsmall" horiz-adv-x="584" 
d="M211 697l71 -76l69 76h113l-122 -129h-122l-126 129h117zM193 413v-317h83q33 0 57 6t40 23t23.5 48.5t7.5 81.5q0 52 -7.5 83t-23.5 47.5t-40 22t-57 5.5h-83zM285 509q61 0 107.5 -11.5t77.5 -40t46.5 -77.5t15.5 -123q0 -75 -15.5 -124.5t-46.5 -79t-77.5 -41.5
t-107.5 -12h-216v509h216z" />
    <glyph glyph-name="Dmacronsmall" horiz-adv-x="584" 
d="M137 666h278v-90h-278v90zM193 413v-317h83q33 0 57 6t40 23t23.5 48.5t7.5 81.5q0 52 -7.5 83t-23.5 47.5t-40 22t-57 5.5h-83zM285 509q61 0 107.5 -11.5t77.5 -40t46.5 -77.5t15.5 -123q0 -75 -15.5 -124.5t-46.5 -79t-77.5 -41.5t-107.5 -12h-216v509h216z" />
    <glyph glyph-name="Eacutesmall" unicode="&#xf7e9;" horiz-adv-x="505" 
d="M178 568l121 129h133l-145 -129h-109zM467 408h-274v-95h210v-95h-210v-117h274v-101h-398v509h398v-101z" />
    <glyph glyph-name="Ebrevesmall" horiz-adv-x="505" 
d="M216 697q0 -35 16.5 -46.5t49.5 -11.5q32 0 49.5 11.5t17.5 46.5h80q0 -72 -38.5 -104.5t-111.5 -32.5q-71 0 -109.5 32.5t-38.5 104.5h85zM467 408h-274v-95h210v-95h-210v-117h274v-101h-398v509h398v-101z" />
    <glyph glyph-name="Ecaronsmall" horiz-adv-x="505" 
d="M220 697l71 -76l69 76h113l-122 -129h-122l-126 129h117zM467 408h-274v-95h210v-95h-210v-117h274v-101h-398v509h398v-101z" />
    <glyph glyph-name="Ecircumflexsmall" unicode="&#xf7ea;" horiz-adv-x="505" 
d="M350 568l-71 76l-69 -76h-113l122 129h122l126 -129h-117zM467 408h-274v-95h210v-95h-210v-117h274v-101h-398v509h398v-101z" />
    <glyph glyph-name="Edieresissmall" unicode="&#xf7eb;" horiz-adv-x="505" 
d="M388 681q33 0 46 -9.5t13 -45.5q0 -40 -13 -51t-46 -11q-35 0 -47.5 11t-12.5 51q0 18 3 29t10 16.5t18.5 7.5t28.5 2zM174 681q34 0 47 -9.5t13 -45.5q0 -40 -13 -51t-47 -11t-46.5 11t-12.5 51q0 36 12.5 45.5t46.5 9.5zM467 408h-274v-95h210v-95h-210v-117h274v-101
h-398v509h398v-101z" />
    <glyph glyph-name="Edotaccentsmall" horiz-adv-x="505" 
d="M281 681q34 0 47 -9.5t13 -45.5q0 -40 -13 -51t-47 -11t-46.5 11t-12.5 51q0 36 12.5 45.5t46.5 9.5zM467 408h-274v-95h210v-95h-210v-117h274v-101h-398v509h398v-101z" />
    <glyph glyph-name="Egravesmall" unicode="&#xf7e8;" horiz-adv-x="505" 
d="M275 568l-144 129h132l122 -129h-110zM467 408h-274v-95h210v-95h-210v-117h274v-101h-398v509h398v-101z" />
    <glyph glyph-name="Emacronsmall" horiz-adv-x="505" 
d="M134 666h278v-90h-278v90zM467 408h-274v-95h210v-95h-210v-117h274v-101h-398v509h398v-101z" />
    <glyph glyph-name="Eogoneksmall" horiz-adv-x="505" 
d="M426 12q-26 -16 -42.5 -29t-25.5 -25t-12.5 -24t-3.5 -26q0 -21 11.5 -30.5t48.5 -9.5q24 0 46.5 7.5t36.5 19.5l35 -63q-24 -18 -61 -26.5t-70 -8.5q-38 0 -63.5 5.5t-40.5 17t-21.5 28t-6.5 38.5q0 40 31.5 74t98.5 52h39zM467 408h-274v-95h210v-95h-210v-117h274
v-101h-398v509h398v-101z" />
    <glyph glyph-name="Gacutesmall" horiz-adv-x="569" 
d="M199 568l121 129h133l-145 -129h-109zM505 21q-40 -14 -95.5 -24.5t-106.5 -10.5q-57 0 -103.5 13t-79.5 44t-51 83.5t-18 130.5t19.5 129.5t54 82t82.5 43t106 12.5q18 0 41.5 -2t46.5 -5t45 -7.5t37 -9.5l-32 -102q-26 9 -61 15.5t-73 6.5q-34 0 -59.5 -6t-43 -23.5
t-26.5 -50t-9 -85.5q0 -51 8.5 -83t25.5 -50t42 -25t57 -7q20 0 43 3.5t39 10.5v96h-108v97h219v-276z" />
    <glyph glyph-name="Gbrevesmall" horiz-adv-x="569" 
d="M246 697q0 -35 16.5 -46.5t49.5 -11.5q32 0 49.5 11.5t17.5 46.5h80q0 -72 -38.5 -104.5t-111.5 -32.5q-71 0 -109.5 32.5t-38.5 104.5h85zM505 21q-40 -14 -95.5 -24.5t-106.5 -10.5q-57 0 -103.5 13t-79.5 44t-51 83.5t-18 130.5t19.5 129.5t54 82t82.5 43t106 12.5
q18 0 41.5 -2t46.5 -5t45 -7.5t37 -9.5l-32 -102q-26 9 -61 15.5t-73 6.5q-34 0 -59.5 -6t-43 -23.5t-26.5 -50t-9 -85.5q0 -51 8.5 -83t25.5 -50t42 -25t57 -7q20 0 43 3.5t39 10.5v96h-108v97h219v-276z" />
    <glyph glyph-name="Gcircumflexsmall" horiz-adv-x="569" 
d="M377 568l-71 76l-69 -76h-113l122 129h122l126 -129h-117zM505 21q-40 -14 -95.5 -24.5t-106.5 -10.5q-57 0 -103.5 13t-79.5 44t-51 83.5t-18 130.5t19.5 129.5t54 82t82.5 43t106 12.5q18 0 41.5 -2t46.5 -5t45 -7.5t37 -9.5l-32 -102q-26 9 -61 15.5t-73 6.5
q-34 0 -59.5 -6t-43 -23.5t-26.5 -50t-9 -85.5q0 -51 8.5 -83t25.5 -50t42 -25t57 -7q20 0 43 3.5t39 10.5v96h-108v97h219v-276z" />
    <glyph glyph-name="Gcommaaccentsmall" horiz-adv-x="569" 
d="M273 -218h-97l71 167h134zM505 21q-40 -14 -95.5 -24.5t-106.5 -10.5q-57 0 -103.5 13t-79.5 44t-51 83.5t-18 130.5t19.5 129.5t54 82t82.5 43t106 12.5q18 0 41.5 -2t46.5 -5t45 -7.5t37 -9.5l-32 -102q-26 9 -61 15.5t-73 6.5q-34 0 -59.5 -6t-43 -23.5t-26.5 -50
t-9 -85.5q0 -51 8.5 -83t25.5 -50t42 -25t57 -7q20 0 43 3.5t39 10.5v96h-108v97h219v-276z" />
    <glyph glyph-name="Gdotaccentsmall" horiz-adv-x="569" 
d="M306 681q34 0 47 -9.5t13 -45.5q0 -40 -13 -51t-47 -11t-46.5 11t-12.5 51q0 36 12.5 45.5t46.5 9.5zM505 21q-40 -14 -95.5 -24.5t-106.5 -10.5q-57 0 -103.5 13t-79.5 44t-51 83.5t-18 130.5t19.5 129.5t54 82t82.5 43t106 12.5q18 0 41.5 -2t46.5 -5t45 -7.5t37 -9.5
l-32 -102q-26 9 -61 15.5t-73 6.5q-34 0 -59.5 -6t-43 -23.5t-26.5 -50t-9 -85.5q0 -51 8.5 -83t25.5 -50t42 -25t57 -7q20 0 43 3.5t39 10.5v96h-108v97h219v-276z" />
    <glyph glyph-name="Hcircumflexsmall" horiz-adv-x="587" 
d="M363 568l-71 76l-69 -76h-113l122 129h122l126 -129h-117zM193 216v-216h-124v509h124v-187h200v187h124v-509h-124v216h-200z" />
    <glyph glyph-name="Hbarsmall" horiz-adv-x="587" 
d="M393 322v59h-200v-59h200zM13 460h56v49h124v-49h200v49h124v-49h57v-79h-57v-381h-124v216h-200v-216h-124v381h-56v79z" />
    <glyph glyph-name="Iacutesmall" unicode="&#xf7ed;" horiz-adv-x="262" 
d="M44 568l121 129h133l-145 -129h-109zM193 0h-124v509h124v-509z" />
    <glyph glyph-name="Icircumflexsmall" unicode="&#xf7ee;" horiz-adv-x="262" 
d="M200 568l-71 76l-69 -76h-113l122 129h122l126 -129h-117zM193 0h-124v509h124v-509z" />
    <glyph glyph-name="Idieresissmall" unicode="&#xf7ef;" horiz-adv-x="262" 
d="M239 681q33 0 46 -9.5t13 -45.5q0 -40 -13 -51t-46 -11q-35 0 -47.5 11t-12.5 51q0 18 3 29t10 16.5t18.5 7.5t28.5 2zM25 681q34 0 47 -9.5t13 -45.5q0 -40 -13 -51t-47 -11t-46.5 11t-12.5 51q0 36 12.5 45.5t46.5 9.5zM193 0h-124v509h124v-509z" />
    <glyph glyph-name="Igravesmall" unicode="&#xf7ec;" horiz-adv-x="262" 
d="M104 568l-144 129h132l122 -129h-110zM193 0h-124v509h124v-509z" />
    <glyph glyph-name="Imacronsmall" horiz-adv-x="262" 
d="M-7 666h278v-90h-278v90zM193 0h-124v509h124v-509z" />
    <glyph glyph-name="Iogoneksmall" horiz-adv-x="262" 
d="M171 12q-26 -16 -42.5 -29t-25.5 -25t-12.5 -24t-3.5 -26q0 -21 11.5 -30.5t48.5 -9.5q24 0 46.5 7.5t36.5 19.5l35 -63q-24 -18 -61 -26.5t-70 -8.5q-38 0 -63.5 5.5t-40.5 17t-21.5 28t-6.5 38.5q0 40 31.5 74t98.5 52h39zM193 0h-124v509h124v-509z" />
    <glyph glyph-name="Itildesmall" horiz-adv-x="262" 
d="M317 652q-14 -41 -43 -67t-74 -26q-23 0 -40.5 8.5t-34 18t-32.5 18t-34 8.5q-15 0 -27.5 -11t-24.5 -40l-56 55q21 37 46 59t63 22q25 0 44 -8.5t35 -18t30.5 -18t32.5 -8.5t29.5 12t23.5 46zM193 0h-124v509h124v-509z" />
    <glyph glyph-name="Jcircumflexsmall" horiz-adv-x="414" 
d="M349 568l-71 76l-69 -76h-113l122 129h122l126 -129h-117zM346 176q0 -57 -17 -94t-45 -58.5t-63.5 -29.5t-72.5 -8q-41 0 -78.5 6t-69.5 17l24 106q23 -9 52.5 -14.5t59.5 -5.5q18 0 33.5 4t27 14.5t18.5 27.5t7 44v324h124v-333z" />
    <glyph glyph-name="Kcommaaccentsmall" horiz-adv-x="551" 
d="M269 -218h-97l71 167h134zM406 0q-87 126 -139.5 193t-73.5 76q21 17 71.5 77.5t125.5 162.5h147q-74 -100 -124.5 -157.5t-70.5 -73.5q20 -12 74.5 -81t135.5 -197h-146zM193 0h-124v509h124v-509z" />
    <glyph glyph-name="Lacutesmall" horiz-adv-x="432" 
d="M91 568l121 129h133l-145 -129h-109zM193 111h240v-111h-364v509h124v-398z" />
    <glyph glyph-name="Lcaronsmall" horiz-adv-x="432" 
d="M381 540l-57 -192h-73l20 192h110zM193 111h240v-111h-364v509h124v-398z" />
    <glyph glyph-name="Lcommaaccentsmall" horiz-adv-x="432" 
d="M211 -218h-97l71 167h134zM193 111h240v-111h-364v509h124v-398z" />
    <glyph glyph-name="Ldotsmall" horiz-adv-x="432" 
d="M309 382q34 0 47 -9.5t13 -45.5q0 -40 -13 -51t-47 -11t-46.5 11t-12.5 51q0 36 12.5 45.5t46.5 9.5zM193 111h240v-111h-364v509h124v-398z" />
    <glyph glyph-name="Lslashsmall" unicode="&#xf6f9;" horiz-adv-x="432" 
d="M193 111h240v-111h-364v128l-42 -37v107l42 37v274h124v-170l94 83v-108l-94 -82v-121z" />
    <glyph glyph-name="Nacutesmall" horiz-adv-x="593" 
d="M211 568l121 129h133l-145 -129h-109zM400 509h124v-509h-124q-23 41 -48.5 84t-52 85t-53.5 81t-53 71v-321h-124v509h122q54 -69 108.5 -148.5t100.5 -162.5v311z" />
    <glyph glyph-name="Ncaronsmall" horiz-adv-x="593" 
d="M231 697l71 -76l69 76h113l-122 -129h-122l-126 129h117zM400 509h124v-509h-124q-23 41 -48.5 84t-52 85t-53.5 81t-53 71v-321h-124v509h122q54 -69 108.5 -148.5t100.5 -162.5v311z" />
    <glyph glyph-name="Ncommaaccentsmall" horiz-adv-x="593" 
d="M265 -218h-97l71 167h134zM400 509h124v-509h-124q-23 41 -48.5 84t-52 85t-53.5 81t-53 71v-321h-124v509h122q54 -69 108.5 -148.5t100.5 -162.5v311z" />
    <glyph glyph-name="Ntildesmall" unicode="&#xf7f1;" horiz-adv-x="593" 
d="M486 652q-14 -41 -43 -67t-74 -26q-23 0 -40.5 8.5t-34 18t-32.5 18t-34 8.5q-15 0 -27.5 -11t-24.5 -40l-56 55q21 37 46 59t63 22q25 0 44 -8.5t35 -18t30.5 -18t32.5 -8.5t29.5 12t23.5 46zM400 509h124v-509h-124q-23 41 -48.5 84t-52 85t-53.5 81t-53 71v-321h-124
v509h122q54 -69 108.5 -148.5t100.5 -162.5v311z" />
    <glyph glyph-name="Oacutesmall" unicode="&#xf7f3;" 
d="M198 568l121 129h133l-145 -129h-109zM293 424q-33 0 -54.5 -6t-35 -24t-19 -51t-5.5 -88q0 -53 5.5 -86t19 -51.5t35 -25t54.5 -6.5t55.5 6.5t36 25t19 51.5t5.5 86q0 55 -5.5 88t-19 51t-36 24t-55.5 6zM293 -14q-61 0 -106.5 13t-75.5 44t-45 83.5t-15 130.5t15 129.5
t45.5 82t76 43t105.5 12.5q61 0 107 -12.5t76.5 -43t45.5 -82t15 -129.5t-15 -130.5t-45.5 -83.5t-76.5 -44t-107 -13z" />
    <glyph glyph-name="Obrevesmall" 
d="M229 697q0 -35 16.5 -46.5t50.5 -11.5q32 0 49 11.5t17 46.5h80q0 -72 -38 -104.5t-111 -32.5q-72 0 -110.5 32.5t-38.5 104.5h85zM293 423q-33 0 -54.5 -5.5t-35 -23.5t-19 -51t-5.5 -88q0 -53 5.5 -86t19 -51t35 -24.5t54.5 -6.5t55.5 6.5t36 24.5t19 51t5.5 86
q0 55 -5.5 88t-19 51t-36 23.5t-55.5 5.5zM293 -14q-61 0 -106.5 13t-75.5 44t-45 83.5t-15 130.5t15 129.5t45.5 82t76 43t105.5 12.5q61 0 107 -12.5t76.5 -43t45.5 -82t15 -129.5t-15 -130.5t-45.5 -83.5t-76.5 -44t-107 -13z" />
    <glyph glyph-name="Ocircumflexsmall" unicode="&#xf7f4;" 
d="M360 568l-71 76l-69 -76h-113l122 129h122l126 -129h-117zM293 424q-33 0 -54.5 -6t-35 -24t-19 -51t-5.5 -88q0 -53 5.5 -86t19 -51.5t35 -25t54.5 -6.5t55.5 6.5t36 25t19 51.5t5.5 86q0 55 -5.5 88t-19 51t-36 24t-55.5 6zM293 -14q-61 0 -106.5 13t-75.5 44t-45 83.5
t-15 130.5t15 129.5t45.5 82t76 43t105.5 12.5q61 0 107 -12.5t76.5 -43t45.5 -82t15 -129.5t-15 -130.5t-45.5 -83.5t-76.5 -44t-107 -13z" />
    <glyph glyph-name="Odieresissmall" unicode="&#xf7f6;" 
d="M400 681q33 0 46 -9.5t13 -45.5q0 -40 -13 -51t-46 -11q-35 0 -47.5 11t-12.5 51q0 18 3 29t10 16.5t18.5 7.5t28.5 2zM186 681q34 0 47 -9.5t13 -45.5q0 -40 -13 -51t-47 -11t-46.5 11t-12.5 51q0 36 12.5 45.5t46.5 9.5zM293 424q-33 0 -54.5 -6t-35 -24t-19 -51
t-5.5 -88q0 -53 5.5 -86t19 -51.5t35 -25t54.5 -6.5t55.5 6.5t36 25t19 51.5t5.5 86q0 55 -5.5 88t-19 51t-36 24t-55.5 6zM293 -14q-61 0 -106.5 13t-75.5 44t-45 83.5t-15 130.5t15 129.5t45.5 82t76 43t105.5 12.5q61 0 107 -12.5t76.5 -43t45.5 -82t15 -129.5
t-15 -130.5t-45.5 -83.5t-76.5 -44t-107 -13z" />
    <glyph glyph-name="Ogravesmall" unicode="&#xf7f2;" 
d="M287 568l-144 129h132l122 -129h-110zM293 424q-33 0 -54.5 -6t-35 -24t-19 -51t-5.5 -88q0 -53 5.5 -86t19 -51.5t35 -25t54.5 -6.5t55.5 6.5t36 25t19 51.5t5.5 86q0 55 -5.5 88t-19 51t-36 24t-55.5 6zM293 -14q-61 0 -106.5 13t-75.5 44t-45 83.5t-15 130.5t15 129.5
t45.5 82t76 43t105.5 12.5q61 0 107 -12.5t76.5 -43t45.5 -82t15 -129.5t-15 -130.5t-45.5 -83.5t-76.5 -44t-107 -13z" />
    <glyph glyph-name="Ohungarumlautsmall" 
d="M305 568l91 129h109l-114 -129h-86zM141 568l91 129h109l-115 -129h-85zM293 423q-33 0 -54.5 -5.5t-35 -23.5t-19 -51t-5.5 -88q0 -53 5.5 -86t19 -51t35 -24.5t54.5 -6.5t55.5 6.5t36 24.5t19 51t5.5 86q0 55 -5.5 88t-19 51t-36 23.5t-55.5 5.5zM293 -14
q-61 0 -106.5 13t-75.5 44t-45 83.5t-15 130.5t15 129.5t45.5 82t76 43t105.5 12.5q61 0 107 -12.5t76.5 -43t45.5 -82t15 -129.5t-15 -130.5t-45.5 -83.5t-76.5 -44t-107 -13z" />
    <glyph glyph-name="Omacronsmall" 
d="M156 666h278v-90h-278v90zM293 423q-33 0 -54.5 -5.5t-35 -23.5t-19 -51t-5.5 -88q0 -53 5.5 -86t19 -51t35 -24.5t54.5 -6.5t55.5 6.5t36 24.5t19 51t5.5 86q0 55 -5.5 88t-19 51t-36 23.5t-55.5 5.5zM293 -14q-61 0 -106.5 13t-75.5 44t-45 83.5t-15 130.5t15 129.5
t45.5 82t76 43t105.5 12.5q61 0 107 -12.5t76.5 -43t45.5 -82t15 -129.5t-15 -130.5t-45.5 -83.5t-76.5 -44t-107 -13z" />
    <glyph glyph-name="Otildesmall" unicode="&#xf7f5;" 
d="M475 652q-14 -41 -43 -67t-74 -26q-23 0 -40.5 8.5t-34 18t-32.5 18t-34 8.5q-15 0 -27.5 -11t-24.5 -40l-56 55q21 37 46 59t63 22q25 0 44 -8.5t35 -18t30.5 -18t32.5 -8.5t29.5 12t23.5 46zM293 424q-33 0 -54.5 -6t-35 -24t-19 -51t-5.5 -88q0 -53 5.5 -86t19 -51.5
t35 -25t54.5 -6.5t55.5 6.5t36 25t19 51.5t5.5 86q0 55 -5.5 88t-19 51t-36 24t-55.5 6zM293 -14q-61 0 -106.5 13t-75.5 44t-45 83.5t-15 130.5t15 129.5t45.5 82t76 43t105.5 12.5q61 0 107 -12.5t76.5 -43t45.5 -82t15 -129.5t-15 -130.5t-45.5 -83.5t-76.5 -44t-107 -13
z" />
    <glyph glyph-name="Racutesmall" horiz-adv-x="574" 
d="M173 568l121 129h133l-145 -129h-109zM334 279q30 0 46.5 16.5t16.5 49.5q0 64 -61 64h-143v-130h141zM369 509q46 0 76 -12t48 -32t25.5 -47t7.5 -58q0 -27 -6.5 -51.5t-22.5 -44t-43 -31.5t-68 -13q19 -5 36 -15t37 -33t46 -64t64 -108h-144q-30 57 -53 92.5t-41.5 55
t-34.5 26.5t-32 7h-71v-181h-124v509h300z" />
    <glyph glyph-name="Rcaronsmall" horiz-adv-x="574" 
d="M223 697l71 -76l69 76h113l-122 -129h-122l-126 129h117zM334 279q30 0 46.5 16.5t16.5 49.5q0 64 -61 64h-143v-130h141zM369 509q46 0 76 -12t48 -32t25.5 -47t7.5 -58q0 -27 -6.5 -51.5t-22.5 -44t-43 -31.5t-68 -13q19 -5 36 -15t37 -33t46 -64t64 -108h-144
q-30 57 -53 92.5t-41.5 55t-34.5 26.5t-32 7h-71v-181h-124v509h300z" />
    <glyph glyph-name="Rcommaaccentsmall" horiz-adv-x="574" 
d="M263 -218h-97l71 167h134zM334 279q30 0 46.5 16.5t16.5 49.5q0 64 -61 64h-143v-130h141zM369 509q46 0 76 -12t48 -32t25.5 -47t7.5 -58q0 -27 -6.5 -51.5t-22.5 -44t-43 -31.5t-68 -13q19 -5 36 -15t37 -33t46 -64t64 -108h-144q-30 57 -53 92.5t-41.5 55t-34.5 26.5
t-32 7h-71v-181h-124v509h300z" />
    <glyph glyph-name="Sacutesmall" horiz-adv-x="491" 
d="M148 568l121 129h133l-145 -129h-109zM407 399q-30 10 -70 17t-78 7q-23 0 -40 -2t-28.5 -8t-17.5 -17.5t-6 -31.5q0 -26 21.5 -37.5t83.5 -17.5q46 -5 79.5 -15t55 -28t32 -45t10.5 -65q0 -50 -16 -82.5t-44.5 -52t-68.5 -27.5t-89 -8q-20 0 -44.5 2t-49 5.5t-47.5 8.5
t-41 11l26 98q14 -5 32 -9.5t38 -7.5t41 -5t40 -2q51 0 75.5 11t24.5 51q0 13 -4.5 23.5t-16.5 17.5t-33.5 12t-54.5 8q-42 3 -74 11.5t-54 25t-33 43t-11 65.5q0 49 16 82t44.5 52t69 27t88.5 8q40 0 86.5 -7.5t84.5 -20.5z" />
    <glyph glyph-name="Scaronsmall" unicode="&#xf6fd;" horiz-adv-x="491" 
d="M183 697l71 -76l69 76h113l-122 -129h-122l-126 129h117zM407 399q-30 10 -70 17t-78 7q-23 0 -40 -2t-28.5 -8t-17.5 -17.5t-6 -31.5q0 -26 21.5 -37.5t83.5 -17.5q46 -5 79.5 -15t55 -28t32 -45t10.5 -65q0 -50 -16 -82.5t-44.5 -52t-68.5 -27.5t-89 -8q-20 0 -44.5 2
t-49 5.5t-47.5 8.5t-41 11l26 98q14 -5 32 -9.5t38 -7.5t41 -5t40 -2q51 0 75.5 11t24.5 51q0 13 -4.5 23.5t-16.5 17.5t-33.5 12t-54.5 8q-42 3 -74 11.5t-54 25t-33 43t-11 65.5q0 49 16 82t44.5 52t69 27t88.5 8q40 0 86.5 -7.5t84.5 -20.5z" />
    <glyph glyph-name="Scedillasmall" horiz-adv-x="491" 
d="M261 0v-42q59 0 84.5 -16.5t25.5 -61.5q0 -47 -31 -65t-106 -18q-35 0 -57 4t-41 12l22 54q12 -6 31 -9t40 -3q23 0 32 5.5t9 20.5q0 19 -20 24t-74 2l36 93h49zM407 399q-30 10 -70 17t-78 7q-23 0 -40 -2t-28.5 -8t-17.5 -17.5t-6 -31.5q0 -26 21.5 -37.5t83.5 -17.5
q46 -5 79.5 -15t55 -28t32 -45t10.5 -65q0 -50 -16 -82.5t-44.5 -52t-68.5 -27.5t-89 -8q-20 0 -44.5 2t-49 5.5t-47.5 8.5t-41 11l26 98q14 -5 32 -9.5t38 -7.5t41 -5t40 -2q51 0 75.5 11t24.5 51q0 13 -4.5 23.5t-16.5 17.5t-33.5 12t-54.5 8q-42 3 -74 11.5t-54 25
t-33 43t-11 65.5q0 49 16 82t44.5 52t69 27t88.5 8q40 0 86.5 -7.5t84.5 -20.5z" />
    <glyph glyph-name="Scircumflexsmall" horiz-adv-x="491" 
d="M326 568l-71 76l-69 -76h-113l122 129h122l126 -129h-117zM407 399q-30 10 -70 17t-78 7q-23 0 -40 -2t-28.5 -8t-17.5 -17.5t-6 -31.5q0 -26 21.5 -37.5t83.5 -17.5q46 -5 79.5 -15t55 -28t32 -45t10.5 -65q0 -50 -16 -82.5t-44.5 -52t-68.5 -27.5t-89 -8q-20 0 -44.5 2
t-49 5.5t-47.5 8.5t-41 11l26 98q14 -5 32 -9.5t38 -7.5t41 -5t40 -2q51 0 75.5 11t24.5 51q0 13 -4.5 23.5t-16.5 17.5t-33.5 12t-54.5 8q-42 3 -74 11.5t-54 25t-33 43t-11 65.5q0 49 16 82t44.5 52t69 27t88.5 8q40 0 86.5 -7.5t84.5 -20.5z" />
    <glyph glyph-name="Scommaaccentsmall" horiz-adv-x="491" 
d="M222 -218h-97l71 167h134zM407 399q-30 10 -70 17t-78 7q-23 0 -40 -2t-28.5 -8t-17.5 -17.5t-6 -31.5q0 -26 21.5 -37.5t83.5 -17.5q46 -5 79.5 -15t55 -28t32 -45t10.5 -65q0 -50 -16 -82.5t-44.5 -52t-68.5 -27.5t-89 -8q-20 0 -44.5 2t-49 5.5t-47.5 8.5t-41 11
l26 98q14 -5 32 -9.5t38 -7.5t41 -5t40 -2q51 0 75.5 11t24.5 51q0 13 -4.5 23.5t-16.5 17.5t-33.5 12t-54.5 8q-42 3 -74 11.5t-54 25t-33 43t-11 65.5q0 49 16 82t44.5 52t69 27t88.5 8q40 0 86.5 -7.5t84.5 -20.5z" />
    <glyph glyph-name="Tbarsmall" horiz-adv-x="485" 
d="M104 268h76v133h-175v108h475v-108h-176v-133h78v-90h-78v-178h-124v178h-76v90z" />
    <glyph glyph-name="Tcaronsmall" horiz-adv-x="485" 
d="M176 697l71 -76l69 76h113l-122 -129h-122l-126 129h117zM304 0h-124v401h-175v108h475v-108h-176v-401z" />
    <glyph glyph-name="Tcommaaccentsmall" horiz-adv-x="485" 
d="M215 -218h-97l71 167h134zM304 0h-124v401h-175v108h475v-108h-176v-401z" />
    <glyph glyph-name="Uacutesmall" unicode="&#xf7fa;" horiz-adv-x="578" 
d="M185 568l121 129h133l-145 -129h-109zM289 97q60 0 79.5 24t19.5 78v310h123v-303q0 -62 -12 -104.5t-38 -68t-68.5 -36.5t-103.5 -11t-103.5 11t-69 36.5t-38.5 68t-12 104.5v303h124v-310q0 -54 19.5 -78t79.5 -24z" />
    <glyph glyph-name="Ubrevesmall" horiz-adv-x="578" 
d="M228 697q0 -35 16.5 -46.5t49.5 -11.5q32 0 49.5 11.5t17.5 46.5h80q0 -72 -38.5 -104.5t-111.5 -32.5q-71 0 -109.5 32.5t-38.5 104.5h85zM289 97q60 0 79.5 24t19.5 78v310h123v-303q0 -62 -12 -104.5t-38 -68t-68.5 -36.5t-103.5 -11t-103.5 11t-69 36.5t-38.5 68
t-12 104.5v303h124v-310q0 -54 19.5 -78t79.5 -24z" />
    <glyph glyph-name="Ucircumflexsmall" unicode="&#xf7fb;" horiz-adv-x="578" 
d="M356 568l-71 76l-69 -76h-113l122 129h122l126 -129h-117zM289 97q60 0 79.5 24t19.5 78v310h123v-303q0 -62 -12 -104.5t-38 -68t-68.5 -36.5t-103.5 -11t-103.5 11t-69 36.5t-38.5 68t-12 104.5v303h124v-310q0 -54 19.5 -78t79.5 -24z" />
    <glyph glyph-name="Udieresissmall" unicode="&#xf7fc;" horiz-adv-x="578" 
d="M397 681q33 0 46 -9.5t13 -45.5q0 -40 -13 -51t-46 -11q-35 0 -47.5 11t-12.5 51q0 18 3 29t10 16.5t18.5 7.5t28.5 2zM183 681q34 0 47 -9.5t13 -45.5q0 -40 -13 -51t-47 -11t-46.5 11t-12.5 51q0 36 12.5 45.5t46.5 9.5zM289 97q60 0 79.5 24t19.5 78v310h123v-303
q0 -62 -12 -104.5t-38 -68t-68.5 -36.5t-103.5 -11t-103.5 11t-69 36.5t-38.5 68t-12 104.5v303h124v-310q0 -54 19.5 -78t79.5 -24z" />
    <glyph glyph-name="Ugravesmall" unicode="&#xf7f9;" horiz-adv-x="578" 
d="M280 568l-144 129h132l122 -129h-110zM289 97q60 0 79.5 24t19.5 78v310h123v-303q0 -62 -12 -104.5t-38 -68t-68.5 -36.5t-103.5 -11t-103.5 11t-69 36.5t-38.5 68t-12 104.5v303h124v-310q0 -54 19.5 -78t79.5 -24z" />
    <glyph glyph-name="Uhungarumlautsmall" horiz-adv-x="578" 
d="M301 568l91 129h109l-114 -129h-86zM137 568l91 129h109l-115 -129h-85zM289 97q60 0 79.5 24t19.5 78v310h123v-303q0 -62 -12 -104.5t-38 -68t-68.5 -36.5t-103.5 -11t-103.5 11t-69 36.5t-38.5 68t-12 104.5v303h124v-310q0 -54 19.5 -78t79.5 -24z" />
    <glyph glyph-name="Umacronsmall" horiz-adv-x="578" 
d="M153 666h278v-90h-278v90zM289 97q60 0 79.5 24t19.5 78v310h123v-303q0 -62 -12 -104.5t-38 -68t-68.5 -36.5t-103.5 -11t-103.5 11t-69 36.5t-38.5 68t-12 104.5v303h124v-310q0 -54 19.5 -78t79.5 -24z" />
    <glyph glyph-name="Uogoneksmall" horiz-adv-x="578" 
d="M387 12q-26 -16 -42.5 -29t-25.5 -25t-12.5 -24t-3.5 -26q0 -21 11.5 -30.5t48.5 -9.5q24 0 46.5 7.5t36.5 19.5l35 -63q-24 -18 -61 -26.5t-70 -8.5q-38 0 -63.5 5.5t-40.5 17t-21.5 28t-6.5 38.5q0 40 31.5 74t98.5 52h39zM289 97q60 0 79.5 24t19.5 78v310h123v-303
q0 -62 -12 -104.5t-38 -68t-68.5 -36.5t-103.5 -11t-103.5 11t-69 36.5t-38.5 68t-12 104.5v303h124v-310q0 -54 19.5 -78t79.5 -24z" />
    <glyph glyph-name="Uringsmall" horiz-adv-x="578" 
d="M290 684q-31 0 -40.5 -10t-9.5 -33q0 -22 9.5 -32.5t40.5 -10.5t40.5 11t9.5 32q0 23 -9.5 33t-40.5 10zM290 741q60 0 89.5 -22t29.5 -76q0 -55 -29.5 -76.5t-89.5 -21.5t-90 21.5t-30 76.5q0 54 28 76t92 22zM289 97q60 0 79.5 24t19.5 78v310h123v-303
q0 -62 -12 -104.5t-38 -68t-68.5 -36.5t-103.5 -11t-103.5 11t-69 36.5t-38.5 68t-12 104.5v303h124v-310q0 -54 19.5 -78t79.5 -24z" />
    <glyph glyph-name="Utildesmall" horiz-adv-x="578" 
d="M472 652q-14 -41 -43 -67t-74 -26q-23 0 -40.5 8.5t-34 18t-32.5 18t-34 8.5q-15 0 -27.5 -11t-24.5 -40l-56 55q21 37 46 59t63 22q25 0 44 -8.5t35 -18t30.5 -18t32.5 -8.5t29.5 12t23.5 46zM289 97q60 0 79.5 24t19.5 78v310h123v-303q0 -62 -12 -104.5t-38 -68
t-68.5 -36.5t-103.5 -11t-103.5 11t-69 36.5t-38.5 68t-12 104.5v303h124v-310q0 -54 19.5 -78t79.5 -24z" />
    <glyph glyph-name="Wcircumflexsmall" horiz-adv-x="830" 
d="M485 568l-71 76l-69 -76h-113l122 129h122l126 -129h-117zM415 341q-9 -40 -21 -85t-25 -90.5t-26.5 -88.5t-25.5 -77h-153q-37 134 -78 262.5t-86 246.5h131q32 -85 62 -184t54 -198q13 38 29 90t31.5 105.5t28.5 103t21 83.5h121q12 -37 26.5 -86t28.5 -101t26.5 -103
t21.5 -92q35 96 65 191t53 191h126q-35 -125 -79.5 -256.5t-94.5 -252.5h-154q-8 39 -18 85.5t-21.5 93.5t-22.5 89.5t-20 72.5z" />
    <glyph glyph-name="Yacutesmall" unicode="&#xf7fd;" horiz-adv-x="487" 
d="M156 568l121 129h133l-145 -129h-109zM250 332q16 19 33 42t33.5 46.5t32 46t27.5 42.5h136q-47 -72 -99 -144t-103 -134v-231h-124v231q-25 35 -52.5 73t-55.5 74.5t-54.5 70t-48.5 60.5h144q31 -37 65.5 -84.5t65.5 -92.5z" />
    <glyph glyph-name="Ycircumflexsmall" horiz-adv-x="487" 
d="M319 568l-71 76l-69 -76h-113l122 129h122l126 -129h-117zM250 332q16 19 33 42t33.5 46.5t32 46t27.5 42.5h136q-47 -72 -99 -144t-103 -134v-231h-124v231q-25 35 -52.5 73t-55.5 74.5t-54.5 70t-48.5 60.5h144q31 -37 65.5 -84.5t65.5 -92.5z" />
    <glyph glyph-name="Ydieresissmall" unicode="&#xf7ff;" horiz-adv-x="487" 
d="M359 681q33 0 46 -9.5t13 -45.5q0 -40 -13 -51t-46 -11q-35 0 -47.5 11t-12.5 51q0 18 3 29t10 16.5t18.5 7.5t28.5 2zM145 681q34 0 47 -9.5t13 -45.5q0 -40 -13 -51t-47 -11t-46.5 11t-12.5 51q0 36 12.5 45.5t46.5 9.5zM250 332q16 19 33 42t33.5 46.5t32 46
t27.5 42.5h136q-47 -72 -99 -144t-103 -134v-231h-124v231q-25 35 -52.5 73t-55.5 74.5t-54.5 70t-48.5 60.5h144q31 -37 65.5 -84.5t65.5 -92.5z" />
    <glyph glyph-name="Zacutesmall" horiz-adv-x="497" 
d="M176 568l121 129h133l-145 -129h-109zM474 509v-25q-27 -44 -62 -96t-71 -103.5t-70 -98t-59 -78.5h255v-108h-449v25q36 46 75.5 99t75.5 104.5t66 96.5t49 76h-249v108h439z" />
    <glyph glyph-name="Zcaronsmall" unicode="&#xf6ff;" horiz-adv-x="497" 
d="M184 697l71 -76l69 76h113l-122 -129h-122l-126 129h117zM474 509v-25q-27 -44 -62 -96t-71 -103.5t-70 -98t-59 -78.5h255v-108h-449v25q36 46 75.5 99t75.5 104.5t66 96.5t49 76h-249v108h439z" />
    <glyph glyph-name="Zdotaccentsmall" horiz-adv-x="497" 
d="M253 681q34 0 47 -9.5t13 -45.5q0 -40 -13 -51t-47 -11t-46.5 11t-12.5 51q0 36 12.5 45.5t46.5 9.5zM474 509v-25q-27 -44 -62 -96t-71 -103.5t-70 -98t-59 -78.5h255v-108h-449v25q36 46 75.5 99t75.5 104.5t66 96.5t49 76h-249v108h439z" />
    <glyph glyph-name="Germandblssmall" horiz-adv-x="981" 
d="M407 399q-30 10 -70 17t-78 7q-23 0 -40 -2t-28.5 -8t-17.5 -17.5t-6 -31.5q0 -26 21.5 -37.5t83.5 -17.5q46 -5 79.5 -15t55 -28t32 -45t10.5 -65q0 -50 -16 -82.5t-44.5 -52t-68.5 -27.5t-89 -8q-20 0 -44.5 2t-49 5.5t-47.5 8.5t-41 11l26 98q14 -5 32 -9.5t38 -7.5
t41 -5t40 -2q51 0 75.5 11t24.5 51q0 13 -4.5 23.5t-16.5 17.5t-33.5 12t-54.5 8q-42 3 -74 11.5t-54 25t-33 43t-11 65.5q0 49 16 82t44.5 52t69 27t88.5 8q40 0 86.5 -7.5t84.5 -20.5zM897 399q-30 10 -70 17t-78 7q-23 0 -40 -2t-28.5 -8t-17.5 -17.5t-6 -31.5
q0 -26 21.5 -37.5t83.5 -17.5q46 -5 79.5 -15t55 -28t32 -45t10.5 -65q0 -50 -16 -82.5t-44.5 -52t-68.5 -27.5t-89 -8q-20 0 -44.5 2t-49 5.5t-47.5 8.5t-41 11l26 98q14 -5 32 -9.5t38 -7.5t41 -5t40 -2q51 0 75.5 11t24.5 51q0 13 -4.5 23.5t-16.5 17.5t-33.5 12t-54.5 8
q-42 3 -74 11.5t-54 25t-33 43t-11 65.5q0 49 16 82t44.5 52t69 27t88.5 8q40 0 86.5 -7.5t84.5 -20.5z" />
    <glyph glyph-name="zerosmall" horiz-adv-x="561" 
d="M280 424q-26 0 -44 -6t-29 -24t-16.5 -51t-5.5 -88q0 -53 5.5 -86t16.5 -51.5t29 -25t44 -6.5t44 6.5t29.5 25t16.5 51.5t5 86q0 55 -5.5 88t-16.5 51t-29.5 24t-43.5 6zM280 -14q-54 0 -95 13t-69.5 44t-43 83.5t-14.5 130.5t15 129.5t43.5 82t69.5 43t94 12.5
q54 0 95.5 -12.5t70 -43t43 -82t14.5 -129.5t-14.5 -130.5t-43 -83.5t-70 -44t-95.5 -13z" />
    <glyph glyph-name="onesmall" horiz-adv-x="561" 
d="M270 0v362l-156 -71l-37 104l317 129v-524h-124z" />
    <glyph glyph-name="twosmall" horiz-adv-x="561" 
d="M62 501q19 4 44 8.5t52 7.5t54.5 5t51.5 2q63 0 105.5 -9t68.5 -28.5t37.5 -50t11.5 -72.5q0 -35 -10 -66t-37.5 -62t-75.5 -63.5t-124 -71.5h256v-101h-438v91q101 62 159.5 100.5t88 64.5t37.5 44.5t8 40.5q0 38 -23 54t-85 16q-17 0 -38 -2t-42 -5.5t-40 -8t-31 -9.5z
" />
    <glyph glyph-name="threesmall" horiz-adv-x="561" 
d="M177 315h78q54 0 77 10.5t23 40.5q0 14 -4.5 24t-16.5 16t-33 9t-53 3q-48 0 -88 -6t-71 -16l-25 108q38 9 85 14.5t101 5.5q67 0 112 -7t72.5 -22.5t39 -40.5t11.5 -61q0 -26 -5.5 -47.5t-19.5 -37.5t-37.5 -26t-60.5 -13q39 -2 64.5 -12.5t41 -27.5t22 -41t6.5 -53
q0 -44 -14 -72.5t-44 -45.5t-77 -24t-113 -7q-55 0 -101.5 5t-86.5 14l26 111q29 -11 71.5 -17.5t87.5 -6.5q36 0 59 3.5t36.5 11.5t18.5 20.5t5 31.5q0 36 -25.5 49.5t-83.5 13.5h-78v93z" />
    <glyph glyph-name="foursmall" horiz-adv-x="561" 
d="M323 415q-19 -24 -40 -51t-40.5 -53.5t-36 -50t-28.5 -41.5h145v196zM28 121v47q22 35 52.5 78.5t64 89.5t68 90.5t65.5 82.5h164v-290h90v-98h-90v-121h-119v121h-295z" />
    <glyph glyph-name="fivesmall" horiz-adv-x="561" 
d="M479 509v-103h-263v-92q15 1 34 2t39 1q57 0 97 -8.5t64.5 -27.5t35.5 -49.5t11 -74.5q0 -50 -15 -82.5t-45.5 -52.5t-77.5 -28t-110 -8q-21 0 -46 1t-51 3.5t-49.5 6t-41.5 8.5l24 102q13 -4 33 -7.5t41.5 -5.5t43 -3.5t37.5 -1.5q72 0 102 13.5t30 51.5q0 41 -27 56.5
t-97 15.5q-16 0 -37 -1t-42.5 -2.5t-41.5 -3t-35 -3.5v293h387z" />
    <glyph glyph-name="sixsmall" horiz-adv-x="561" 
d="M395 153q0 22 -5 37t-17 23t-32 11.5t-50 3.5q-29 0 -58 -2.5t-52 -6.5q0 -45 8.5 -72t22.5 -42t34 -19.5t44 -4.5q31 0 51 3.5t32 12t17 22.5t5 34zM522 151q0 -48 -14 -80t-42.5 -51t-71 -26.5t-100.5 -7.5q-57 0 -100.5 10.5t-73 39.5t-45 82t-15.5 137q0 78 18 129.5
t52.5 82.5t84.5 44t114 13q49 0 92.5 -6.5t86.5 -18.5l-28 -102q-31 9 -68.5 16t-79.5 7q-41 0 -69 -5t-46 -18.5t-26.5 -36t-9.5 -57.5q31 5 67.5 8.5t64.5 3.5q54 0 93.5 -8t65 -26.5t38 -50t12.5 -79.5z" />
    <glyph glyph-name="sevensmall" horiz-adv-x="561" 
d="M534 509v-24q-37 -54 -72 -114t-67.5 -122.5t-62 -125.5t-53.5 -123h-144q25 54 53 109t56.5 107t57.5 99t55 86h-307v108h484z" />
    <glyph glyph-name="eightsmall" horiz-adv-x="561" 
d="M280 317q55 0 78 12t23 45q0 32 -21 44t-80 12q-29 0 -48.5 -2.5t-31 -9t-16 -17.5t-4.5 -27q0 -33 23 -45t77 -12zM280 -14q-66 0 -111 7t-73 24t-40 45.5t-12 72.5q0 58 29 94t106 40q-37 3 -60.5 13t-37 26t-19 37.5t-5.5 47.5q0 36 10 61t35 40.5t68 22.5t110 7
t110.5 -7t68.5 -22.5t34.5 -40.5t9.5 -61q0 -26 -5 -47.5t-18.5 -37.5t-37 -26t-60.5 -13q39 -2 64.5 -12.5t41 -27.5t22 -41t6.5 -53q0 -44 -12 -72.5t-39.5 -45.5t-73 -24t-111.5 -7zM280 83q33 0 54.5 3.5t33.5 12t17 21.5t5 32q0 40 -25.5 54.5t-84.5 14.5
q-58 0 -83.5 -14.5t-25.5 -54.5q0 -19 5 -32t17 -21.5t33 -12t54 -3.5z" />
    <glyph glyph-name="ninesmall" horiz-adv-x="561" 
d="M387 324q0 31 -6 51.5t-18.5 32.5t-33 16.5t-49.5 4.5q-33 0 -53.5 -4.5t-32.5 -14.5t-16.5 -24.5t-4.5 -35.5q0 -22 4 -36t15.5 -21.5t31 -10t51.5 -2.5q26 0 52.5 2t47.5 5q5 9 8.5 18t3.5 19zM243 183q-51 0 -88.5 8t-62 27.5t-36.5 51.5t-12 80q0 96 56.5 135
t174.5 39q65 0 111 -9.5t75 -33.5t42.5 -64t13.5 -100q0 -50 -16.5 -92.5t-45 -80.5t-66.5 -73.5t-81 -70.5h-165q39 30 74.5 59.5t63.5 55t47 46t25 32.5q-29 -4 -55 -7t-55 -3z" />
    <glyph glyph-name="dollarsmall" horiz-adv-x="520" 
d="M351 149q0 21 -11.5 33.5t-45.5 19.5v-110q26 4 41.5 17.5t15.5 39.5zM169 362q0 -21 12 -32t44 -16v104q-26 -4 -41 -17t-15 -39zM294 620v-102q36 -1 78.5 -7t74.5 -17l-26 -94q-10 3 -25 6t-32 5.5t-35.5 4t-34.5 2.5v-114q82 -11 124.5 -45.5t42.5 -105.5
q0 -39 -12.5 -67t-34.5 -47.5t-52.5 -31t-67.5 -15.5v-110h-69v108q-38 1 -83.5 6.5t-78.5 16.5l27 97q12 -4 29 -7t35 -6t36.5 -4.5t34.5 -2.5v122q-80 8 -123.5 39t-43.5 105q0 39 12 67.5t34 47.5t53 30t68 15v104h69z" />
    <glyph glyph-name="centsmall" horiz-adv-x="423" 
d="M149 259q0 -48 14.5 -73.5t40.5 -29.5v207q-26 -4 -40.5 -29t-14.5 -75zM271 524v-76q20 -2 45 -6t42 -9l-23 -74q-14 6 -31.5 8.5t-32.5 3.5v-224q14 2 32 5.5t32 8.5l23 -73q-17 -8 -42 -12.5t-45 -6.5v-83h-67v85q-35 4 -63 16t-48 34.5t-31 57t-11 82.5t11 81.5
t31 55.5t48 33.5t63 15.5v77h67z" />
    <glyph glyph-name="sterlingsmall" horiz-adv-x="513" 
d="M32 293h50v50q0 88 55.5 134.5t178.5 46.5q44 0 89.5 -6.5t80.5 -17.5l-26 -101q-26 8 -66.5 13.5t-77.5 5.5q-33 0 -55 -5.5t-35 -16t-18.5 -25.5t-5.5 -35v-43h154v-90h-154v-99h266v-104h-386v203h-50v90z" />
    <glyph glyph-name="yensmall" horiz-adv-x="487" 
d="M50 281h101q-22 31 -45 62t-45.5 60.5t-44 56t-40.5 49.5h142q32 -37 66.5 -84.5t65.5 -92.5q16 19 33 42t33.5 46.5t32 46t27.5 42.5h135q-38 -58 -80 -116t-84 -112h90v-61h-127v-62h127v-62h-127v-96h-124v96h-136v62h136v62h-136v61z" />
    <glyph glyph-name="Eurosmall" horiz-adv-x="469" 
d="M448 12q-30 -12 -72 -19t-78 -7q-56 0 -102 13t-78 44t-49.5 83.5t-17.5 130.5t17.5 129.5t50 82t78 43t101.5 12.5q37 0 79 -6.5t71 -17.5l-27 -92q-24 9 -53.5 14t-60.5 5q-45 0 -72.5 -13.5t-41.5 -53.5h187v-69h-200q-1 -8 -1 -18v-18v-16.5t1 -15.5h200v-68h-188
q13 -42 41.5 -57t73.5 -15q32 0 61 5.5t53 15.5z" />
    <glyph glyph-name="numbersignsmall" horiz-adv-x="597" 
d="M241 206h99l7 108h-99zM47 399h102l7 110h105l-7 -110h99l7 110h105l-7 -110h109l-6 -85h-109l-7 -108h111l-6 -85h-110l-9 -121h-105l9 121h-100l-8 -121h-105l8 121h-100l6 85h100l7 108h-102z" />
    <glyph glyph-name="slashsmall" horiz-adv-x="427" 
d="M436 509l-309 -509h-135l308 509h136z" />
    <glyph glyph-name="barsmall" horiz-adv-x="371" 
d="M251 659v-813h-131v813h131z" />
    <glyph glyph-name="backslashsmall" horiz-adv-x="427" 
d="M128 509l308 -509h-135l-309 509h136z" />
    <glyph glyph-name="parenleftsmall" horiz-adv-x="345" 
d="M68 250q0 93 16.5 162.5t46 119t68.5 80.5t84 47l57 -92q-30 -11 -55.5 -31t-45 -56t-30.5 -91.5t-11 -138.5t11 -138.5t30.5 -91.5t45 -56t55.5 -31l-57 -92q-45 16 -84 47t-68.5 80.5t-46 119t-16.5 162.5z" />
    <glyph glyph-name="parenrightsmall" horiz-adv-x="345" 
d="M277 250q0 -93 -16.5 -162.5t-46 -119t-68.5 -81t-84 -47.5l-57 93q30 11 55.5 31t45 56t30.5 91.5t11 138.5q0 82 -11 137.5t-30.5 91.5t-45 56t-55.5 31l57 93q45 -16 84 -47.5t68.5 -81t46 -118.5t16.5 -162z" />
    <glyph glyph-name="bracketleftsmall" horiz-adv-x="378" 
d="M360 657v-108h-141v-593h141v-107h-270v808h270z" />
    <glyph glyph-name="bracketrightsmall" horiz-adv-x="378" 
d="M288 657v-808h-270v107h141v593h-141v108h270z" />
    <glyph glyph-name="braceleftsmall" horiz-adv-x="356" 
d="M37 200v99q21 0 39.5 6t32.5 22.5t22 46t8 77.5q0 51 13 88t34 62.5t49 40t58 22.5l51 -90q-23 -7 -40 -16.5t-29 -27.5t-18 -47t-6 -74q0 -47 -9.5 -77t-23.5 -47t-30.5 -24.5t-29.5 -10.5q13 -3 29.5 -10.5t30.5 -25.5t23.5 -48t9.5 -77q0 -44 6 -72.5t17.5 -46.5
t29 -28t40.5 -17q-13 -23 -25.5 -44.5t-25.5 -44.5q-30 7 -58 22.5t-49 40.5t-34 62t-13 88q0 48 -8 77.5t-22 46t-32.5 22.5t-39.5 6v-1z" />
    <glyph glyph-name="bracerightsmall" horiz-adv-x="356" 
d="M319 300v-100q-21 0 -39.5 -6t-33 -22.5t-22.5 -46t-8 -77.5q0 -51 -13 -88t-34 -62t-49 -40.5t-58 -22.5l-51 90q23 7 40.5 17t29.5 28t18 47t6 74q0 47 9.5 76.5t23 47t29.5 25t30 10.5q-14 2 -30 9.5t-29.5 25.5t-23 48t-9.5 77q0 45 -6 73.5t-17.5 46.5t-29 28
t-41.5 17l51 89q30 -8 58 -23t49 -40t34 -62t13 -88q0 -48 8 -78t22.5 -46.5t33 -22t39.5 -5.5v1z" />
    <glyph glyph-name="atsmall" horiz-adv-x="728" 
d="M364 309q-36 0 -49.5 -8.5t-13.5 -40.5q0 -31 12.5 -41t50.5 -10q35 0 48.5 13t13.5 53v30q-14 2 -32 3t-30 1zM333 444q-53 0 -88 -6.5t-56.5 -26t-30.5 -56t-9 -95.5t10 -96.5t34.5 -58.5t65.5 -29t104 -8t104.5 9.5t66 34t35 66t10.5 106.5q0 89 -18 142h98
q8 -26 13 -65t5 -80q0 -87 -19 -144t-57.5 -91.5t-97.5 -48.5t-140 -14t-140 12.5t-97.5 43.5t-56.5 84.5t-18 135.5q0 81 19 133.5t55 83t88 42t118 11.5q52 0 88 -7.5t59 -29.5t33.5 -62.5t10.5 -107.5q0 -62 -8 -99.5t-27.5 -58t-51.5 -27.5t-80 -7q-44 0 -74 5.5
t-48 19.5t-25.5 38.5t-7.5 62.5q0 39 8 63.5t25 38.5t44 19t65 5q22 0 44.5 -1.5t39.5 -3.5q-2 38 -22 52.5t-71 14.5z" />
    <glyph glyph-name="percentsmall" horiz-adv-x="763" 
d="M590 54q17 0 27.5 4t16.5 15t8 29t2 47q0 28 -2 46t-8 28t-16.5 13.5t-27.5 3.5q-16 0 -26.5 -3.5t-17 -13.5t-9 -28t-2.5 -46q0 -57 11.5 -76t43.5 -19zM590 307q38 0 65.5 -7t45.5 -24.5t26.5 -48t8.5 -77.5q0 -48 -8.5 -79.5t-26.5 -50.5t-45.5 -26.5t-65.5 -7.5
t-65.5 7.5t-45.5 26.5t-26.5 50.5t-8.5 79.5q0 47 8.5 77.5t26.5 48t45.5 24.5t65.5 7zM172 270q17 0 27.5 4.5t16.5 15t8 29t2 46.5t-2 46t-8 28.5t-16.5 14t-27.5 3.5q-16 0 -26.5 -3.5t-17 -14t-9 -28.5t-2.5 -46q0 -56 11.5 -75.5t43.5 -19.5zM172 524q38 0 65.5 -7
t45.5 -25t26.5 -48.5t8.5 -77.5q0 -48 -8.5 -79.5t-26.5 -50t-45.5 -26.5t-65.5 -8t-65.5 8t-45.5 26.5t-26.5 50t-8.5 79.5q0 47 8.5 77.5t26.5 48.5t45.5 25t65.5 7zM620 509l-375 -509h-104l373 509h106z" />
    <glyph glyph-name="sectionsmall" horiz-adv-x="474" 
d="M158 298q-10 -13 -10 -28q0 -20 22.5 -29t68.5 -14q21 -2 41 -5.5t38 -8.5q4 5 6.5 13t2.5 16q0 18 -22 27t-73 15q-21 2 -39 5.5t-35 8.5zM389 426q-22 7 -57.5 12.5t-70.5 5.5q-44 0 -71.5 -8t-27.5 -33q0 -10 4 -16.5t14.5 -11t29.5 -7.5t49 -5q84 -7 128.5 -32
t44.5 -82q0 -20 -8.5 -39t-22.5 -34q23 -23 23 -63q0 -70 -55.5 -98.5t-156.5 -28.5q-39 0 -80.5 5.5t-70.5 13.5l24 79q22 -8 57.5 -13.5t70.5 -5.5q15 0 32 2t32 6.5t25 13t10 20.5q0 9 -4 16t-14.5 11.5t-29.5 7.5t-49 5q-84 7 -128.5 32t-44.5 82q0 20 7.5 39.5
t21.5 34.5q-21 24 -21 62q0 70 55.5 98.5t156.5 28.5q38 0 79 -5.5t72 -14.5z" />
    <glyph glyph-name="daggersmall" horiz-adv-x="446" 
d="M30 509h141v143h103v-143h142v-100h-142v-228h-103v228h-141v100z" />
    <glyph glyph-name="summationsmall" horiz-adv-x="497" 
d="M225 401q16 -26 41.5 -64t54.5 -79q-33 -48 -59.5 -85t-49.5 -65h255v-108h-449v25q42 54 84 114t82 118q-39 57 -80 118t-70 109v25h439v-108h-248z" />
    <glyph glyph-name="questionsmall" unicode="&#xf73f;" horiz-adv-x="482" 
d="M160 202q32 24 56 45t40.5 41t25 40.5t8.5 44.5q0 27 -18.5 39t-69.5 12q-34 0 -72 -5t-67 -13l-19 103q16 3 37 6.5t43.5 6.5t45 4.5t42.5 1.5q119 0 168.5 -31.5t49.5 -101.5q0 -30 -8 -54.5t-25.5 -47.5t-45.5 -45t-68 -46h-123zM225 143q23 0 38.5 -2.5t24.5 -10
t13 -21t4 -36.5q0 -25 -4 -40t-13 -23.5t-24.5 -11t-38.5 -2.5q-22 0 -36.5 2.5t-23.5 11t-13 23.5t-4 40q0 23 4 36.5t13 21t23.5 10t36.5 2.5z" />
    <glyph glyph-name="exclamsmall" unicode="&#xf721;" horiz-adv-x="327" 
d="M163 141q22 0 37.5 -2.5t24.5 -10t13 -21.5t4 -37q0 -25 -4 -40t-13 -23.5t-24.5 -11t-37.5 -2.5t-37 2.5t-24 11t-13 23.5t-4 40q0 23 4 37t13 21.5t24 10t37 2.5zM234 509l-27 -302h-90l-26 302h143z" />
    <glyph glyph-name="questiondownsmall" unicode="&#xf7bf;" horiz-adv-x="482" 
d="M316 317q-32 -25 -56.5 -45.5t-41 -41t-25 -41t-8.5 -45.5q0 -26 19 -37.5t69 -11.5q34 0 72 5t67 13l20 -103q-33 -7 -78 -12t-90 -5q-116 0 -167.5 29.5t-51.5 98.5q0 30 8 55.5t25.5 48.5t45.5 45.5t69 46.5h123zM250 376q-23 0 -38 2.5t-24 10t-13 21t-4 36.5
q0 25 4 40t13 23.5t24 11.5t38 3q22 0 37 -3t24 -11.5t13 -23.5t4 -40q0 -23 -4 -36.5t-13 -21t-24 -10t-37 -2.5z" />
    <glyph glyph-name="exclamdownsmall" unicode="&#xf7a1;" horiz-adv-x="327" 
d="M164 369q-23 0 -38 2.5t-24.5 10t-13.5 21t-4 36.5q0 25 4 40t13.5 23.5t24.5 11.5t38 3q22 0 37 -3t24 -11.5t13 -23.5t4 -40q0 -23 -4 -36.5t-13 -21t-24 -10t-37 -2.5zM92 0l27 302h91l25 -302h-143z" />
    <glyph glyph-name="degreesmall" horiz-adv-x="345" 
d="M172 270q17 0 27.5 4.5t16.5 15t8 29t2 46.5t-2 46t-8 28.5t-16.5 14t-27.5 3.5q-16 0 -26.5 -3.5t-17 -14t-9 -28.5t-2.5 -46q0 -56 11.5 -75.5t43.5 -19.5zM172 524q38 0 65.5 -7t45.5 -25t26.5 -48.5t8.5 -77.5q0 -48 -8.5 -79.5t-26.5 -50t-45.5 -26.5t-65.5 -8
t-65.5 8t-45.5 26.5t-26.5 50t-8.5 79.5q0 47 8.5 77.5t26.5 48.5t45.5 25t65.5 7z" />
    <glyph glyph-name="ampersandsmall" unicode="&#xf726;" horiz-adv-x="698" 
d="M282 317q51 0 75.5 11.5t24.5 45.5q0 15 -4 26t-15 17.5t-29.5 9.5t-47.5 3t-48 -3t-30 -9.5t-15.5 -17.5t-4.5 -26q0 -34 21 -45.5t73 -11.5zM261 82q51 0 97.5 17t78.5 44q-38 40 -77 59t-87 19q-22 0 -42 -2t-35 -9t-24 -20.5t-9 -37.5q0 -41 22 -55.5t76 -14.5z
M547 0q-12 18 -23 34t-22 30q-54 -35 -116.5 -56.5t-128.5 -21.5q-62 0 -105 7t-69.5 24t-38.5 45.5t-12 72.5q0 58 33 95t110 41q-37 3 -59 12.5t-34 25t-15.5 37t-3.5 47.5q0 36 9.5 61t34 40.5t67.5 22.5t110 7t109.5 -7t67 -22.5t33.5 -40.5t9 -61q0 -53 -27 -85.5
t-100 -38.5q27 -3 60 -19t71 -50q20 24 32 49.5t17 49.5h134q-8 -45 -34.5 -89t-65.5 -83q46 -52 94 -127h-137z" />
    <glyph glyph-name="ff" unicode="&#xfb00;" horiz-adv-x="687" 
d="M214 509h187v34q0 18 1.5 33.5t6.5 27.5q-48 14 -94 14q-49 0 -75 -17t-26 -69v-23zM525 509h165v-108h-165v-401h-124v401h-187v-401h-124v401h-85v108h85v30q0 56 16.5 92t44.5 56.5t64.5 28.5t76.5 8q44 0 89 -7t83 -22q25 17 56 23t65 6q35 0 73.5 -6t67.5 -16
l-28 -98q-18 6 -43.5 10t-48.5 4q-37 0 -59 -17.5t-22 -64.5v-27z" />
    <glyph glyph-name="fj" horiz-adv-x="594" 
d="M525 -12q0 -103 -52 -149.5t-158 -41.5v103q43 0 64.5 17.5t21.5 68.5v415h-187v-401h-124v401h-85v108h85v30q0 56 17.5 92t49.5 56.5t75.5 28.5t96.5 8q51 0 100 -8.5t89 -22.5l-29 -97q-27 9 -64.5 15.5t-79.5 6.5q-30 0 -54 -3.5t-41.5 -12.5t-26.5 -26t-9 -44v-23
h311v-521z" />
    <glyph glyph-name="fk" horiz-adv-x="883" 
d="M737 0q-173 252 -212 269q21 17 71.5 77.5t125.5 162.5h146q-73 -100 -123.5 -157.5t-70.5 -73.5q20 -12 74 -81t136 -197h-147zM401 0v607q-44 11 -86 11q-23 0 -41.5 -3.5t-31.5 -13t-20.5 -26.5t-7.5 -43v-23h135v-108h-135v-401h-124v401h-85v108h85v30q0 57 17 93
t47 56.5t71.5 28t91.5 7.5q54 0 104.5 -7t103.5 -24v-693h-124z" />
    <glyph glyph-name="ffi" unicode="&#xfb03;" horiz-adv-x="905" 
d="M214 509h187v30q0 38 10 64q-23 8 -48 11.5t-48 3.5q-49 0 -75 -17t-26 -69v-23zM836 0h-124v401h-187v-401h-124v401h-187v-401h-124v401h-85v108h85v30q0 57 16.5 93t44.5 56.5t65 28t78 7.5q44 0 90 -9.5t88 -24.5q32 20 74.5 27t93.5 7t100 -8.5t89 -22.5l-29 -97
q-27 9 -64.5 15.5t-79.5 6.5q-30 0 -54 -3.5t-41.5 -12.5t-26.5 -26t-9 -44v-23h311v-509z" />
    <glyph glyph-name="ffk" horiz-adv-x="1194" 
d="M1048 0q-173 252 -212 269q21 17 71.5 77.5t125.5 162.5h146q-73 -100 -123.5 -157.5t-70.5 -73.5q20 -12 74 -81t136 -197h-147zM401 539q0 40 10 64q-23 7 -47.5 11t-48.5 4q-53 0 -77 -15t-24 -61v-33h187v30zM836 0h-124v607q-44 11 -86 11q-23 0 -41.5 -3.5
t-31.5 -13t-20.5 -26.5t-7.5 -43v-23h135v-108h-135v-401h-124v401h-187v-401h-124v401h-85v108h85v30q0 57 16.5 92.5t44.5 56t65 28t77 7.5q45 0 91 -7.5t86 -24.5q30 19 70 26t88 7q54 0 104.5 -7t103.5 -24v-693z" />
    <glyph glyph-name="ffl" unicode="&#xfb04;" horiz-adv-x="911" 
d="M401 539q0 40 10 64q-23 7 -47.5 11t-48.5 4q-56 0 -78.5 -20.5t-22.5 -75.5v-13h187v30zM836 143q0 -35 8 -64t31 -56q-28 -11 -55 -23t-55 -23q-26 29 -39.5 67t-13.5 94v469q-44 11 -86 11q-23 0 -41.5 -3.5t-31.5 -13t-20.5 -26.5t-7.5 -43v-23h135v-108h-135v-401
h-124v401h-187v-401h-124v401h-85v108h85v30q0 57 16.5 93t44.5 56.5t65 28t78 7.5q44 0 90 -8.5t86 -24.5q30 19 70 26t88 7q54 0 104.5 -7.5t103.5 -23.5v-550z" />
    <glyph glyph-name="sp" horiz-adv-x="1076" 
d="M681 140q0 -23 29 -36t71 -13q33 0 55 7.5t35.5 26t19.5 49.5t6 78q0 52 -6 84.5t-19.5 50.5t-36 24t-55.5 6q-26 0 -52.5 -3.5t-46.5 -11.5v-262zM557 378q-78 20 -156.5 32.5t-141.5 12.5q-23 0 -40 -2t-28.5 -8t-17.5 -17.5t-6 -31.5q0 -26 21.5 -37.5t83.5 -17.5
q46 -5 79.5 -15t55 -28t32 -45t10.5 -65q0 -50 -16 -82.5t-44.5 -52t-68.5 -27.5t-89 -8q-20 0 -44.5 2t-49 5.5t-47.5 8.5t-41 11l26 98q14 -5 32 -9.5t38 -7.5t41 -5t40 -2q51 0 75.5 11t24.5 51q0 13 -4.5 23.5t-16.5 17.5t-33.5 12t-54.5 8q-42 3 -74 11.5t-54 25
t-33 43t-11 65.5q0 49 16 82t44.5 52t69 27t88.5 8q34 0 71.5 -2.5t76 -7.5t76 -12t70.5 -16q21 9 48 16t56.5 12t60 7.5t58.5 2.5q63 0 109 -13t76 -43.5t44.5 -82.5t14.5 -130t-15.5 -129.5t-44 -82.5t-69.5 -44t-92 -13q-44 0 -72.5 9t-49.5 20v-207h-124v570z" />
    <glyph glyph-name="st" horiz-adv-x="894" 
d="M573 401q-50 0 -98 3.5t-89.5 7.5t-74.5 7.5t-52 3.5q-23 0 -40 -2t-28.5 -8t-17.5 -17.5t-6 -31.5q0 -26 21.5 -37.5t83.5 -17.5q46 -5 79.5 -15t55 -28t32 -45t10.5 -65q0 -50 -16 -82.5t-44.5 -52t-68.5 -27.5t-89 -8q-20 0 -44.5 2t-49 5.5t-47.5 8.5t-41 11l26 98
q14 -5 32 -9.5t38 -7.5t41 -5t40 -2q51 0 75.5 11t24.5 51q0 13 -4.5 23.5t-16.5 17.5t-33.5 12t-54.5 8q-42 3 -74 11.5t-54 25t-33 43t-11 65.5q0 49 16 82t44.5 52t69 27t88.5 8q20 0 55 -2.5t78 -5t89 -5t88 -2.5v86l124 51v-137h169v-108h-169v-219q0 -48 17 -68.5
t62 -20.5q25 0 45.5 4t39.5 10l22 -98q-26 -10 -63.5 -16.5t-74.5 -6.5q-43 0 -75 7.5t-53.5 28t-32.5 56.5t-11 93v230z" />
    <glyph glyph-name="ct" horiz-adv-x="855" 
d="M534 401q-35 0 -69.5 2.5t-65.5 5.5t-55 5.5t-38 2.5q-33 0 -57 -5.5t-39.5 -22.5t-23 -49t-7.5 -85q0 -51 7.5 -82.5t23 -49t39.5 -24t57 -6.5q29 0 59 5.5t53 15.5l28 -102q-30 -12 -70 -19t-78 -7q-56 0 -102 13t-78 44t-49.5 83.5t-17.5 130.5t18 129.5t50 82
t77.5 43t101.5 12.5q19 0 46 -2.5t57.5 -5t64.5 -5t68 -2.5v86l124 51v-137h169v-108h-169v-219q0 -48 17 -68.5t62 -20.5q25 0 45.5 4t39.5 10l22 -98q-26 -10 -63.5 -16.5t-74.5 -6.5q-43 0 -75 7.5t-53.5 28t-32.5 56.5t-11 93v230z" />
    <glyph glyph-name="scaront" horiz-adv-x="894" 
d="M191 697l71 -76l69 76h113l-122 -129h-122l-126 129h117zM573 401q-50 0 -98 3.5t-89.5 7.5t-74.5 7.5t-52 3.5q-23 0 -40 -2t-28.5 -8t-17.5 -17.5t-6 -31.5q0 -26 21.5 -37.5t83.5 -17.5q46 -5 79.5 -15t55 -28t32 -45t10.5 -65q0 -50 -16 -82.5t-44.5 -52t-68.5 -27.5
t-89 -8q-20 0 -44.5 2t-49 5.5t-47.5 8.5t-41 11l26 98q14 -5 32 -9.5t38 -7.5t41 -5t40 -2q51 0 75.5 11t24.5 51q0 13 -4.5 23.5t-16.5 17.5t-33.5 12t-54.5 8q-42 3 -74 11.5t-54 25t-33 43t-11 65.5q0 49 16 82t44.5 52t69 27t88.5 8q20 0 55 -2.5t78 -5t89 -5t88 -2.5
v86l124 51v-137h169v-108h-169v-219q0 -48 17 -68.5t62 -20.5q25 0 45.5 4t39.5 10l22 -98q-26 -10 -63.5 -16.5t-74.5 -6.5q-43 0 -75 7.5t-53.5 28t-32.5 56.5t-11 93v230z" />
    <glyph glyph-name="ccaront" horiz-adv-x="855" 
d="M228 697l71 -76l69 76h113l-122 -129h-122l-126 129h117zM534 401q-35 0 -69.5 2.5t-65.5 5.5t-55 5.5t-38 2.5q-33 0 -57 -5.5t-39.5 -22.5t-23 -49t-7.5 -85q0 -51 7.5 -82.5t23 -49t39.5 -24t57 -6.5q29 0 59 5.5t53 15.5l28 -102q-30 -12 -70 -19t-78 -7
q-56 0 -102 13t-78 44t-49.5 83.5t-17.5 130.5t18 129.5t50 82t77.5 43t101.5 12.5q19 0 46 -2.5t57.5 -5t64.5 -5t68 -2.5v86l124 51v-137h169v-108h-169v-219q0 -48 17 -68.5t62 -20.5q25 0 45.5 4t39.5 10l22 -98q-26 -10 -63.5 -16.5t-74.5 -6.5q-43 0 -75 7.5t-53.5 28
t-32.5 56.5t-11 93v230z" />
    <glyph glyph-name="Th" horiz-adv-x="1083" 
d="M1018 0h-124v283q0 40 -6.5 65.5t-19.5 39.5t-32.5 19t-44.5 5q-19 0 -36.5 -3t-31 -8.5t-21.5 -14t-8 -19.5v-367h-124v583h-199v-583h-133v583h-235v114h691v-208q24 13 62 24t78 11q45 0 79 -9.5t57.5 -35t35.5 -70.5t12 -116v-293z" />
    <glyph glyph-name="onequarter" unicode="&#xbc;" horiz-adv-x="860" 
d="M144 278v306l-94 -41l-28 88l227 94v-447h-105zM656 350q-32 -41 -60.5 -82t-49.5 -79h110v161zM428 98v43q21 36 45.5 74.5t50 76.5t50.5 74t48 66h137v-243h57v-91h-57v-98h-103v98h-228zM661 697l-430 -697h-122l430 697h122z" />
    <glyph glyph-name="onehalf" unicode="&#xbd;" horiz-adv-x="860" 
d="M140 278v306l-94 -41l-28 88l227 94v-447h-105zM657 697l-430 -697h-122l430 697h122zM506 420q26 8 64.5 13.5t76.5 5.5q93 0 138 -29.5t45 -103.5q0 -45 -20 -81.5t-71 -54.5q-57 -20 -88 -35t-35 -46h215v-89h-339q4 50 14 85.5t27.5 60.5t42.5 42.5t59 31.5
q41 16 64 33t23 45q0 26 -18 36t-65 10q-28 0 -62.5 -5t-53.5 -12z" />
    <glyph glyph-name="threequarters" unicode="&#xbe;" horiz-adv-x="860" 
d="M113 537h50q41 0 55 10t14 37q0 25 -15.5 33.5t-66.5 8.5q-65 0 -107 -14l-16 85q29 7 65.5 11.5t74.5 4.5q94 0 136.5 -25t42.5 -85q0 -46 -19 -72.5t-77 -31.5q61 -3 83.5 -32t22.5 -80q0 -70 -48 -97.5t-141 -27.5q-34 0 -73.5 4.5t-69.5 12.5l16 85q21 -6 52.5 -10
t58.5 -4q54 0 72 11t18 41q0 32 -16 42t-60 10h-52v83zM670 350q-32 -41 -60 -82t-50 -79h110v161zM442 98v43q21 36 45.5 74.5t50 76.5t51 74t48.5 66h136v-243h58v-91h-58v-98h-103v98h-228zM725 697l-431 -697h-122l431 697h122z" />
    <glyph glyph-name="caron.alt" unicode="&#xe01e;" horiz-adv-x="327" 
d="M392 722l-57 -192h-73l20 192h110z" />
    <glyph glyph-name="commaaccent" unicode="&#xf6c3;" horiz-adv-x="267" 
d="M158 -218h-97l71 167h134z" />
    <glyph glyph-name="Acute" unicode="&#xf6c9;" horiz-adv-x="408" 
d="M99 747l129 129h137l-158 -129h-108z" />
    <glyph glyph-name="Breve" horiz-adv-x="323" 
d="M202 871q0 -35 16.5 -46.5t49.5 -11.5q32 0 49.5 11.5t17.5 46.5h80q0 -72 -38.5 -104.5t-111.5 -32.5q-71 0 -109.5 32.5t-38.5 104.5h85z" />
    <glyph glyph-name="Caron" unicode="&#xf6ca;" horiz-adv-x="654" 
d="M353 798l70 78h112l-122 -129h-122l-126 129h115z" />
    <glyph glyph-name="Circumflex" horiz-adv-x="660" 
d="M347 825l-70 -78h-112l122 129h122l126 -129h-116z" />
    <glyph glyph-name="Dieresis" unicode="&#xf6cb;" horiz-adv-x="431" 
d="M359 864q34 0 46.5 -10t12.5 -46q0 -39 -12.5 -50t-46.5 -11q-17 0 -28.5 2t-18.5 9t-10 18.5t-3 31.5q0 36 12.5 46t47.5 10zM146 864q34 0 46.5 -10t12.5 -46q0 -39 -12.5 -50t-46.5 -11t-47 11t-13 50q0 36 13 46t47 10z" />
    <glyph glyph-name="Dotaccent" horiz-adv-x="302" 
d="M153 867q34 0 47 -10t13 -46q0 -39 -13 -50t-47 -11t-46.5 11t-12.5 50q0 36 12.5 46t46.5 10z" />
    <glyph glyph-name="Grave" unicode="&#xf6ce;" horiz-adv-x="408" 
d="M295 747l-158 129h137l135 -129h-114z" />
    <glyph glyph-name="Hungarumlaut" unicode="&#xf6cf;" horiz-adv-x="618" 
d="M327 747l91 129h109l-114 -129h-86zM163 747l91 129h109l-115 -129h-85z" />
    <glyph glyph-name="Macron" unicode="&#xf6d0;" horiz-adv-x="326" 
d="M123 845h278v-92h-278v92z" />
    <glyph glyph-name="Ring" horiz-adv-x="714" 
d="M360 834q-31 0 -40.5 -10.5t-9.5 -32.5t9.5 -32.5t40.5 -10.5t40.5 10.5t9.5 32.5q0 23 -9.5 33t-40.5 10zM360 890q60 0 89.5 -22t29.5 -76t-29.5 -76t-89.5 -22t-90 22t-30 76t28 76t92 22z" />
    <glyph glyph-name="Tilde" horiz-adv-x="708" 
d="M586 829q-14 -39 -44.5 -66t-75.5 -27q-22 0 -40.5 8.5t-35.5 18.5t-33 18.5t-34 8.5q-15 0 -27.5 -10.5t-23.5 -39.5l-56 55q20 35 45 57t62 22q25 0 45 -8t37 -18t33 -18t33 -8t29.5 12t24.5 45z" />
    <glyph glyph-name="arrowleft" unicode="&#x2190;" horiz-adv-x="757" 
d="M15 367l374 341l88 -89l-217 -194h482v-117h-482l217 -193l-87 -89z" />
    <glyph glyph-name="arrowright" unicode="&#x2192;" horiz-adv-x="757" 
d="M742 367l-375 -342l-88 90l218 193h-482v117h482l-218 194l88 88z" />
    <glyph glyph-name="arrowup" unicode="&#x2191;" horiz-adv-x="759" 
d="M380 730l340 -375l-88 -88l-194 218v-482h-117v482l-193 -218l-90 88z" />
    </font>
</defs>
</svg>
