<?xml version="1.0" standalone="no"?>
<!DOCTYPE svg PUBLIC "-//W3C//DTD SVG 1.1//EN" "http://www.w3.org/Graphics/SVG/1.1/DTD/svg11.dtd" >
<svg xmlns="http://www.w3.org/2000/svg">
<metadata></metadata>
<defs>
<font id="helveticaneuelt_std_cnbold" horiz-adv-x="983" >
<font-face units-per-em="2048" ascent="1462" descent="-586" />
<missing-glyph horiz-adv-x="491" />
<glyph unicode="&#xfb01;" horiz-adv-x="1099" d="M12 909v193h144v125q0 143 75 203.5t220 60.5q75 0 151 -6v-201q-18 2 -55 2q-60 0 -84.5 -20t-24.5 -68v-96h164v-193h-164v-909h-282v909h-144zM713 0v1102h282v-1102h-282zM713 1237v242h282v-242h-282z" />
<glyph unicode="&#xfb02;" horiz-adv-x="1099" d="M12 909v193h144v125q0 143 75 203.5t220 60.5q75 0 151 -6v-201q-18 2 -55 2q-60 0 -84.5 -20t-24.5 -68v-96h164v-193h-164v-909h-282v909h-144zM713 0v1479h282v-1479h-282z" />
<glyph horiz-adv-x="2048" />
<glyph horiz-adv-x="2048" />
<glyph unicode="&#xd;" horiz-adv-x="2048" />
<glyph unicode=" "  horiz-adv-x="491" />
<glyph unicode="&#x09;" horiz-adv-x="491" />
<glyph unicode="&#xa0;" horiz-adv-x="491" />
<glyph unicode="!" horiz-adv-x="606" d="M162 0v270h282v-270h-282zM162 987v475h282v-475l-38 -579h-205z" />
<glyph unicode="&#x22;" horiz-adv-x="948" d="M147 805v657h254v-657h-254zM547 805v657h254v-657h-254z" />
<glyph unicode="#" d="M0 356v230h178l33 250h-150v229h177l45 356h196l-43 -356h199l45 356h199l-45 -356h149v-229h-176l-33 -250h150v-230h-176l-46 -356h-198l45 356h-201l-43 -356h-199l46 356h-152zM377 586h198l33 250h-200z" />
<glyph unicode="$" d="M18 391v43h283q0 -50 3.5 -83.5t15 -70t36.5 -59.5t64 -33v414l-103 37q-280 101 -280 393q0 185 99.5 291t283.5 127v141h131v-141q87 -7 154.5 -32.5t109 -61.5t68.5 -85.5t37 -99.5t10 -108v-29h-283q-3 169 -96 199v-387l162 -66q49 -20 85 -40.5t69 -51.5t53.5 -68 t32.5 -90t12 -120q0 -216 -103 -320.5t-311 -118.5v-178h-131v178q-99 8 -172 34.5t-116.5 63.5t-69.5 91t-35 108t-9 123zM319 1077q0 -113 101 -172v328q-101 -30 -101 -156zM551 188q60 13 89.5 58t29.5 106q0 74 -29 120.5t-90 78.5v-363z" />
<glyph unicode="%" horiz-adv-x="1593" d="M55 1059q0 105 12.5 173.5t45.5 120t94 74.5t155 23t155 -23t94.5 -74.5t46 -120t12.5 -173.5t-12.5 -173.5t-46 -120t-94.5 -74.5t-155 -23t-155 23t-94 74.5t-45.5 120t-12.5 173.5zM272 1067q0 -54 1.5 -88t6.5 -67t15 -50.5t26.5 -28t40.5 -10.5q57 0 74 54.5 t17 189.5q0 122 -17 174.5t-74 52.5q-30 0 -48.5 -14t-27.5 -46.5t-11.5 -68.5t-2.5 -98zM287 -63l831 1548h182l-831 -1548h-182zM924 362q0 105 12.5 173.5t45.5 120.5t94 75t155 23t155 -23t94 -75t45.5 -120.5t12.5 -173.5t-12.5 -173.5t-45.5 -120t-94 -74.5t-155 -23 t-155 23t-94 74.5t-45.5 120t-12.5 173.5zM1141 371q0 -54 1.5 -88t6.5 -67t15 -50.5t26.5 -28t40.5 -10.5q57 0 73.5 54.5t16.5 189.5q0 62 -2.5 98t-11.5 68.5t-27.5 46.5t-48.5 14t-48.5 -14t-27.5 -46.5t-11.5 -68.5t-2.5 -98z" />
<glyph unicode="&#x26;" horiz-adv-x="1214" d="M25 393q0 239 294 422l-51 76q-59 87 -78.5 142.5t-19.5 121.5q0 141 103.5 224t269.5 83q179 0 271.5 -85t92.5 -220q0 -107 -61.5 -197t-192.5 -182l219 -297q23 46 37.5 110.5t14.5 110.5h254q0 -219 -150 -432l193 -270h-314l-82 113q-55 -66 -150 -104t-202 -38 q-106 0 -188.5 28.5t-130 72t-78 102.5t-41 111.5t-10.5 107.5zM307 393q0 -75 55.5 -133.5t149.5 -58.5q116 0 190 92l-245 348q-82 -63 -116 -121t-34 -127zM412 1163q0 -61 73 -159l35 -50l53 45q93 75 93 160q0 59 -35.5 91t-93.5 32q-54 0 -89.5 -32t-35.5 -87z" />
<glyph unicode="'" horiz-adv-x="532" d="M139 805v657h254v-657h-254z" />
<glyph unicode="(" horiz-adv-x="606" d="M102 543q0 464 287 919h217q-126 -229 -179.5 -442.5t-53.5 -476.5t53.5 -477t179.5 -443h-217q-287 455 -287 920z" />
<glyph unicode=")" horiz-adv-x="606" d="M0 -377q126 229 179.5 443t53.5 477t-53.5 476.5t-179.5 442.5h217q287 -455 287 -919q0 -465 -287 -920h-217z" />
<glyph unicode="*" horiz-adv-x="798" d="M14 1122l52 160l249 -82v262h168v-262l250 82l51 -160l-249 -82l155 -213l-137 -98l-154 213l-153 -213l-137 98l155 213z" />
<glyph unicode="+" horiz-adv-x="1228" d="M96 391v254h391v391h254v-391h392v-254h-392v-391h-254v391h-391z" />
<glyph unicode="," horiz-adv-x="491" d="M111 0v319h270v-266q0 -69 -7 -122.5t-25 -102.5t-48 -82.5t-78 -55.5t-112 -28v143q51 9 78.5 55t27.5 107v33h-106z" />
<glyph unicode="-" horiz-adv-x="757" d="M90 471v242h578v-242h-578z" />
<glyph unicode="." horiz-adv-x="491" d="M111 0v319h270v-319h-270z" />
<glyph unicode="/" horiz-adv-x="679" d="M-6 -29l463 1520h229l-463 -1520h-229z" />
<glyph unicode="0" d="M37 676q0 101 2.5 170t12.5 157.5t28 147t51.5 120t81 97.5t118.5 59t161 23q132 0 218.5 -37t139.5 -123.5t74.5 -216.5t21.5 -328q0 -78 -1.5 -133.5t-6.5 -126.5t-14 -120.5t-25.5 -107t-39.5 -97t-57.5 -78t-78 -61t-102 -36.5t-129.5 -14q-133 0 -219 37 t-139.5 123.5t-75 216.5t-21.5 328zM332 612q0 -187 14 -280.5t47 -130.5t99 -37q39 0 66 15.5t45.5 48t28.5 91.5t14.5 137.5t4.5 194.5v158q0 187 -14 280.5t-46.5 130.5t-98.5 37q-39 0 -66 -15.5t-46 -48t-29 -91.5t-14.5 -137.5t-4.5 -194.5v-158z" />
<glyph unicode="1" d="M84 1024v193h27q298 0 340 233h217v-1450h-295v1024h-289z" />
<glyph unicode="2" d="M37 0q0 188 76 334.5t243 300.5l119 110q94 86 123 151t29 181q0 180 -144 180q-43 0 -73.5 -15.5t-47.5 -38.5t-26.5 -63t-12.5 -76t-4 -89h-282v55q0 205 111 312.5t339 107.5q215 0 325 -102.5t110 -292.5q0 -141 -51 -245t-175 -216l-164 -152q-123 -112 -149 -213 h547v-229h-893z" />
<glyph unicode="3" d="M41 418v6h283q3 -136 36.5 -198t124.5 -62q42 0 72 12.5t47 32.5t27 52t13 62.5t3 73.5q0 42 -4 75.5t-16.5 67t-32.5 55.5t-55 36t-82 14h-99v193h97q86 0 127 65t41 164q0 100 -34.5 145t-107.5 45q-46 0 -76.5 -16.5t-46 -50.5t-21 -73t-5.5 -95h-271q0 212 109.5 320 t316.5 108q201 0 309.5 -92.5t108.5 -280.5q0 -129 -58.5 -212.5t-162.5 -106.5v-4q258 -40 258 -342q0 -64 -11 -121t-43.5 -117.5t-83.5 -104t-139.5 -71t-203.5 -27.5q-207 0 -313.5 118t-106.5 329z" />
<glyph unicode="4" d="M29 301v242l481 907h305v-920h139v-229h-139v-301h-270v301h-516zM258 530h287v551h-4z" />
<glyph unicode="5" d="M37 375v39h282q0 -238 144 -238q88 0 130 70.5t42 212.5q0 180 -35 243.5t-135 63.5q-61 0 -96 -35t-43 -98h-265l54 788h755v-229h-534l-31 -330h4q79 109 266 109q81 0 144 -26.5t102 -70t64 -105t35 -125t10 -136.5q0 -100 -12.5 -178t-44 -147.5t-83.5 -114.5 t-133.5 -71t-191.5 -26q-77 0 -140 14t-106.5 37.5t-76.5 57t-52.5 68.5t-32 76.5t-16.5 77t-4 73.5z" />
<glyph unicode="6" d="M29 649q0 86 1 136.5t5.5 128.5t13.5 126t25.5 111t41 101t61.5 80.5t84.5 65t112 37.5t142.5 15q65 0 122 -11t109 -38t89.5 -68.5t60 -105.5t23.5 -146h-283q0 87 -31 131.5t-102 44.5q-46 0 -78.5 -18.5t-52 -49t-31 -79.5t-15 -100t-3.5 -121v-72h4q38 58 108.5 91.5 t163.5 33.5q94 0 163.5 -33.5t110.5 -96t60.5 -142.5t19.5 -181q0 -518 -469 -518q-85 0 -153 19.5t-115 52.5t-81.5 84t-55 105.5t-32 127.5t-15.5 139t-4 150zM338 451q1 -69 7.5 -116t23 -88.5t49 -62t82.5 -20.5q42 0 71.5 15t46.5 38t26.5 62.5t12 78t2.5 93.5 q0 148 -36.5 211t-122.5 63q-88 0 -125 -63t-37 -211z" />
<glyph unicode="7" d="M45 1167v254h893v-225q-173 -243 -281 -557.5t-145 -638.5h-309q87 673 452 1167h-610z" />
<glyph unicode="8" d="M29 410q0 141 62.5 237.5t182.5 120.5v4q-73 19 -122 67.5t-67.5 101.5t-18.5 110q0 399 426 399t426 -399q0 -57 -18.5 -110t-68 -101.5t-122.5 -67.5v-4q120 -24 182.5 -120.5t62.5 -237.5q0 -58 -9 -110.5t-38.5 -115t-77.5 -107.5t-135 -75.5t-202 -30.5t-202 30.5 t-135.5 75.5t-78 107.5t-38.5 115t-9 110.5zM324 414q0 -250 168 -250q48 0 82 19t52 55t25.5 78.5t7.5 97.5q0 56 -7.5 98.5t-25.5 78t-52 54.5t-82 19q-93 0 -130.5 -67t-37.5 -183zM348 1059q0 -99 39 -151t105 -52t104.5 52t38.5 151q0 198 -143 198q-144 0 -144 -198z " />
<glyph unicode="9" d="M29 932q0 518 469 518q85 0 153 -19.5t115 -52.5t81.5 -84t55 -105.5t32 -127.5t15.5 -139t4 -150q0 -86 -1 -137t-5.5 -129t-13.5 -125.5t-25.5 -111t-41 -101.5t-61.5 -80t-84.5 -64.5t-112 -37.5t-142.5 -15q-83 0 -151.5 18.5t-126.5 59.5t-91.5 114.5t-34.5 174.5 h283q0 -86 31 -130t102 -44q46 0 78.5 18.5t52 49t31 79.5t15 100t3.5 121v70h-4q-38 -57 -108.5 -90t-163.5 -33q-94 0 -163.5 33.5t-110.5 96t-60.5 142.5t-19.5 181zM324 971q0 -148 36.5 -211.5t122.5 -63.5q88 0 125 63.5t37 211.5q-1 54 -4.5 94t-14 78t-28 61.5 t-46.5 38t-69 14.5q-42 0 -71.5 -14.5t-46.5 -38t-26.5 -63t-12 -77.5t-2.5 -93z" />
<glyph unicode=":" horiz-adv-x="491" d="M111 0v319h270v-319h-270zM111 748v319h270v-319h-270z" />
<glyph unicode=";" horiz-adv-x="491" d="M111 0v319h270v-266q0 -69 -7 -122.5t-25 -102.5t-48 -82.5t-78 -55.5t-112 -28v143q51 9 78.5 55t27.5 107v33h-106zM111 748v319h270v-319h-270z" />
<glyph unicode="&#x3c;" horiz-adv-x="1228" d="M96 410v217l1037 426v-254l-693 -281l693 -280v-254z" />
<glyph unicode="=" horiz-adv-x="1228" d="M96 168v254h1037v-254h-1037zM96 614v254h1037v-254h-1037z" />
<glyph unicode="&#x3e;" horiz-adv-x="1228" d="M96 -16v254l692 280l-692 281v254l1037 -426v-217z" />
<glyph unicode="?" horiz-adv-x="985" d="M74 1010v47q0 191 104 306.5t301 115.5q211 0 321.5 -106t110.5 -290q0 -87 -29 -163t-100 -156l-82 -92q-56 -63 -78 -112t-22 -124v-30h-254v79q0 101 28.5 172t98.5 150l78 88q78 86 78 217q0 80 -36 127t-104 47q-145 0 -145 -225v-51h-270zM332 0v270h282v-270h-282 z" />
<glyph unicode="@" horiz-adv-x="1638" d="M59 731q0 155 60 295.5t162 242.5t242.5 162t295.5 60q153 0 291.5 -45t242.5 -124.5t165 -197t61 -254.5q0 -123 -41 -226t-101.5 -167.5t-133.5 -109.5t-133.5 -63.5t-104.5 -18.5q-59 0 -94 27.5t-39 80.5h-4q-100 -108 -246 -108q-116 0 -207.5 96.5t-91.5 251.5 q0 127 52.5 241t154.5 188.5t231 74.5q163 0 248 -138l27 109h180l-119 -512q-12 -56 -12 -84q0 -41 41 -41q31 0 67.5 26t69 70.5t54.5 113.5t22 146q0 132 -77 241.5t-201.5 169.5t-266.5 60q-118 0 -224 -47.5t-180 -126t-117.5 -182t-43.5 -213.5q0 -152 79.5 -283 t213 -206.5t286.5 -75.5q231 0 445 131h182q-226 -324 -676 -324q-155 0 -295.5 60t-242.5 162t-162 242.5t-60 295.5zM612 668q0 -69 41 -117.5t105 -48.5q99 0 168 82.5t69 179.5q0 64 -45 110t-108 46q-94 0 -162 -81t-68 -171z" />
<glyph unicode="A" horiz-adv-x="1138" d="M0 0l387 1462h365l387 -1462h-308l-67 309h-389l-68 -309h-307zM426 551h287l-142 657h-4z" />
<glyph unicode="B" horiz-adv-x="1138" d="M102 0v1462h494q95 0 168 -19t130 -60.5t87.5 -114.5t30.5 -176q0 -121 -57 -205.5t-164 -114.5v-4q123 -18 194.5 -107t71.5 -233q0 -71 -14 -132.5t-48 -117t-85.5 -94t-130.5 -61.5t-179 -23h-498zM397 217h115q114 0 176 50t62 171q0 120 -60 169.5t-166 49.5h-127 v-440zM397 862h84q123 0 179.5 45.5t56.5 147.5t-51 146t-162 44h-107v-383z" />
<glyph unicode="C" horiz-adv-x="1099" d="M72 731q0 90 3.5 160.5t12 145t25 130.5t42 110t63 91t87 66t116 43t148.5 14q88 0 158 -18.5t116.5 -47t80.5 -73.5t52.5 -87.5t29 -99.5t13.5 -99.5t3 -96.5h-295q0 163 -39 234t-137 71q-110 0 -147 -121.5t-37 -441.5q0 -164 11 -268t36 -159.5t57.5 -75.5t83.5 -20 q44 0 74.5 14.5t57 52.5t39.5 114t13 190h295q0 -72 -6 -132.5t-19.5 -121.5t-36 -110t-58.5 -91.5t-83.5 -71t-114 -45t-147.5 -16.5q-82 0 -148.5 14t-116 43t-87 66t-63 91t-42 110t-25 130.5t-12 145t-3.5 160.5z" />
<glyph unicode="D" horiz-adv-x="1175" d="M117 0v1462h483q87 0 156 -17t119 -48t87 -79.5t60 -105t37 -132.5t19 -153t5 -175q0 -202 -23.5 -337.5t-80.5 -231.5t-154 -139.5t-243 -43.5h-465zM412 217h131q62 0 104 17.5t70.5 52.5t43.5 100.5t21 147.5t6 208q0 91 -3 153t-12 123.5t-26 99.5t-44.5 68.5 t-68.5 44t-97 13.5h-125v-1028z" />
<glyph unicode="E" horiz-adv-x="985" d="M102 0v1462h818v-241h-523v-344h492v-242h-492v-393h543v-242h-838z" />
<glyph unicode="F" horiz-adv-x="948" d="M102 0v1462h818v-241h-523v-344h492v-242h-492v-635h-295z" />
<glyph unicode="G" horiz-adv-x="1138" d="M88 748q0 191 24 325t80.5 230t152 142t235.5 46q237 0 345.5 -117t108.5 -346h-282q0 59 -16.5 112.5t-56 93.5t-95.5 40q-107 0 -154 -119t-47 -393q0 -143 8 -240t29.5 -177t62.5 -118.5t103 -38.5t122 63t60 171v149h-195v217h478v-788h-217v135h-5 q-100 -164 -307 -164q-90 0 -158 21.5t-115.5 68t-79 108.5t-49.5 153.5t-25 191.5t-7 234z" />
<glyph unicode="H" horiz-adv-x="1138" d="M102 0v1462h295v-559h344v559h295v-1462h-295v649h-344v-649h-295z" />
<glyph unicode="I" horiz-adv-x="528" d="M117 0v1462h295v-1462h-295z" />
<glyph unicode="J" horiz-adv-x="948" d="M31 399v64h270v-45q0 -123 27.5 -176.5t103.5 -53.5t103.5 53.5t27.5 176.5v1044h295v-1052q0 -231 -106.5 -335t-333.5 -104q-91 0 -159.5 23t-111 61.5t-69.5 94.5t-37 116t-10 133z" />
<glyph unicode="K" horiz-adv-x="1099" d="M102 0v1462h295v-585h4l373 585h320l-398 -626l443 -836h-332l-301 600l-109 -166v-434h-295z" />
<glyph unicode="L" horiz-adv-x="948" d="M102 0v1462h295v-1220h523v-242h-818z" />
<glyph unicode="M" horiz-adv-x="1515" d="M109 0v1462h438l209 -1032h4l211 1032h436v-1462h-270v1167h-4l-261 -1167h-229l-260 1167h-4v-1167h-270z" />
<glyph unicode="N" horiz-adv-x="1175" d="M102 0v1462h340l357 -1001h4v1001h270v-1462h-336l-360 1024h-4v-1024h-271z" />
<glyph unicode="O" horiz-adv-x="1138" d="M72 731q0 90 3.5 160.5t12 145t25 130.5t42 110t63 91t87 66t116 43t148.5 14q93 0 166.5 -19.5t125.5 -53t89.5 -88t60 -113.5t35 -142t17 -161.5t4.5 -182.5t-4.5 -182.5t-17 -161.5t-35 -142t-60 -113.5t-89.5 -88t-125.5 -53t-166.5 -19.5q-82 0 -148.5 14t-116 43 t-87 66t-63 91t-42 110t-25 130.5t-12 145t-3.5 160.5zM367 731q0 -105 3 -177.5t11 -137.5t22 -104.5t36.5 -69t54 -42t75.5 -12.5t75.5 12.5t54.5 42t37 69t22 104.5t11 137.5t3 177.5q0 104 -3 176.5t-11 137.5t-22 105t-37 69.5t-54.5 42t-75.5 12.5t-75.5 -12.5 t-54 -42t-36.5 -69.5t-22 -105t-11 -137.5t-3 -176.5z" />
<glyph unicode="P" horiz-adv-x="1062" d="M102 0v1462h516q87 0 156.5 -24.5t114.5 -66t75 -99t43 -119t13 -129.5q0 -220 -124 -330t-341 -110h-158v-584h-295zM397 801h131q91 0 144 55t53 164q0 111 -49 168t-156 57h-123v-444z" />
<glyph unicode="Q" horiz-adv-x="1138" d="M72 731q0 90 3.5 160.5t12 145t25 130.5t42 110t63 91t87 66t116 43t148.5 14q93 0 166.5 -19.5t125.5 -53t89.5 -88t60 -113.5t35 -142t17 -161.5t4.5 -182.5q0 -212 -23 -355t-90 -239l158 -160l-174 -157l-174 180q-49 -18 -90 -23q-46 -6 -105 -6q-82 0 -148.5 14 t-116 43t-87 66t-63 91t-42 110t-25 130.5t-12 145t-3.5 160.5zM367 731q0 -105 3 -177.5t11 -137.5t22 -104.5t36.5 -69t54 -42t75.5 -12.5t75.5 12.5t54.5 42t37 69t22 104.5t11 137.5t3 177.5q0 104 -3 176.5t-11 137.5t-22 105t-37 69.5t-54.5 42t-75.5 12.5 t-75.5 -12.5t-54 -42t-36.5 -69.5t-22 -105t-11 -137.5t-3 -176.5z" />
<glyph unicode="R" horiz-adv-x="1138" d="M102 0v1462h545q184 0 286.5 -96t102.5 -281q0 -149 -60.5 -241.5t-182.5 -118.5v-4q61 -8 101.5 -28t67 -51t40.5 -86t19.5 -118.5t6.5 -163.5q2 -126 14.5 -183.5t51.5 -78.5v-12h-320q-33 47 -37 154l-8 280q-6 184 -174 184h-158v-618h-295zM397 823h123 q109 0 165 52t56 167q0 203 -204 203h-140v-422z" />
<glyph unicode="S" horiz-adv-x="1062" d="M45 397v60h295v-43q0 -112 42.5 -169t152.5 -57q73 0 124.5 47t51.5 134q0 97 -55 146.5t-207 102.5q-204 70 -293.5 168t-89.5 275q0 210 119.5 320t332.5 110q101 0 182 -22.5t142.5 -68.5t95 -122.5t33.5 -179.5v-41h-283q0 217 -160 217q-168 0 -168 -170 q0 -72 31.5 -116.5t120.5 -82.5l227 -98q159 -69 219 -158t60 -229q0 -227 -131.5 -338t-376.5 -111q-243 0 -354 108t-111 318z" />
<glyph unicode="T" d="M25 1221v241h933v-241h-319v-1221h-295v1221h-319z" />
<glyph unicode="U" horiz-adv-x="1101" d="M84 442v1020h295v-1020q0 -58 8 -101.5t26.5 -79.5t53 -54.5t84.5 -18.5t84.5 18.5t53 54.5t26.5 79.5t8 101.5v1020h295v-1020q0 -108 -26 -191.5t-69 -135.5t-104.5 -85t-126.5 -46t-141 -13q-78 0 -141.5 11t-126 42.5t-105 82.5t-68.5 136t-26 199z" />
<glyph unicode="V" horiz-adv-x="1062" d="M6 1462h316l206 -1081h7l217 1081h305l-336 -1462h-379z" />
<glyph unicode="W" horiz-adv-x="1556" d="M16 1462h283l162 -1081h4l172 1081h283l172 -1081h4l161 1081h283l-266 -1462h-330l-164 1061h-4l-164 -1061h-329z" />
<glyph unicode="X" horiz-adv-x="1099" d="M12 0l365 739l-336 723h326l188 -473l186 473h322l-340 -723l364 -739h-331l-211 496l-209 -496h-324z" />
<glyph unicode="Y" horiz-adv-x="1064" d="M6 1462h332l192 -565h5l204 565h320l-379 -887v-575h-295v575z" />
<glyph unicode="Z" horiz-adv-x="985" d="M49 0v215l539 1006h-502v241h842v-223l-547 -997h555v-242h-887z" />
<glyph unicode="[" horiz-adv-x="645" d="M164 -377v1839h469v-205h-215v-1429h215v-205h-469z" />
<glyph unicode="\" horiz-adv-x="679" d="M-6 1491h229l463 -1520h-229z" />
<glyph unicode="]" horiz-adv-x="645" d="M12 -172h215v1429h-215v205h469v-1839h-469v205z" />
<glyph unicode="^" horiz-adv-x="1228" d="M115 633l385 788h229l385 -788h-254l-246 506l-245 -506h-254z" />
<glyph unicode="_" horiz-adv-x="1024" d="M0 -154h1024v-102h-1024v102z" />
<glyph unicode="`" horiz-adv-x="454" d="M-33 1526h283l110 -295h-192z" />
<glyph unicode="a" horiz-adv-x="985" d="M57 287q0 151 64.5 227t214.5 117l160 43q63 17 87.5 45.5t24.5 83.5q0 135 -131 135q-63 0 -97 -38.5t-34 -104.5v-31h-254v27q0 92 30 159.5t84.5 105.5t122 56t150.5 18q99 0 170.5 -16.5t115.5 -44.5t70 -72t35 -92t9 -112v-580q0 -80 6.5 -123.5t27.5 -89.5h-270 q-17 34 -35 115h-4q-48 -83 -111 -113.5t-169 -30.5q-57 0 -103 19t-76 50t-50.5 72.5t-29 85t-8.5 89.5zM328 317q0 -68 26 -110.5t80 -42.5q66 0 120 43.5t54 126.5v217q-53 -39 -121 -55q-85 -18 -122 -61t-37 -118z" />
<glyph unicode="b" horiz-adv-x="1024" d="M94 0v1462h283v-463h4q45 67 102 99t135 32q175 0 256.5 -137t81.5 -442t-81.5 -442.5t-256.5 -137.5q-84 0 -143.5 35t-105.5 111h-4v-117h-271zM377 551q0 -97 6 -159.5t21.5 -111t45.5 -70.5t76 -22q45 0 74.5 22t45.5 70.5t22 111.5t6 159t-6 159t-22 111t-45 70 t-75 22q-37 0 -63.5 -15t-43 -42.5t-26 -74t-13 -100t-3.5 -130.5z" />
<glyph unicode="c" horiz-adv-x="948" d="M53 551q0 133 22 234t60 166t95.5 105.5t122.5 57t147 16.5q192 0 293.5 -113t101.5 -312h-270q0 221 -127 221q-51 0 -83.5 -22t-49.5 -72.5t-23 -115t-6 -167.5q0 -215 30 -300t121 -85q71 0 104.5 62.5t33.5 195.5h270q0 -223 -100.5 -337t-319.5 -114 q-110 0 -186 28.5t-130.5 95.5t-80 179t-25.5 277z" />
<glyph unicode="d" horiz-adv-x="1024" d="M68 551q0 305 81.5 442t256.5 137q78 0 135 -32t102 -99h4v463h283v-1462h-271v117h-4q-46 -76 -105.5 -111t-143.5 -35q-175 0 -256.5 137.5t-81.5 442.5zM350 551q0 -96 6 -159t22 -111.5t45.5 -70.5t74.5 -22q46 0 76 22t45.5 70.5t21.5 111t6 159.5q0 77 -3.5 130.5 t-13 100t-26 74t-43 42.5t-63.5 15q-46 0 -75 -22t-45 -70t-22 -111t-6 -159z" />
<glyph unicode="e" horiz-adv-x="948" d="M53 561q0 98 8.5 173.5t36.5 153t74.5 128t127.5 82.5t192 32q97 0 168.5 -26.5t116 -72.5t71.5 -118t37 -153t10 -189v-63h-559v-88q0 -109 33.5 -182.5t105.5 -73.5q68 0 103 51t47 156h254q-16 -400 -400 -400q-67 0 -122.5 12t-96.5 30.5t-73.5 50t-54 62.5t-37 76.5 t-23.5 83t-12.5 91t-5.5 91.5t-1 93zM336 676h289q-5 139 -33.5 200.5t-110.5 61.5q-40 0 -70 -19.5t-45.5 -52.5t-22.5 -69.5t-7 -77.5v-43z" />
<glyph unicode="f" horiz-adv-x="606" d="M12 909v193h144v125q0 143 75 203.5t220 60.5q75 0 151 -6v-201q-18 2 -55 2q-60 0 -84.5 -20t-24.5 -68v-96h164v-193h-164v-909h-282v909h-144z" />
<glyph unicode="g" horiz-adv-x="1024" d="M72 569q0 61 3 112.5t12 111t24.5 106t42 91.5t62 74.5t87 47.5t115.5 18q67 0 128.5 -35.5t98.5 -115.5h4v123h271v-1047q0 -222 -107.5 -327t-351.5 -105q-180 0 -277.5 77t-97.5 218h270q0 -55 43 -84q47 -31 95 -31q155 0 155 199v145h-4q-43 -62 -105.5 -98.5 t-129.5 -36.5q-173 0 -255.5 130.5t-82.5 426.5zM354 516q0 -63 5.5 -110t20.5 -89.5t44 -65t72 -22.5q84 0 118.5 82t34.5 234q0 204 -31.5 286t-115.5 82q-91 0 -119.5 -83t-28.5 -314z" />
<glyph unicode="h" horiz-adv-x="1024" d="M94 0v1462h283v-473h4q79 141 268 141q136 0 208.5 -77t72.5 -236v-817h-283v760q0 82 -28.5 117.5t-92.5 35.5q-149 0 -149 -182v-731h-283z" />
<glyph unicode="i" horiz-adv-x="491" d="M104 0v1102h283v-1102h-283zM104 1237v242h283v-242h-283z" />
<glyph unicode="j" horiz-adv-x="491" d="M-51 -152q14 -4 45 -4q70 0 90 38t20 138v1082h283v-1178q0 -72 -15 -122.5t-51.5 -88t-100 -55.5t-157.5 -18q-32 0 -114 4v204zM104 1237v242h283v-242h-283z" />
<glyph unicode="k" horiz-adv-x="1024" d="M104 0v1462h283v-772h4l285 412h311l-317 -434l364 -668h-311l-236 453l-100 -131v-322h-283z" />
<glyph unicode="l" horiz-adv-x="491" d="M104 0v1462h283v-1462h-283z" />
<glyph unicode="m" horiz-adv-x="1552" d="M94 0v1102h271v-113h4q53 74 120.5 107.5t157.5 33.5q97 0 164 -46t90 -130h4q32 86 104.5 131t174.5 45q274 0 274 -329v-801h-282v770q0 71 -26.5 107t-84.5 36q-69 0 -108 -47.5t-39 -140.5v-725h-283v770q0 71 -26.5 107t-84.5 36q-69 0 -108 -47.5t-39 -140.5v-725 h-283z" />
<glyph unicode="n" horiz-adv-x="1024" d="M94 0v1102h271v-129h4q85 157 280 157q136 0 208.5 -77t72.5 -236v-817h-283v760q0 82 -28.5 117.5t-92.5 35.5q-149 0 -149 -182v-731h-283z" />
<glyph unicode="o" d="M57 551q0 294 100 436.5t335 142.5h14q117 0 197 -33q85 -35 133.5 -111.5t69 -180.5t20.5 -254q0 -294 -99.5 -437t-334.5 -143h-13q-117 -1 -198 33q-85 36 -134 112.5t-69.5 180.5t-20.5 254zM340 551q0 -64 1.5 -108t7 -92t15.5 -79t26.5 -57t42 -38.5t59.5 -12.5 q85 0 118 88.5t33 298.5t-33 298.5t-118 88.5q-34 0 -59.5 -12.5t-42 -38.5t-26.5 -57t-15.5 -79t-7 -92t-1.5 -108z" />
<glyph unicode="p" horiz-adv-x="1024" d="M94 -360v1462h271v-117h4q45 76 105 110.5t144 34.5q175 0 256.5 -137t81.5 -442t-81.5 -442.5t-256.5 -137.5q-78 0 -135 32t-102 99h-4v-462h-283zM377 551q0 -97 6 -159.5t21.5 -111t45.5 -70.5t76 -22q45 0 74.5 22t45.5 70.5t22 111.5t6 159t-6 159t-22 111t-45 70 t-75 22q-37 0 -63.5 -15t-43 -42.5t-26 -74t-13 -100t-3.5 -130.5z" />
<glyph unicode="q" horiz-adv-x="1024" d="M68 551q0 305 81.5 442t256.5 137q84 0 144 -34.5t105 -110.5h4v117h271v-1462h-283v462h-4q-45 -67 -102 -99t-135 -32q-175 0 -256.5 137.5t-81.5 442.5zM350 551q0 -96 6 -159t22 -111.5t45.5 -70.5t74.5 -22q46 0 76 22t45.5 70.5t21.5 111t6 159.5q0 77 -3.5 130.5 t-13 100t-26 74t-43 42.5t-63.5 15q-46 0 -75 -22t-45 -70t-22 -111t-6 -159z" />
<glyph unicode="r" horiz-adv-x="681" d="M94 0v1102h271v-148h4q95 176 254 176q19 0 51 -4v-270q-58 4 -88 4q-85 0 -147 -48.5t-62 -149.5v-662h-283z" />
<glyph unicode="s" horiz-adv-x="909" d="M47 322v38h254v-36q0 -73 38.5 -116.5t109.5 -43.5q66 0 104.5 33.5t38.5 97.5q0 88 -103 125l-198 72q-119 42 -177.5 117t-58.5 190q0 70 23 128.5t70.5 104.5t127 72t185.5 26q189 0 283 -80.5t94 -232.5v-45h-254q0 85 -29 125.5t-96 40.5q-57 0 -95 -31.5t-38 -87.5 q0 -88 123 -129l169 -57q132 -44 188 -117t56 -199q0 -168 -112 -257t-297 -89q-116 0 -196.5 24.5t-125.5 72.5t-64.5 109.5t-19.5 144.5z" />
<glyph unicode="t" horiz-adv-x="606" d="M12 909v193h144v315h282v-315h164v-193h-164v-596q0 -67 20.5 -93.5t80.5 -26.5q27 0 63 4v-197q-122 -12 -184 -12q-84 0 -134.5 13.5t-79.5 49.5t-38.5 87.5t-9.5 140.5v630h-144z" />
<glyph unicode="u" horiz-adv-x="1024" d="M94 285v817h283v-760q0 -82 28.5 -118t92.5 -36q149 0 149 183v731h283v-1102h-271v129h-4q-86 -158 -280 -158q-135 0 -208 77.5t-73 236.5z" />
<glyph unicode="v" horiz-adv-x="909" d="M10 1102h295l158 -789h4l149 789h283l-276 -1102h-328z" />
<glyph unicode="w" horiz-adv-x="1441" d="M14 1102h283l129 -783h4l137 783h307l146 -783h4l133 783h270l-237 -1102h-322l-145 782h-4l-137 -782h-328z" />
<glyph unicode="x" horiz-adv-x="946" d="M14 0l299 567l-286 535h295l151 -332l152 332h295l-287 -535l299 -567h-295l-164 360l-164 -360h-295z" />
<glyph unicode="y" horiz-adv-x="909" d="M10 1102h295l164 -762h4l143 762h283l-266 -1028q-26 -100 -47 -165t-48.5 -116.5t-54.5 -79t-69.5 -45t-88.5 -23t-116 -5.5h-115v210q37 -6 74 -6q75 0 110 39.5t41 116.5z" />
<glyph unicode="z" horiz-adv-x="872" d="M49 0v217l440 655h-419v230h753v-217l-440 -656h440v-229h-774z" />
<glyph unicode="{" horiz-adv-x="645" d="M61 459v168q53 0 94.5 48t41.5 118v395q0 131 54.5 202.5t158.5 71.5h182v-205h-62q-45 0 -62 -39.5t-17 -107.5v-340q0 -90 -41 -151.5t-107 -73.5v-4q66 -12 107 -74t41 -152v-340q0 -68 17 -107.5t62 -39.5h62v-205h-182q-103 0 -158 71.5t-55 203.5v395 q0 70 -41.5 118t-94.5 48z" />
<glyph unicode="|" horiz-adv-x="454" d="M100 -29v1520h254v-1520h-254z" />
<glyph unicode="}" horiz-adv-x="645" d="M53 -172h62q80 0 80 147v340q0 90 40.5 152t106.5 74v4q-66 12 -106.5 73.5t-40.5 151.5v340q0 147 -80 147h-62v205h183q104 0 158.5 -71.5t54.5 -202.5v-395q0 -70 41 -118t94 -48v-168q-53 0 -94 -48t-41 -118v-395q0 -132 -55 -203.5t-158 -71.5h-183v205z" />
<glyph unicode="~" horiz-adv-x="1228" d="M141 539q93 176 252 176q106 0 223 -60q93 -48 133 -64t80 -16q55 0 109.5 47t75.5 93l73 -217q-93 -176 -251 -176q-64 0 -119 17t-123 52q-87 44 -124 57t-71 13q-55 0 -109 -46.5t-75 -92.5z" />
<glyph unicode="&#xa1;" horiz-adv-x="606" d="M162 115l39 579h205l38 -579v-475h-282v475zM162 831v271h282v-271h-282z" />
<glyph unicode="&#xa2;" d="M68 543q0 100 8.5 177.5t34 153.5t67.5 127.5t112 86.5t165 42v156h106v-156q58 -4 105 -15.5t94.5 -40.5t80 -73t53 -117.5t21.5 -170.5h-270q0 182 -84 213v-750q37 22 57 70.5t23.5 87.5t3.5 94h270q0 -207 -85 -321.5t-269 -135.5v-180h-106v180q-70 3 -124.5 19.5 t-105 55.5t-84 101.5t-53.5 162.5t-20 233zM350 555q0 -53 0.5 -83.5t3.5 -78.5t9.5 -77.5t18 -62t30 -51.5t43.5 -26v750q-63 -23 -84 -110t-21 -261z" />
<glyph unicode="&#xa3;" d="M10 164q109 70 174.5 165.5t65.5 196.5q0 44 -23 101h-209v168h138q-93 181 -93 290q0 161 113 263t326 102q215 0 328.5 -102.5t117.5 -321.5h-270q0 104 -38 167.5t-122 63.5q-90 0 -131 -46t-41 -115q0 -28 13.5 -80t39.5 -105l58 -116h342v-168h-289q10 -25 10 -80 q0 -90 -41.5 -163t-142.5 -157l8 -4q52 15 92 15q27 0 112 -31t122 -31q35 0 92 22t121 64l90 -192q-154 -99 -305 -99q-45 0 -176.5 37t-196.5 37q-50 0 -94 -13t-107 -44z" />
<glyph unicode="&#xa4;" d="M0 346l102 103q-79 119 -79 262q0 144 79 262l-102 102l125 127l104 -102q119 80 263 80q141 0 262 -80l104 102l125 -127l-102 -102q80 -119 80 -262t-80 -262l102 -103l-125 -127l-104 105q-119 -82 -262 -82q-145 0 -263 82l-104 -105zM240 711q0 -122 68.5 -193.5 t183.5 -71.5t183 71.5t68 193.5t-68 193t-183 71t-183.5 -71t-68.5 -193z" />
<glyph unicode="&#xa5;" d="M-35 1421h305l219 -551h5l229 551h295l-297 -624h188v-168h-268l-23 -47v-88h291v-168h-291v-326h-253v326h-291v168h291v88l-23 47h-268v168h188z" />
<glyph unicode="&#xa6;" horiz-adv-x="454" d="M100 -29v555h254v-555h-254zM100 936v555h254v-555h-254z" />
<glyph unicode="&#xa7;" horiz-adv-x="985" d="M27 627q0 95 49.5 172.5t134.5 120.5q-123 91 -123 233q0 89 32.5 155.5t90.5 105.5t132.5 58t164.5 19q200 0 294.5 -89t94.5 -243h-270q0 62 -29 101q-28 38 -113 38q-57 0 -92 -33t-35 -83q0 -81 131 -142l244 -114q225 -106 225 -334q0 -81 -44.5 -165t-114.5 -126 q110 -86 110 -254q0 -180 -108 -269t-309 -89q-206 0 -310 94.5t-104 261.5v31h270v-31q0 -75 40.5 -119.5t103.5 -44.5q67 0 101 40t34 97q0 58 -30 97.5t-101 74.5l-252 121q-217 106 -217 316zM268 668q0 -31 18.5 -62t51.5 -49l203 -111q39 -22 80 -51q96 79 96 154 q0 53 -30.5 90t-108.5 78l-197 104q-113 -68 -113 -153z" />
<glyph unicode="&#xa8;" horiz-adv-x="454" d="M-63 1249v242h229v-242h-229zM289 1249v242h229v-242h-229z" />
<glyph unicode="&#xa9;" horiz-adv-x="1638" d="M59 731q0 155 60 295.5t162 242.5t242.5 162t295.5 60t295.5 -60t242.5 -162t162 -242.5t60 -295.5t-60 -295.5t-162 -242.5t-242.5 -162t-295.5 -60t-295.5 60t-242.5 162t-162 242.5t-60 295.5zM289 731q0 -147 68 -271.5t190.5 -198t271.5 -73.5t271.5 73.5t191 198 t68.5 271.5t-68.5 271.5t-191 198t-271.5 73.5t-271.5 -73.5t-190.5 -198t-68 -271.5zM426 737q0 194 113 320.5t305 126.5q142 0 244 -82.5t122 -231.5h-196q-16 63 -61.5 100.5t-118.5 37.5q-103 0 -159.5 -75t-56.5 -196q0 -115 58.5 -192.5t154.5 -77.5q75 0 124.5 39 t58.5 104h205q-22 -148 -127.5 -233.5t-241.5 -85.5q-127 0 -224.5 60t-148.5 161t-51 225z" />
<glyph unicode="&#xaa;" horiz-adv-x="643" d="M20 940q0 94 42.5 141t140.5 68l119 25q40 9 56.5 25.5t16.5 43.5q0 35 -19.5 55.5t-56.5 20.5q-40 0 -61.5 -22.5t-21.5 -57.5v-18h-193v26q0 203 281 203q86 0 142.5 -14t84.5 -43.5t38.5 -63t10.5 -82.5v-352q0 -77 23 -129h-205q-8 16 -23 72q-33 -51 -75 -68.5 t-117 -17.5q-94 0 -138.5 55.5t-44.5 132.5zM225 969q0 -38 16.5 -62t49.5 -24q40 0 72 24t32 72v121q-34 -24 -71 -31q-53 -10 -76 -34t-23 -66z" />
<glyph unicode="&#xab;" horiz-adv-x="872" d="M106 426v332l306 246v-271l-162 -141l162 -141v-271zM461 426v332l305 246v-271l-162 -141l162 -141v-271z" />
<glyph unicode="&#xac;" horiz-adv-x="1228" d="M96 614v254h1037v-667h-254v413h-783z" />
<glyph unicode="&#xad;" horiz-adv-x="757" d="M90 471v242h578v-242h-578z" />
<glyph unicode="&#xae;" horiz-adv-x="1638" d="M59 731q0 155 60 295.5t162 242.5t242.5 162t295.5 60t295.5 -60t242.5 -162t162 -242.5t60 -295.5t-60 -295.5t-162 -242.5t-242.5 -162t-295.5 -60t-295.5 60t-242.5 162t-162 242.5t-60 295.5zM289 731q0 -147 68 -271.5t190.5 -198t271.5 -73.5t271.5 73.5t191 198 t68.5 271.5t-68.5 271.5t-191 198t-271.5 73.5t-271.5 -73.5t-190.5 -198t-68 -271.5zM522 322v819h320q158 0 236.5 -65.5t78.5 -188.5q0 -97 -57 -157t-146 -71l203 -337h-196l-193 329h-66v-329h-180zM702 795h138q68 0 102.5 20.5t34.5 81.5q0 32 -14 53.5t-39.5 30.5 t-48.5 12.5t-54 3.5h-119v-202z" />
<glyph unicode="&#xaf;" horiz-adv-x="454" d="M-74 1307v155h602v-155h-602z" />
<glyph unicode="&#xb0;" horiz-adv-x="819" d="M106 1147q0 126 89 214.5t215 88.5t214.5 -88.5t88.5 -214.5t-88.5 -214.5t-214.5 -88.5t-215 88.5t-89 214.5zM262 1147q0 -61 43 -104.5t105 -43.5q61 0 104 43t43 105q0 61 -42.5 104t-104.5 43t-105 -43t-43 -104z" />
<glyph unicode="&#xb1;" horiz-adv-x="1228" d="M96 0v254h1037v-254h-1037zM96 561v254h391v221h254v-221h392v-254h-392v-221h-254v221h-391z" />
<glyph unicode="&#xb2;" horiz-adv-x="638" d="M0 573q0 120 48 212.5t159 172.5l102 74q57 42 79 79.5t22 86.5q0 41 -24.5 68.5t-63.5 27.5q-100 0 -105 -149h-217v51q0 126 78 190t250 64q157 0 234 -58.5t77 -162.5q0 -88 -29 -147t-106 -119l-117 -91q-94 -71 -108 -131h360v-168h-639z" />
<glyph unicode="&#xb3;" horiz-adv-x="638" d="M0 831v21h217q4 -137 100 -137q47 0 70 30t23 78q0 129 -123 129h-58v144h58q56 0 83 31t27 77q0 39 -23.5 64.5t-60.5 25.5q-94 0 -94 -123h-205q0 140 74 211q71 68 223 68q153 0 228 -54t75 -169q0 -79 -37.5 -130t-105.5 -65v-4q168 -28 168 -205q0 -264 -346 -264 q-149 0 -221 70.5t-72 201.5z" />
<glyph unicode="&#xb4;" horiz-adv-x="454" d="M94 1231l111 295h282l-200 -295h-193z" />
<glyph unicode="&#xb5;" horiz-adv-x="1024" d="M94 -360v1462h283v-760q0 -82 28.5 -118t92.5 -36q149 0 149 183v731h283v-1102h-271v129h-4q-42 -77 -102 -117.5t-115 -40.5q-36 0 -61 17v-348h-283z" />
<glyph unicode="&#xb6;" d="M2 1067q0 114 28.5 193t84.5 122.5t126.5 61.5t166.5 18h548v-1745h-217v1553h-149v-1553h-217v969q-181 0 -276 98t-95 283z" />
<glyph unicode="&#xb7;" horiz-adv-x="491" d="M47 578q0 83 58 140.5t141 57.5t140.5 -57.5t57.5 -140.5t-57.5 -141t-140.5 -58t-141 58t-58 141z" />
<glyph unicode="&#xb8;" horiz-adv-x="454" d="M0 -420l39 94q22 -12 63 -21t78 -9q43 0 73 20t30 49q0 31 -24.5 50.5t-65.5 19.5q-35 0 -70 -12l-45 41l112 188h111l-78 -125q42 10 68 10q65 0 118.5 -41.5t53.5 -109.5q0 -90 -67.5 -141.5t-190.5 -51.5q-63 0 -120 12t-85 27z" />
<glyph unicode="&#xb9;" horiz-adv-x="638" d="M49 1167v144h17q196 0 223 139h176v-877h-229v594h-187z" />
<glyph unicode="&#xba;" horiz-adv-x="643" d="M25 1100q0 179 67 264.5t230 85.5q87 1 145.5 -19.5t91 -67t46 -109t13.5 -154.5q0 -178 -66.5 -263t-229.5 -85q-169 -3 -233 80.5t-64 267.5zM229 1100q0 -54 3 -88.5t12 -66.5t28.5 -47t49.5 -15q50 0 71 50t21 167q0 118 -20.5 168.5t-71.5 50.5q-30 0 -49.5 -15 t-28.5 -48t-12 -67.5t-3 -88.5z" />
<glyph unicode="&#xbb;" horiz-adv-x="872" d="M106 180v271l162 141l-162 141v271l306 -246v-332zM461 180v271l162 141l-162 141v271l305 -246v-332z" />
<glyph unicode="&#xbc;" horiz-adv-x="1476" d="M0 1167v144h16q197 0 224 139h176v-877h-230v594h-186zM197 -63l831 1548h182l-831 -1548h-182zM821 158v186l312 533h253v-551h91v-168h-91v-158h-217v158h-348zM989 326h180v297h-4z" />
<glyph unicode="&#xbd;" horiz-adv-x="1476" d="M0 1167v144h16q197 0 224 139h176v-877h-230v594h-186zM147 -63l832 1548h182l-831 -1548h-183zM838 0q0 121 47.5 213t158.5 172l103 74q57 41 78.5 79t21.5 87q0 41 -24.5 68.5t-63.5 27.5q-99 0 -104 -150h-217v52q0 126 77.5 190t249.5 64q157 0 234.5 -59t77.5 -163 q0 -87 -29.5 -146.5t-106.5 -119.5l-116 -90q-95 -72 -109 -131h361v-168h-639z" />
<glyph unicode="&#xbe;" horiz-adv-x="1476" d="M0 831v21h217q4 -137 100 -137q47 0 70 30t23 78q0 129 -123 129h-58v144h58q56 0 83 31t27 77q0 39 -23.5 64.5t-60.5 25.5q-94 0 -94 -123h-205q0 140 74 211q71 68 223 68q153 0 228 -54t75 -169q0 -79 -37.5 -130t-105.5 -65v-4q168 -28 168 -205q0 -264 -346 -264 q-149 0 -221 70.5t-72 201.5zM276 -63l832 1548h182l-831 -1548h-183zM821 158v186l312 533h253v-551h91v-168h-91v-158h-217v158h-348zM989 326h180v297h-4z" />
<glyph unicode="&#xbf;" horiz-adv-x="985" d="M74 18q0 88 29 164t100 156l82 92q56 63 78 112t22 124v30h254v-80q0 -101 -28.5 -171.5t-98.5 -149.5l-78 -88q-78 -86 -78 -217q0 -80 36 -127t104 -47q145 0 145 225v51h270v-47q0 -191 -104 -306.5t-301 -115.5q-211 0 -321.5 105.5t-110.5 289.5zM371 831v271h282 v-271h-282z" />
<glyph unicode="&#xc0;" horiz-adv-x="1138" d="M0 0l387 1462h365l387 -1462h-308l-67 309h-389l-68 -309h-307zM309 1843h283l110 -295h-192zM426 551h287l-142 657h-4z" />
<glyph unicode="&#xc1;" horiz-adv-x="1138" d="M0 0l387 1462h365l387 -1462h-308l-67 309h-389l-68 -309h-307zM426 551h287l-142 657h-4zM436 1548l111 295h282l-200 -295h-193z" />
<glyph unicode="&#xc2;" horiz-adv-x="1138" d="M0 0l387 1462h365l387 -1462h-308l-67 309h-389l-68 -309h-307zM262 1548l160 295h295l160 -295h-218l-94 174l-98 -174h-205zM426 551h287l-142 657h-4z" />
<glyph unicode="&#xc3;" horiz-adv-x="1138" d="M0 0l387 1462h365l387 -1462h-308l-67 309h-389l-68 -309h-307zM248 1567q37 254 190 254q50 0 88 -15l99 -43q30 -12 61 -12q26 0 41.5 24.5t15.5 49.5h148q-11 -111 -63 -182.5t-128 -71.5q-47 0 -130 34.5t-113 34.5q-52 0 -66 -73h-143zM426 551h287l-142 657h-4z " />
<glyph unicode="&#xc4;" horiz-adv-x="1138" d="M0 0l387 1462h365l387 -1462h-308l-67 309h-389l-68 -309h-307zM279 1567v241h229v-241h-229zM426 551h287l-142 657h-4zM631 1567v241h229v-241h-229z" />
<glyph unicode="&#xc5;" horiz-adv-x="1138" d="M0 0l387 1462h365l387 -1462h-308l-67 309h-389l-68 -309h-307zM336 1735q0 97 68 165t165 68t165.5 -68t68.5 -165t-68.5 -165.5t-165.5 -68.5t-165 68.5t-68 165.5zM426 551h287l-142 657h-4zM451 1735q0 -50 34.5 -84.5t83.5 -34.5t84 35t35 84t-34.5 83.5t-84.5 34.5 q-49 0 -83.5 -34.5t-34.5 -83.5z" />
<glyph unicode="&#xc6;" horiz-adv-x="1554" d="M-10 0l551 1462h948v-241h-481v-344h450v-242h-450v-393h501v-242h-784v309h-326l-102 -309h-307zM479 551h246v682h-18z" />
<glyph unicode="&#xc7;" horiz-adv-x="1099" d="M72 731q0 90 3.5 160.5t12 145t25 130.5t42 110t63 91t87 66t116 43t148.5 14q88 0 158 -18.5t116.5 -47t80.5 -73.5t52.5 -87.5t29 -99.5t13.5 -99.5t3 -96.5h-295q0 163 -39 234t-137 71q-110 0 -147 -121.5t-37 -441.5q0 -164 11 -268t36 -159.5t57.5 -75.5t83.5 -20 q44 0 74.5 14.5t57 52.5t39.5 114t13 190h295q0 -121 -16 -213t-57 -175.5t-120.5 -134t-195.5 -63.5l-61 -98q42 10 67 10q65 0 118.5 -41.5t53.5 -109.5q0 -90 -67.5 -141.5t-190.5 -51.5q-63 0 -120 12t-85 27l39 94q22 -12 63 -21t79 -9q43 0 72.5 20t29.5 49 q0 31 -24.5 50.5t-65.5 19.5q-35 0 -70 -12l-45 41l97 159q-87 4 -155.5 26t-116.5 56.5t-83 89t-55.5 113t-32.5 140t-16 158t-4 177.5z" />
<glyph unicode="&#xc8;" horiz-adv-x="985" d="M102 0v1462h818v-241h-523v-344h492v-242h-492v-393h543v-242h-838zM258 1843h283l110 -295h-192z" />
<glyph unicode="&#xc9;" horiz-adv-x="985" d="M102 0v1462h818v-241h-523v-344h492v-242h-492v-393h543v-242h-838zM385 1548l111 295h282l-200 -295h-193z" />
<glyph unicode="&#xca;" horiz-adv-x="985" d="M102 0v1462h818v-241h-523v-344h492v-242h-492v-393h543v-242h-838zM211 1548l160 295h295l159 -295h-217l-94 174l-98 -174h-205z" />
<glyph unicode="&#xcb;" horiz-adv-x="985" d="M102 0v1462h818v-241h-523v-344h492v-242h-492v-393h543v-242h-838zM227 1567v241h230v-241h-230zM580 1567v241h229v-241h-229z" />
<glyph unicode="&#xcc;" horiz-adv-x="528" d="M4 1843h283l110 -295h-192zM117 0v1462h295v-1462h-295z" />
<glyph unicode="&#xcd;" horiz-adv-x="528" d="M117 0v1462h295v-1462h-295zM131 1548l111 295h282l-200 -295h-193z" />
<glyph unicode="&#xce;" horiz-adv-x="528" d="M-43 1548l160 295h295l159 -295h-217l-94 174l-98 -174h-205zM117 0v1462h295v-1462h-295z" />
<glyph unicode="&#xcf;" horiz-adv-x="528" d="M-27 1567v241h230v-241h-230zM117 0v1462h295v-1462h-295zM326 1567v241h229v-241h-229z" />
<glyph unicode="&#xd0;" horiz-adv-x="1175" d="M0 645v217h117v600h483q87 0 156 -17t119 -48t87 -79.5t60 -105t37 -132.5t19 -153t5 -175q0 -202 -23.5 -337.5t-80.5 -231.5t-154 -139.5t-243 -43.5h-465v645h-117zM412 217h131q62 0 104 17.5t70.5 52.5t43.5 100.5t21 147.5t6 208q0 91 -3 153t-12 123.5t-26 99.5 t-44.5 68.5t-68.5 44t-97 13.5h-125v-383h190v-217h-190v-428z" />
<glyph unicode="&#xd1;" horiz-adv-x="1175" d="M102 0v1462h340l357 -1001h4v1001h270v-1462h-336l-360 1024h-4v-1024h-271zM266 1567q18 122 66 188t125 66q51 0 88 -15l98 -43q30 -12 62 -12q26 0 41.5 24.5t15.5 49.5h147q-11 -111 -62.5 -182.5t-127.5 -71.5q-47 0 -130.5 34.5t-113.5 34.5q-51 0 -65 -73h-144z " />
<glyph unicode="&#xd2;" horiz-adv-x="1138" d="M72 731q0 90 3.5 160.5t12 145t25 130.5t42 110t63 91t87 66t116 43t148.5 14q93 0 166.5 -19.5t125.5 -53t89.5 -88t60 -113.5t35 -142t17 -161.5t4.5 -182.5t-4.5 -182.5t-17 -161.5t-35 -142t-60 -113.5t-89.5 -88t-125.5 -53t-166.5 -19.5q-82 0 -148.5 14t-116 43 t-87 66t-63 91t-42 110t-25 130.5t-12 145t-3.5 160.5zM309 1843h283l110 -295h-192zM367 731q0 -105 3 -177.5t11 -137.5t22 -104.5t36.5 -69t54 -42t75.5 -12.5t75.5 12.5t54.5 42t37 69t22 104.5t11 137.5t3 177.5q0 104 -3 176.5t-11 137.5t-22 105t-37 69.5t-54.5 42 t-75.5 12.5t-75.5 -12.5t-54 -42t-36.5 -69.5t-22 -105t-11 -137.5t-3 -176.5z" />
<glyph unicode="&#xd3;" horiz-adv-x="1138" d="M72 731q0 90 3.5 160.5t12 145t25 130.5t42 110t63 91t87 66t116 43t148.5 14q93 0 166.5 -19.5t125.5 -53t89.5 -88t60 -113.5t35 -142t17 -161.5t4.5 -182.5t-4.5 -182.5t-17 -161.5t-35 -142t-60 -113.5t-89.5 -88t-125.5 -53t-166.5 -19.5q-82 0 -148.5 14t-116 43 t-87 66t-63 91t-42 110t-25 130.5t-12 145t-3.5 160.5zM367 731q0 -105 3 -177.5t11 -137.5t22 -104.5t36.5 -69t54 -42t75.5 -12.5t75.5 12.5t54.5 42t37 69t22 104.5t11 137.5t3 177.5q0 104 -3 176.5t-11 137.5t-22 105t-37 69.5t-54.5 42t-75.5 12.5t-75.5 -12.5 t-54 -42t-36.5 -69.5t-22 -105t-11 -137.5t-3 -176.5zM436 1548l111 295h282l-200 -295h-193z" />
<glyph unicode="&#xd4;" horiz-adv-x="1138" d="M72 731q0 90 3.5 160.5t12 145t25 130.5t42 110t63 91t87 66t116 43t148.5 14q93 0 166.5 -19.5t125.5 -53t89.5 -88t60 -113.5t35 -142t17 -161.5t4.5 -182.5t-4.5 -182.5t-17 -161.5t-35 -142t-60 -113.5t-89.5 -88t-125.5 -53t-166.5 -19.5q-82 0 -148.5 14t-116 43 t-87 66t-63 91t-42 110t-25 130.5t-12 145t-3.5 160.5zM262 1548l160 295h295l160 -295h-218l-94 174l-98 -174h-205zM367 731q0 -105 3 -177.5t11 -137.5t22 -104.5t36.5 -69t54 -42t75.5 -12.5t75.5 12.5t54.5 42t37 69t22 104.5t11 137.5t3 177.5q0 104 -3 176.5 t-11 137.5t-22 105t-37 69.5t-54.5 42t-75.5 12.5t-75.5 -12.5t-54 -42t-36.5 -69.5t-22 -105t-11 -137.5t-3 -176.5z" />
<glyph unicode="&#xd5;" horiz-adv-x="1138" d="M72 731q0 90 3.5 160.5t12 145t25 130.5t42 110t63 91t87 66t116 43t148.5 14q93 0 166.5 -19.5t125.5 -53t89.5 -88t60 -113.5t35 -142t17 -161.5t4.5 -182.5t-4.5 -182.5t-17 -161.5t-35 -142t-60 -113.5t-89.5 -88t-125.5 -53t-166.5 -19.5q-82 0 -148.5 14t-116 43 t-87 66t-63 91t-42 110t-25 130.5t-12 145t-3.5 160.5zM248 1567q37 254 190 254q50 0 88 -15l99 -43q30 -12 61 -12q26 0 41.5 24.5t15.5 49.5h148q-11 -111 -63 -182.5t-128 -71.5q-47 0 -130 34.5t-113 34.5q-52 0 -66 -73h-143zM367 731q0 -105 3 -177.5t11 -137.5 t22 -104.5t36.5 -69t54 -42t75.5 -12.5t75.5 12.5t54.5 42t37 69t22 104.5t11 137.5t3 177.5q0 104 -3 176.5t-11 137.5t-22 105t-37 69.5t-54.5 42t-75.5 12.5t-75.5 -12.5t-54 -42t-36.5 -69.5t-22 -105t-11 -137.5t-3 -176.5z" />
<glyph unicode="&#xd6;" horiz-adv-x="1138" d="M72 731q0 90 3.5 160.5t12 145t25 130.5t42 110t63 91t87 66t116 43t148.5 14q93 0 166.5 -19.5t125.5 -53t89.5 -88t60 -113.5t35 -142t17 -161.5t4.5 -182.5t-4.5 -182.5t-17 -161.5t-35 -142t-60 -113.5t-89.5 -88t-125.5 -53t-166.5 -19.5q-82 0 -148.5 14t-116 43 t-87 66t-63 91t-42 110t-25 130.5t-12 145t-3.5 160.5zM279 1567v241h229v-241h-229zM367 731q0 -105 3 -177.5t11 -137.5t22 -104.5t36.5 -69t54 -42t75.5 -12.5t75.5 12.5t54.5 42t37 69t22 104.5t11 137.5t3 177.5q0 104 -3 176.5t-11 137.5t-22 105t-37 69.5t-54.5 42 t-75.5 12.5t-75.5 -12.5t-54 -42t-36.5 -69.5t-22 -105t-11 -137.5t-3 -176.5zM631 1567v241h229v-241h-229z" />
<glyph unicode="&#xd7;" horiz-adv-x="1228" d="M121 201l319 317l-319 318l176 176l317 -320l318 320l176 -176l-320 -318l320 -317l-176 -176l-318 319l-317 -319z" />
<glyph unicode="&#xd8;" horiz-adv-x="1138" d="M72 731q0 90 3.5 160.5t12 145t25 130.5t42 110t63 91t87 66t116 43t148.5 14q150 0 248 -49l53 125l99 -43l-62 -144q95 -88 127.5 -245t32.5 -404q0 -104 -4.5 -182.5t-17 -161.5t-35 -142t-60 -113.5t-89.5 -88t-125.5 -53t-166.5 -19.5q-153 0 -247 49l-54 -124 l-98 43l61 143q-95 88 -127 244.5t-32 404.5zM367 731q0 -212 12 -303h4l330 772q-45 74 -144 74q-44 0 -75.5 -12.5t-54 -42t-36.5 -69.5t-22 -105t-11 -137.5t-3 -176.5zM426 264q42 -76 143 -76q44 0 75.5 12.5t54.5 42t37 69t22 104.5t11 137.5t3 177.5q0 209 -12 303 h-4z" />
<glyph unicode="&#xd9;" horiz-adv-x="1101" d="M84 442v1020h295v-1020q0 -58 8 -101.5t26.5 -79.5t53 -54.5t84.5 -18.5t84.5 18.5t53 54.5t26.5 79.5t8 101.5v1020h295v-1020q0 -108 -26 -191.5t-69 -135.5t-104.5 -85t-126.5 -46t-141 -13q-78 0 -141.5 11t-126 42.5t-105 82.5t-68.5 136t-26 199zM291 1843h282 l111 -295h-192z" />
<glyph unicode="&#xda;" horiz-adv-x="1101" d="M84 442v1020h295v-1020q0 -58 8 -101.5t26.5 -79.5t53 -54.5t84.5 -18.5t84.5 18.5t53 54.5t26.5 79.5t8 101.5v1020h295v-1020q0 -108 -26 -191.5t-69 -135.5t-104.5 -85t-126.5 -46t-141 -13q-78 0 -141.5 11t-126 42.5t-105 82.5t-68.5 136t-26 199zM418 1548l110 295 h283l-201 -295h-192z" />
<glyph unicode="&#xdb;" horiz-adv-x="1101" d="M84 442v1020h295v-1020q0 -58 8 -101.5t26.5 -79.5t53 -54.5t84.5 -18.5t84.5 18.5t53 54.5t26.5 79.5t8 101.5v1020h295v-1020q0 -108 -26 -191.5t-69 -135.5t-104.5 -85t-126.5 -46t-141 -13q-78 0 -141.5 11t-126 42.5t-105 82.5t-68.5 136t-26 199zM244 1548l159 295 h295l160 -295h-217l-94 174l-98 -174h-205z" />
<glyph unicode="&#xdc;" horiz-adv-x="1101" d="M84 442v1020h295v-1020q0 -58 8 -101.5t26.5 -79.5t53 -54.5t84.5 -18.5t84.5 18.5t53 54.5t26.5 79.5t8 101.5v1020h295v-1020q0 -108 -26 -191.5t-69 -135.5t-104.5 -85t-126.5 -46t-141 -13q-78 0 -141.5 11t-126 42.5t-105 82.5t-68.5 136t-26 199zM260 1567v241h229 v-241h-229zM612 1567v241h230v-241h-230z" />
<glyph unicode="&#xdd;" horiz-adv-x="1064" d="M6 1462h332l192 -565h5l204 565h320l-379 -887v-575h-295v575zM399 1548l111 295h283l-201 -295h-193z" />
<glyph unicode="&#xde;" horiz-adv-x="1062" d="M102 0v1462h295v-262h221q87 0 156.5 -24.5t114.5 -66t75 -99t43 -119t13 -129.5q0 -220 -124 -330t-341 -110h-158v-322h-295zM397 539h131q91 0 144 55t53 164q0 111 -49 168t-156 57h-123v-444z" />
<glyph unicode="&#xdf;" horiz-adv-x="1024" d="M84 0v1079q0 213 106 312.5t328 99.5q194 0 299 -90t105 -260q0 -119 -39.5 -188t-143.5 -113v-4q228 -38 228 -394q0 -67 -8 -125t-32.5 -121t-63.5 -107t-106.5 -72.5t-156.5 -28.5q-94 0 -135 8v192q24 -8 43 -8q55 0 90.5 20t54 61.5t25 92t6.5 125.5 q0 120 -37.5 184t-126.5 64h-51v193h35q135 0 135 194q0 81 -31.5 132.5t-103.5 51.5q-79 0 -108 -57.5t-29 -167.5v-1073h-283z" />
<glyph unicode="&#xe0;" horiz-adv-x="985" d="M57 287q0 151 64.5 227t214.5 117l160 43q63 17 87.5 45.5t24.5 83.5q0 135 -131 135q-63 0 -97 -38.5t-34 -104.5v-31h-254v27q0 92 30 159.5t84.5 105.5t122 56t150.5 18q99 0 170.5 -16.5t115.5 -44.5t70 -72t35 -92t9 -112v-580q0 -80 6.5 -123.5t27.5 -89.5h-270 q-17 34 -35 115h-4q-48 -83 -111 -113.5t-169 -30.5q-57 0 -103 19t-76 50t-50.5 72.5t-29 85t-8.5 89.5zM233 1526h283l111 -295h-193zM328 317q0 -68 26 -110.5t80 -42.5q66 0 120 43.5t54 126.5v217q-53 -39 -121 -55q-85 -18 -122 -61t-37 -118z" />
<glyph unicode="&#xe1;" horiz-adv-x="985" d="M57 287q0 151 64.5 227t214.5 117l160 43q63 17 87.5 45.5t24.5 83.5q0 135 -131 135q-63 0 -97 -38.5t-34 -104.5v-31h-254v27q0 92 30 159.5t84.5 105.5t122 56t150.5 18q99 0 170.5 -16.5t115.5 -44.5t70 -72t35 -92t9 -112v-580q0 -80 6.5 -123.5t27.5 -89.5h-270 q-17 34 -35 115h-4q-48 -83 -111 -113.5t-169 -30.5q-57 0 -103 19t-76 50t-50.5 72.5t-29 85t-8.5 89.5zM328 317q0 -68 26 -110.5t80 -42.5q66 0 120 43.5t54 126.5v217q-53 -39 -121 -55q-85 -18 -122 -61t-37 -118zM360 1231l111 295h283l-201 -295h-193z" />
<glyph unicode="&#xe2;" horiz-adv-x="985" d="M57 287q0 151 64.5 227t214.5 117l160 43q63 17 87.5 45.5t24.5 83.5q0 135 -131 135q-63 0 -97 -38.5t-34 -104.5v-31h-254v27q0 92 30 159.5t84.5 105.5t122 56t150.5 18q99 0 170.5 -16.5t115.5 -44.5t70 -72t35 -92t9 -112v-580q0 -80 6.5 -123.5t27.5 -89.5h-270 q-17 34 -35 115h-4q-48 -83 -111 -113.5t-169 -30.5q-57 0 -103 19t-76 50t-50.5 72.5t-29 85t-8.5 89.5zM186 1231l160 295h295l160 -295h-217l-95 174l-98 -174h-205zM328 317q0 -68 26 -110.5t80 -42.5q66 0 120 43.5t54 126.5v217q-53 -39 -121 -55q-85 -18 -122 -61 t-37 -118z" />
<glyph unicode="&#xe3;" horiz-adv-x="985" d="M57 287q0 151 64.5 227t214.5 117l160 43q63 17 87.5 45.5t24.5 83.5q0 135 -131 135q-63 0 -97 -38.5t-34 -104.5v-31h-254v27q0 92 30 159.5t84.5 105.5t122 56t150.5 18q99 0 170.5 -16.5t115.5 -44.5t70 -72t35 -92t9 -112v-580q0 -80 6.5 -123.5t27.5 -89.5h-270 q-17 34 -35 115h-4q-48 -83 -111 -113.5t-169 -30.5q-57 0 -103 19t-76 50t-50.5 72.5t-29 85t-8.5 89.5zM172 1249q37 254 190 254q54 0 89 -14l98 -43q30 -12 61 -12q27 0 42.5 24.5t15.5 48.5h147q-11 -111 -62.5 -182.5t-127.5 -71.5q-47 0 -130.5 35t-113.5 35 q-51 0 -66 -74h-143zM328 317q0 -68 26 -110.5t80 -42.5q66 0 120 43.5t54 126.5v217q-53 -39 -121 -55q-85 -18 -122 -61t-37 -118z" />
<glyph unicode="&#xe4;" horiz-adv-x="985" d="M57 287q0 151 64.5 227t214.5 117l160 43q63 17 87.5 45.5t24.5 83.5q0 135 -131 135q-63 0 -97 -38.5t-34 -104.5v-31h-254v27q0 92 30 159.5t84.5 105.5t122 56t150.5 18q99 0 170.5 -16.5t115.5 -44.5t70 -72t35 -92t9 -112v-580q0 -80 6.5 -123.5t27.5 -89.5h-270 q-17 34 -35 115h-4q-48 -83 -111 -113.5t-169 -30.5q-57 0 -103 19t-76 50t-50.5 72.5t-29 85t-8.5 89.5zM203 1249v242h229v-242h-229zM328 317q0 -68 26 -110.5t80 -42.5q66 0 120 43.5t54 126.5v217q-53 -39 -121 -55q-85 -18 -122 -61t-37 -118zM555 1249v242h229v-242 h-229z" />
<glyph unicode="&#xe5;" horiz-adv-x="985" d="M57 287q0 151 64.5 227t214.5 117l160 43q63 17 87.5 45.5t24.5 83.5q0 135 -131 135q-63 0 -97 -38.5t-34 -104.5v-31h-254v27q0 92 30 159.5t84.5 105.5t122 56t150.5 18q99 0 170.5 -16.5t115.5 -44.5t70 -72t35 -92t9 -112v-580q0 -80 6.5 -123.5t27.5 -89.5h-270 q-17 34 -35 115h-4q-48 -83 -111 -113.5t-169 -30.5q-57 0 -103 19t-76 50t-50.5 72.5t-29 85t-8.5 89.5zM260 1430q0 97 68.5 165t165.5 68t165 -68t68 -165t-68 -165.5t-165 -68.5t-165.5 68.5t-68.5 165.5zM328 317q0 -68 26 -110.5t80 -42.5q66 0 120 43.5t54 126.5v217 q-53 -39 -121 -55q-85 -18 -122 -61t-37 -118zM375 1430q0 -50 34.5 -84.5t84.5 -34.5q49 0 83.5 34.5t34.5 84.5t-34 84t-84 34t-84.5 -34.5t-34.5 -83.5z" />
<glyph unicode="&#xe6;" horiz-adv-x="1478" d="M55 287q0 151 64.5 227t214.5 117l160 43q63 17 87.5 45.5t24.5 83.5q0 135 -131 135q-63 0 -97 -38.5t-34 -104.5v-31h-254v27q0 92 30 159.5t84.5 105.5t122 56t150.5 18q111 0 176.5 -29t108.5 -102q30 62 100 96.5t160 34.5q97 0 168 -26.5t115 -72.5t71 -118 t37 -153t10 -189v-63h-555v-88q0 -51 7.5 -95t23 -81t43 -58.5t64.5 -21.5q67 0 101 51t46 156h254q-16 -400 -397 -400q-254 0 -332 191q-63 -117 -139.5 -154t-216.5 -37q-57 0 -103 19t-76 50t-50.5 72.5t-29 85t-8.5 89.5zM326 317q0 -68 26 -110.5t80 -42.5 q66 0 120 43.5t54 126.5v217q-53 -39 -121 -55q-85 -18 -122 -61t-37 -118zM868 676h285q-2 69 -8.5 112.5t-21 80t-42 53t-69.5 16.5q-40 0 -69 -19.5t-45 -52.5t-23 -69.5t-7 -77.5v-43z" />
<glyph unicode="&#xe7;" horiz-adv-x="948" d="M53 551q0 133 22 234t60 166t95.5 105.5t122.5 57t147 16.5q192 0 293.5 -113t101.5 -312h-270q0 221 -127 221q-51 0 -83.5 -22t-49.5 -72.5t-23 -115t-6 -167.5q0 -215 30 -300t121 -85q71 0 104.5 62.5t33.5 195.5h270q0 -200 -81 -313t-255 -134l-63 -100 q42 10 67 10q65 0 118.5 -41.5t53.5 -109.5q0 -90 -67.5 -141.5t-190.5 -51.5q-63 0 -120 12t-85 27l39 94q22 -12 63 -21t79 -9q43 0 72.5 20t29.5 49q0 31 -24.5 50.5t-65.5 19.5q-35 0 -70 -12l-45 41l96 159q-136 5 -220 60t-128.5 182t-44.5 338z" />
<glyph unicode="&#xe8;" horiz-adv-x="948" d="M53 561q0 98 8.5 173.5t36.5 153t74.5 128t127.5 82.5t192 32q97 0 168.5 -26.5t116 -72.5t71.5 -118t37 -153t10 -189v-63h-559v-88q0 -109 33.5 -182.5t105.5 -73.5q68 0 103 51t47 156h254q-16 -400 -400 -400q-67 0 -122.5 12t-96.5 30.5t-73.5 50t-54 62.5t-37 76.5 t-23.5 83t-12.5 91t-5.5 91.5t-1 93zM215 1526h283l110 -295h-192zM336 676h289q-5 139 -33.5 200.5t-110.5 61.5q-40 0 -70 -19.5t-45.5 -52.5t-22.5 -69.5t-7 -77.5v-43z" />
<glyph unicode="&#xe9;" horiz-adv-x="948" d="M53 561q0 98 8.5 173.5t36.5 153t74.5 128t127.5 82.5t192 32q97 0 168.5 -26.5t116 -72.5t71.5 -118t37 -153t10 -189v-63h-559v-88q0 -109 33.5 -182.5t105.5 -73.5q68 0 103 51t47 156h254q-16 -400 -400 -400q-67 0 -122.5 12t-96.5 30.5t-73.5 50t-54 62.5t-37 76.5 t-23.5 83t-12.5 91t-5.5 91.5t-1 93zM336 676h289q-5 139 -33.5 200.5t-110.5 61.5q-40 0 -70 -19.5t-45.5 -52.5t-22.5 -69.5t-7 -77.5v-43zM342 1231l111 295h282l-200 -295h-193z" />
<glyph unicode="&#xea;" horiz-adv-x="948" d="M53 561q0 98 8.5 173.5t36.5 153t74.5 128t127.5 82.5t192 32q97 0 168.5 -26.5t116 -72.5t71.5 -118t37 -153t10 -189v-63h-559v-88q0 -109 33.5 -182.5t105.5 -73.5q68 0 103 51t47 156h254q-16 -400 -400 -400q-67 0 -122.5 12t-96.5 30.5t-73.5 50t-54 62.5t-37 76.5 t-23.5 83t-12.5 91t-5.5 91.5t-1 93zM168 1231l160 295h295l159 -295h-217l-94 174l-98 -174h-205zM336 676h289q-5 139 -33.5 200.5t-110.5 61.5q-40 0 -70 -19.5t-45.5 -52.5t-22.5 -69.5t-7 -77.5v-43z" />
<glyph unicode="&#xeb;" horiz-adv-x="948" d="M53 561q0 98 8.5 173.5t36.5 153t74.5 128t127.5 82.5t192 32q97 0 168.5 -26.5t116 -72.5t71.5 -118t37 -153t10 -189v-63h-559v-88q0 -109 33.5 -182.5t105.5 -73.5q68 0 103 51t47 156h254q-16 -400 -400 -400q-67 0 -122.5 12t-96.5 30.5t-73.5 50t-54 62.5t-37 76.5 t-23.5 83t-12.5 91t-5.5 91.5t-1 93zM184 1249v242h230v-242h-230zM336 676h289q-5 139 -33.5 200.5t-110.5 61.5q-40 0 -70 -19.5t-45.5 -52.5t-22.5 -69.5t-7 -77.5v-43zM537 1249v242h229v-242h-229z" />
<glyph unicode="&#xec;" horiz-adv-x="491" d="M-14 1526h282l111 -295h-193zM104 0v1102h283v-1102h-283z" />
<glyph unicode="&#xed;" horiz-adv-x="491" d="M104 0v1102h283v-1102h-283zM113 1231l110 295h283l-201 -295h-192z" />
<glyph unicode="&#xee;" horiz-adv-x="491" d="M-61 1231l159 295h295l160 -295h-217l-94 174l-99 -174h-204zM104 0v1102h283v-1102h-283z" />
<glyph unicode="&#xef;" horiz-adv-x="491" d="M-45 1249v242h229v-242h-229zM104 0v1102h283v-1102h-283zM307 1249v242h230v-242h-230z" />
<glyph unicode="&#xf0;" d="M57 551q0 254 88 396.5t269 142.5q77 0 143 -54l4 4q-65 105 -188 246l-158 -92l-80 86l156 92q-49 49 -135 131l213 125q65 -57 137 -129l153 92l89 -86l-158 -92q170 -187 253 -389t83 -473q0 -294 -99.5 -437t-334.5 -143q-126 -2 -211 33.5t-134 112t-69.5 180.5 t-20.5 254zM340 537q0 -74 2.5 -123t11 -101t24.5 -81.5t44.5 -48.5t69.5 -19q85 0 118 85.5t33 287.5q0 193 -33.5 276.5t-117.5 83.5q-34 0 -59.5 -12t-42 -36.5t-26.5 -54t-15.5 -74t-7 -85t-1.5 -98.5z" />
<glyph unicode="&#xf1;" horiz-adv-x="1024" d="M94 0v1102h271v-129h4q85 157 280 157q136 0 208.5 -77t72.5 -236v-817h-283v760q0 82 -28.5 117.5t-92.5 35.5q-149 0 -149 -182v-731h-283zM190 1249q18 122 66 188t125 66q53 0 88 -14l98 -43q30 -12 62 -12q27 0 42 24t15 49h148q-11 -111 -63 -182.5t-128 -71.5 q-47 0 -130.5 35t-113.5 35q-50 0 -65 -74h-144z" />
<glyph unicode="&#xf2;" d="M57 551q0 294 100 436.5t335 142.5q126 2 211 -33t133.5 -111.5t69 -180.5t20.5 -254q0 -294 -99.5 -437t-334.5 -143q-126 -2 -211 33.5t-134 112t-69.5 180.5t-20.5 254zM231 1526h283l111 -295h-193zM340 551q0 -64 1.5 -108t7 -92t15.5 -79t26.5 -57t42 -38.5 t59.5 -12.5q85 0 118 88.5t33 298.5t-33 298.5t-118 88.5q-34 0 -59.5 -12.5t-42 -38.5t-26.5 -57t-15.5 -79t-7 -92t-1.5 -108z" />
<glyph unicode="&#xf3;" d="M57 551q0 294 100 436.5t335 142.5q126 2 211 -33t133.5 -111.5t69 -180.5t20.5 -254q0 -294 -99.5 -437t-334.5 -143q-126 -2 -211 33.5t-134 112t-69.5 180.5t-20.5 254zM340 551q0 -64 1.5 -108t7 -92t15.5 -79t26.5 -57t42 -38.5t59.5 -12.5q85 0 118 88.5t33 298.5 t-33 298.5t-118 88.5q-34 0 -59.5 -12.5t-42 -38.5t-26.5 -57t-15.5 -79t-7 -92t-1.5 -108zM358 1231l111 295h283l-201 -295h-193z" />
<glyph unicode="&#xf4;" d="M57 551q0 294 100 436.5t335 142.5q126 2 211 -33t133.5 -111.5t69 -180.5t20.5 -254q0 -294 -99.5 -437t-334.5 -143q-126 -2 -211 33.5t-134 112t-69.5 180.5t-20.5 254zM184 1231l160 295h295l160 -295h-217l-95 174l-98 -174h-205zM340 551q0 -64 1.5 -108t7 -92 t15.5 -79t26.5 -57t42 -38.5t59.5 -12.5q85 0 118 88.5t33 298.5t-33 298.5t-118 88.5q-34 0 -59.5 -12.5t-42 -38.5t-26.5 -57t-15.5 -79t-7 -92t-1.5 -108z" />
<glyph unicode="&#xf5;" d="M57 551q0 294 100 436.5t335 142.5q126 2 211 -33t133.5 -111.5t69 -180.5t20.5 -254q0 -294 -99.5 -437t-334.5 -143q-126 -2 -211 33.5t-134 112t-69.5 180.5t-20.5 254zM170 1249q37 254 190 254q54 0 89 -14l98 -43q30 -12 61 -12q27 0 42.5 24.5t15.5 48.5h147 q-11 -111 -62.5 -182.5t-127.5 -71.5q-47 0 -130.5 35t-113.5 35q-51 0 -66 -74h-143zM340 551q0 -64 1.5 -108t7 -92t15.5 -79t26.5 -57t42 -38.5t59.5 -12.5q85 0 118 88.5t33 298.5t-33 298.5t-118 88.5q-34 0 -59.5 -12.5t-42 -38.5t-26.5 -57t-15.5 -79t-7 -92 t-1.5 -108z" />
<glyph unicode="&#xf6;" d="M57 551q0 294 100 436.5t335 142.5q126 2 211 -33t133.5 -111.5t69 -180.5t20.5 -254q0 -294 -99.5 -437t-334.5 -143q-126 -2 -211 33.5t-134 112t-69.5 180.5t-20.5 254zM201 1249v242h229v-242h-229zM340 551q0 -64 1.5 -108t7 -92t15.5 -79t26.5 -57t42 -38.5 t59.5 -12.5q85 0 118 88.5t33 298.5t-33 298.5t-118 88.5q-34 0 -59.5 -12.5t-42 -38.5t-26.5 -57t-15.5 -79t-7 -92t-1.5 -108zM553 1249v242h229v-242h-229z" />
<glyph unicode="&#xf7;" horiz-adv-x="1228" d="M96 391v254h1037v-254h-1037zM416 84q0 83 57.5 141t140.5 58t141 -58t58 -141t-58 -141t-141 -58t-140.5 58t-57.5 141zM416 952q0 83 57.5 141t140.5 58t141 -58t58 -141t-58 -140.5t-141 -57.5t-140.5 57.5t-57.5 140.5z" />
<glyph unicode="&#xf8;" d="M57 551q0 294 100 436.5t335 142.5q138 3 223 -43l69 134l90 -47l-75 -144q68 -67 97.5 -185t29.5 -294q0 -294 -99.5 -437t-334.5 -143q-142 -3 -224 43l-69 -133l-90 47l75 144q-68 67 -97.5 185t-29.5 294zM340 551q0 -121 4 -170h4l252 487q-33 70 -108 70 q-34 0 -59.5 -12.5t-42 -38.5t-26.5 -57t-15.5 -79t-7 -92t-1.5 -108zM381 231q31 -67 111 -67q85 0 118 88.5t33 298.5q0 74 -4 168h-4z" />
<glyph unicode="&#xf9;" horiz-adv-x="1024" d="M94 285v817h283v-760q0 -82 28.5 -118t92.5 -36q149 0 149 183v731h283v-1102h-271v129h-4q-86 -158 -280 -158q-135 0 -208 77.5t-73 236.5zM252 1526h283l110 -295h-192z" />
<glyph unicode="&#xfa;" horiz-adv-x="1024" d="M94 285v817h283v-760q0 -82 28.5 -118t92.5 -36q149 0 149 183v731h283v-1102h-271v129h-4q-86 -158 -280 -158q-135 0 -208 77.5t-73 236.5zM379 1231l110 295h283l-201 -295h-192z" />
<glyph unicode="&#xfb;" horiz-adv-x="1024" d="M94 285v817h283v-760q0 -82 28.5 -118t92.5 -36q149 0 149 183v731h283v-1102h-271v129h-4q-86 -158 -280 -158q-135 0 -208 77.5t-73 236.5zM205 1231l160 295h294l160 -295h-217l-94 174l-98 -174h-205z" />
<glyph unicode="&#xfc;" horiz-adv-x="1024" d="M94 285v817h283v-760q0 -82 28.5 -118t92.5 -36q149 0 149 183v731h283v-1102h-271v129h-4q-86 -158 -280 -158q-135 0 -208 77.5t-73 236.5zM221 1249v242h230v-242h-230zM573 1249v242h230v-242h-230z" />
<glyph unicode="&#xfd;" horiz-adv-x="909" d="M10 1102h295l164 -762h4l143 762h283l-266 -1028q-26 -100 -47 -165t-48.5 -116.5t-54.5 -79t-69.5 -45t-88.5 -23t-116 -5.5h-115v210q37 -6 74 -6q75 0 110 39.5t41 116.5zM322 1231l110 295h283l-201 -295h-192z" />
<glyph unicode="&#xfe;" horiz-adv-x="1024" d="M94 -360v1822h283v-477h4q70 145 237 145q175 0 256.5 -137t81.5 -442t-81.5 -442.5t-256.5 -137.5q-78 0 -135 32t-102 99h-4v-462h-283zM377 551q0 -97 6 -159.5t21.5 -111t45.5 -70.5t76 -22q45 0 74.5 22t45.5 70.5t22 111.5t6 159t-6 159t-22 111t-45 70t-75 22 q-37 0 -63.5 -15t-43 -42.5t-26 -74t-13 -100t-3.5 -130.5z" />
<glyph unicode="&#xff;" horiz-adv-x="909" d="M10 1102h295l164 -762h4l143 762h283l-266 -1028q-26 -100 -47 -165t-48.5 -116.5t-54.5 -79t-69.5 -45t-88.5 -23t-116 -5.5h-115v210q37 -6 74 -6q75 0 110 39.5t41 116.5zM164 1249v242h229v-242h-229zM516 1249v242h229v-242h-229z" />
<glyph unicode="&#x152;" horiz-adv-x="1593" d="M72 748q0 88 4.5 161t16.5 151.5t32 139.5t54 117.5t79.5 93t110.5 58.5t145 22q202 0 266 -107h4v78h748v-241h-496v-344h465v-242h-465v-393h512v-242h-764v84h-4q-23 -51 -98 -82t-154 -31q-70 0 -128.5 14.5t-102 38.5t-78 63t-58 79.5t-40.5 98t-26 108.5 t-14.5 120.5t-7 125t-1.5 129.5zM367 731q0 -105 2.5 -176t10 -137t21.5 -105.5t36.5 -69.5t54.5 -42.5t77 -12.5q33 0 58 5.5t44.5 22t32.5 35t22.5 55t15 72t8 95.5t3.5 115.5t1 142.5t-1 142.5t-3.5 115.5t-8 95.5t-15 72t-22.5 55t-32.5 35t-44.5 22t-58 5.5 q-45 0 -77 -12.5t-54.5 -42.5t-36.5 -69.5t-21.5 -105.5t-10 -137t-2.5 -176z" />
<glyph unicode="&#x153;" horiz-adv-x="1517" d="M59 551q0 294 100 436.5t335 142.5q112 0 181 -37t111 -116q40 73 112.5 113t156.5 40q97 0 168.5 -26.5t116 -72.5t71.5 -118t37 -153t10 -189v-63h-559v-88q0 -109 33.5 -182.5t105.5 -73.5q68 0 103 51t47 156h254q-8 -195 -103 -297.5t-280 -102.5q-119 0 -190 46 t-97 116q-29 -76 -112 -119t-191 -43q-117 0 -197 36t-126.5 111.5t-66.5 179.5t-20 253zM342 551q0 -64 1.5 -107.5t7 -92t16 -79t27.5 -57t43 -39t61 -12.5q82 0 114.5 89t32.5 298q0 210 -33 298.5t-118 88.5q-34 0 -59.5 -12.5t-42 -38.5t-26.5 -57t-15.5 -79t-7 -92 t-1.5 -108zM899 676h289q-5 139 -33.5 200.5t-110.5 61.5q-40 0 -70 -19.5t-45.5 -52.5t-22.5 -69.5t-7 -77.5v-43z" />
<glyph unicode="&#x178;" horiz-adv-x="1064" d="M6 1462h332l192 -565h5l204 565h320l-379 -887v-575h-295v575zM242 1567v241h229v-241h-229zM594 1567v241h229v-241h-229z" />
<glyph unicode="&#x2c6;" horiz-adv-x="454" d="M-80 1231l160 295h295l160 -295h-218l-94 174l-98 -174h-205z" />
<glyph unicode="&#x2dc;" horiz-adv-x="454" d="M-94 1249q37 254 190 254q53 0 88 -14l99 -43q30 -12 61 -12q27 0 42 24t15 49h148q-11 -111 -63 -182.5t-128 -71.5q-47 0 -130 35t-113 35q-51 0 -66 -74h-143z" />
<glyph unicode="&#x2000;" horiz-adv-x="984" />
<glyph unicode="&#x2001;" horiz-adv-x="1968" />
<glyph unicode="&#x2002;" horiz-adv-x="984" />
<glyph unicode="&#x2003;" horiz-adv-x="1968" />
<glyph unicode="&#x2004;" horiz-adv-x="656" />
<glyph unicode="&#x2005;" horiz-adv-x="492" />
<glyph unicode="&#x2006;" horiz-adv-x="328" />
<glyph unicode="&#x2007;" horiz-adv-x="328" />
<glyph unicode="&#x2008;" horiz-adv-x="246" />
<glyph unicode="&#x2009;" horiz-adv-x="393" />
<glyph unicode="&#x200a;" horiz-adv-x="109" />
<glyph unicode="&#x2010;" horiz-adv-x="757" d="M90 471v242h578v-242h-578z" />
<glyph unicode="&#x2011;" horiz-adv-x="757" d="M90 471v242h578v-242h-578z" />
<glyph unicode="&#x2012;" horiz-adv-x="757" d="M90 471v242h578v-242h-578z" />
<glyph unicode="&#x2013;" horiz-adv-x="1024" d="M0 477v230h1024v-230h-1024z" />
<glyph unicode="&#x2014;" horiz-adv-x="2048" d="M0 477v230h2048v-230h-2048z" />
<glyph unicode="&#x2018;" horiz-adv-x="532" d="M131 805v266q0 69 7 122.5t25 102.5t48 82.5t78 55.5t112 28v-143q-51 -9 -78.5 -55t-27.5 -107v-33h106v-319h-270z" />
<glyph unicode="&#x2019;" horiz-adv-x="532" d="M131 805v143q51 9 79 55t28 107v33h-107v319h270v-266q0 -69 -7 -122.5t-25 -102.5t-48 -82.5t-78 -55.5t-112 -28z" />
<glyph unicode="&#x201a;" horiz-adv-x="532" d="M131 0v319h270v-266q0 -69 -7 -122.5t-25 -102.5t-48 -82.5t-78 -55.5t-112 -28v143q51 9 79 55t28 107v33h-107z" />
<glyph unicode="&#x201c;" horiz-adv-x="948" d="M139 805v266q0 87 12 151t41 117.5t83.5 84.5t134.5 38v-143q-51 -9 -79 -55t-28 -107v-33h107v-319h-271zM539 805v266q0 69 7 122.5t25 102.5t48 82.5t78 55.5t112 28v-143q-51 -9 -79 -55t-28 -107v-33h107v-319h-270z" />
<glyph unicode="&#x201d;" horiz-adv-x="948" d="M139 805v143q51 9 79 55t28 107v33h-107v319h271v-266q0 -87 -12 -151t-41 -117.5t-83.5 -84.5t-134.5 -38zM539 805v143q51 9 78.5 55t27.5 107v33h-106v319h270v-266q0 -69 -7 -122.5t-25 -102.5t-48 -82.5t-78 -55.5t-112 -28z" />
<glyph unicode="&#x201e;" horiz-adv-x="948" d="M139 0v319h271v-266q0 -87 -12 -151t-41 -117.5t-83.5 -84.5t-134.5 -38v143q51 9 79 55t28 107v33h-107zM539 0v319h270v-266q0 -69 -7 -122.5t-25 -102.5t-48 -82.5t-78 -55.5t-112 -28v143q51 9 78.5 55t27.5 107v33h-106z" />
<glyph unicode="&#x2022;" horiz-adv-x="1024" d="M147 731q0 151 107 258t258 107t258 -107t107 -258t-107 -257.5t-258 -106.5t-258 106.5t-107 257.5z" />
<glyph unicode="&#x2026;" horiz-adv-x="2048" d="M207 0v319h270v-319h-270zM889 0v319h270v-319h-270zM1571 0v319h270v-319h-270z" />
<glyph unicode="&#x202f;" horiz-adv-x="393" />
<glyph unicode="&#x2039;" horiz-adv-x="493" d="M94 426v332l305 246v-271l-161 -141l161 -141v-271z" />
<glyph unicode="&#x203a;" horiz-adv-x="493" d="M94 180v271l162 141l-162 141v271l305 -246v-332z" />
<glyph unicode="&#x205f;" horiz-adv-x="492" />
<glyph unicode="&#x20ac;" d="M53 528l60 160h77l3 105h-140l62 159h84q43 504 467 504q183 0 315 -102l-94 -205q-98 104 -203 104q-117 0 -160 -100q-26 -65 -35 -201h345l-60 -159h-291v-105h271l-60 -160h-207q6 -157 27 -221q40 -125 156 -125q106 0 264 137v-256q-157 -92 -309 -92 q-415 0 -430 557h-142z" />
<glyph unicode="&#x2122;" horiz-adv-x="2027" d="M63 1270v192h689v-192h-230v-656h-229v656h-230zM905 614v848h346l170 -512h4l170 512h347v-848h-218v582h-4l-194 -582h-205l-195 582h-4v-582h-217z" />
<glyph unicode="&#xe000;" horiz-adv-x="1105" d="M0 0v1106h1106v-1106h-1106z" />
</font>
</defs>
</svg>
