<?xml version="1.0" standalone="no"?>
<!DOCTYPE svg PUBLIC "-//W3C//DTD SVG 1.1//EN" "http://www.w3.org/Graphics/SVG/1.1/DTD/svg11.dtd" >
<svg xmlns="http://www.w3.org/2000/svg">
<metadata></metadata>
<defs>
<font id="oswaldlight" horiz-adv-x="892" >
<font-face units-per-em="2048" ascent="1638" descent="-410" />
<missing-glyph horiz-adv-x="406" />
<glyph horiz-adv-x="0" />
<glyph horiz-adv-x="682" />
<glyph unicode=" "  horiz-adv-x="406" />
<glyph unicode="&#x09;" horiz-adv-x="406" />
<glyph unicode="&#xa0;" horiz-adv-x="406" />
<glyph unicode="!" horiz-adv-x="434" d="M117 1719h194l-60 -1331h-54zM138 0v179h185v-179h-185z" />
<glyph unicode="&#x22;" horiz-adv-x="694" d="M102 1715h168q-12 -71 -24.5 -148.5t-26.5 -158.5h-67zM425 1715h168q-12 -71 -24.5 -148.5t-26.5 -158.5h-67z" />
<glyph unicode="#" horiz-adv-x="1020" d="M18 0l185 660h-155v125h190l67 239h-207v115h239l163 582h145l-163 -582h176l163 582h145l-163 -582h154v-115h-187l-67 -239h204v-125h-239l-185 -660h-144l185 660h-177l-185 -660h-144zM382 785h177l67 239h-177z" />
<glyph unicode="$" horiz-adv-x="948" d="M57 1234q0 160 108.5 257.5t280.5 102.5v153h88v-156q147 -18 243.5 -119t117.5 -266l-126 -39q-20 125 -98.5 214t-188.5 89q-278 0 -278 -216q0 -117 141 -234l283 -225q65 -53 107.5 -93t88 -94.5t68 -112t22.5 -118.5q0 -170 -105 -267t-275 -106v-142h-88v144 q-109 12 -191.5 76t-128 156t-63.5 207l134 39q15 -154 92 -254.5t211 -104.5q78 0 136 22t95.5 77t37.5 140q0 153 -235 336l-295 230q-182 148 -182 304z" />
<glyph unicode="%" horiz-adv-x="1257" d="M57 1187v234q0 324 226 324t226 -324v-234q0 -334 -226 -334t-226 334zM174 1190q0 -236 109 -236t109 236v228q0 226 -109 226t-109 -226v-228zM305 0l552 1721h124l-553 -1721h-123zM783 307v234q0 324 226 324t226 -324v-234q0 -334 -226 -334t-226 334zM900 310 q0 -236 109 -236t109 236v228q0 226 -109 226t-109 -226v-228z" />
<glyph unicode="&#x26;" horiz-adv-x="1116" d="M68 298q0 137 74.5 289.5t203.5 256.5q-206 341 -206 526q0 167 96 271t257 104t252 -89.5t91 -235.5q0 -137 -84.5 -294.5t-253.5 -308.5l321 -493q149 198 149 429h128q0 -111 -55.5 -257t-150.5 -268q96 -106 204 -106v-136q-77 5 -156 44.5t-134 103.5 q-170 -160 -370 -160q-183 0 -274.5 90t-91.5 234zM208 313q0 -99 57 -159t177 -60q148 0 293 135l-329 505q-85 -78 -141.5 -197t-56.5 -224zM292 1364q0 -185 150 -437q114 109 182 241.5t68 247.5q0 95 -48 151t-147 56q-56 0 -98 -25.5t-64 -66.5t-32.5 -83t-10.5 -84z " />
<glyph unicode="'" horiz-adv-x="373" d="M102 1715h169q-14 -82 -26.5 -160t-24.5 -147h-67z" />
<glyph unicode="(" horiz-adv-x="535" d="M115 841v5.5v4.5v5.5v4.5v20q0 100 1 157.5t9 166t23 175.5t46.5 153t75.5 135t113.5 84t157.5 35v-132q-55 0 -98 -24t-71.5 -60.5t-49 -99.5t-31 -119.5t-16.5 -143t-7 -149t-1 -156.5v-37q0 -93 0.5 -142t3.5 -136.5t10.5 -137.5t19.5 -119.5t32.5 -109t48.5 -79 t68.5 -57t90.5 -17.5v-132q-69 0 -126.5 21.5t-99 53t-74.5 87t-53.5 104.5t-35 125.5t-22 129t-11 137t-4 127.5t-0.5 120z" />
<glyph unicode=")" horiz-adv-x="545" d="M18 -64v132q50 0 90.5 17.5t68.5 57t48.5 79t32.5 109t19.5 119.5t10.5 137.5t3.5 136.5t0.5 142v12.5v11.5v13q0 94 -1 156.5t-7 149t-16.5 143t-31 119.5t-49 99.5t-71.5 60.5t-98 24v132q88 0 157.5 -35t113.5 -84t75.5 -135t46.5 -153t23 -175.5t9 -166t1 -157.5 v-5.5v-4.5v-5.5v-4.5v-20q0 -77 -0.5 -120t-4 -127.5t-11 -137t-22 -129t-35 -125.5t-53.5 -104.5t-74.5 -87t-99 -53t-126.5 -21.5z" />
<glyph unicode="*" horiz-adv-x="760" d="M55 1311l36 89l252 -119l-18 302h119l-20 -301l254 120l35 -90l-264 -102l174 -250l-89 -49l-150 252l-149 -252l-88 52l173 247z" />
<glyph unicode="+" horiz-adv-x="649" d="M82 576v115h192v192h121v-192h192v-115h-192v-192h-121v192h-192z" />
<glyph unicode="," horiz-adv-x="389" d="M111 0v179h185v-23q0 -54 -0.5 -80.5t-1.5 -73t-5 -70t-10 -58t-16 -52.5t-24 -37.5t-34 -28.5t-45 -12l-27 55q32 12 55 38t33 58t14 57.5t4 47.5h-128z" />
<glyph unicode="-" horiz-adv-x="532" d="M117 448v115h313v-115h-313z" />
<glyph unicode="." horiz-adv-x="397" d="M115 0v179h184v-179h-184z" />
<glyph unicode="/" horiz-adv-x="651" d="M-29 0l552 1721h145l-553 -1721h-144z" />
<glyph unicode="0" horiz-adv-x="1047" d="M117 499v721q0 91 12.5 167t42.5 143.5t76 114t116.5 73.5t161.5 27t161.5 -27t116.5 -73.5t76 -114t42.5 -143.5t12.5 -167v-721q0 -526 -409 -526t-409 526zM269 465q0 -370 257 -370t257 370v789q0 369 -257 369t-257 -369v-789z" />
<glyph unicode="1" horiz-adv-x="532" d="M41 1389v144q60 22 130 70.5t111 117.5h103v-1721h-152v1478q-43 -29 -100 -55t-92 -34z" />
<glyph unicode="2" horiz-adv-x="931" d="M63 0v128l462 697q40 61 65.5 102.5t59 106t50.5 124.5t17 114q0 162 -54.5 256.5t-173.5 94.5q-68 0 -118.5 -23t-79 -59t-45.5 -92t-22.5 -109.5t-5.5 -123.5h-152v23q10 506 421 506q190 0 286 -125.5t96 -346.5q0 -105 -58.5 -236.5t-135.5 -243.5l-433 -671h606 v-122h-785z" />
<glyph unicode="3" horiz-adv-x="932" d="M73 1292v25q0 86 21 160t66 135.5t124.5 97t187.5 35.5q81 0 146 -23.5t108 -63.5t72 -95.5t41.5 -116.5t12.5 -130q0 -166 -66 -271t-169 -135q235 -94 235 -448q0 -489 -398 -489q-82 0 -147.5 23.5t-108.5 63t-71.5 94.5t-40.5 114.5t-12 126.5v26h142 q2 -101 18.5 -166t50.5 -100t76.5 -47.5t106.5 -12.5q58 0 98.5 16t72 55.5t46.5 112t15 180.5q0 85 -12.5 150.5t-41 118.5t-79.5 83.5t-123 36.5v129q144 6 200 81.5t56 258.5q0 167 -57 236.5t-174 69.5q-118 0 -181.5 -78t-71.5 -253h-143z" />
<glyph unicode="4" horiz-adv-x="848" d="M27 509v105l397 1109h233v-1101h171v-113h-171v-509h-152v509h-478zM186 622h319l-1 974z" />
<glyph unicode="5" horiz-adv-x="948" d="M123 430l152 11q0 -106 13.5 -174.5t43.5 -106t69.5 -51.5t99.5 -14q122 0 179 100.5t57 339.5q0 229 -53.5 324t-173.5 95q-65 0 -132.5 -35t-113.5 -105h-122v907h659l-14 -122h-493l-21 -633q47 50 118.5 80t148.5 30q94 0 163 -41.5t109 -117.5t58.5 -170.5 t18.5 -210.5q0 -121 -22 -220.5t-66.5 -177.5t-121 -121.5t-178.5 -43.5q-198 0 -288 116t-90 341z" />
<glyph unicode="6" horiz-adv-x="979" d="M114 490v766q0 489 388 489q99 0 173 -35t115.5 -96.5t61.5 -134t20 -156.5v-26h-142q-2 101 -18 166t-48.5 100t-73 47.5t-102.5 12.5q-56 0 -94.5 -16t-68.5 -55.5t-44.5 -112t-14.5 -180.5v-325q95 45 246 45q105 0 183 -37.5t124 -106.5t68.5 -157t22.5 -196 q0 -111 -23 -201.5t-70.5 -160.5t-127.5 -108.5t-187 -38.5q-203 0 -295.5 132t-92.5 385zM266 501q0 -99 9.5 -170t27.5 -117t48 -72t65.5 -36.5t85.5 -10.5q134 0 195 86t61 300q0 208 -59 292t-187 84q-70 0 -142.5 -12.5t-103.5 -33.5v-310z" />
<glyph unicode="7" horiz-adv-x="691" d="M1 1585v136h646v-76q-75 -385 -168 -831.5t-165 -813.5h-158l328 1585h-483z" />
<glyph unicode="8" horiz-adv-x="954" d="M79 462q0 354 235 448q-103 30 -169 135t-66 271q0 93 22.5 169t68.5 135t124 92t183 33t183 -33t124 -92t68.5 -135t22.5 -169q0 -166 -66 -271t-169 -135q235 -94 235 -448q0 -489 -398 -489t-398 489zM231 459q0 -109 15.5 -181t48 -111.5t76 -55.5t106.5 -16 t106.5 16t76 55.5t48 111.5t15.5 181q0 173 -56 273t-190 115q-134 -15 -190 -115t-56 -273zM231 1317q0 -180 54 -256t192 -84q138 8 192 84t54 256q0 168 -59 237t-187 69t-187 -69t-59 -237z" />
<glyph unicode="9" horiz-adv-x="990" d="M80 1236q0 111 23 201.5t70.5 160.5t127.5 108.5t187 38.5q203 0 295.5 -132t92.5 -385v-766q0 -489 -388 -489q-99 0 -173 35t-115.5 96.5t-61.5 134t-20 156.5v26h142q2 -101 18 -166t48.5 -100t73 -47.5t102.5 -12.5q56 0 94.5 16t68.5 55.5t44.5 112t14.5 180.5v325 q-95 -45 -246 -45q-105 0 -183 37.5t-124 106.5t-68.5 157t-22.5 196zM232 1237q0 -208 59 -292t187 -84q70 0 142.5 12.5t103.5 33.5v310q0 99 -9.5 170t-27.5 117t-48 72t-65.5 36.5t-85.5 10.5q-134 0 -195 -86t-61 -300z" />
<glyph unicode=":" horiz-adv-x="426" d="M125 275v179h185v-179h-185zM125 813v179h185v-179h-185z" />
<glyph unicode=";" horiz-adv-x="422" d="M125 256v179h184q0 -20 -1 -59q-1 -52 -1.5 -77t-2.5 -68t-6 -64t-10.5 -52t-16 -46.5t-23 -32.5t-32.5 -25t-43 -11l-26 55q59 22 82.5 83.5t23.5 117.5h-128zM125 813v179h184v-179h-184z" />
<glyph unicode="&#x3c;" horiz-adv-x="727" d="M76 494v215l569 398v-165l-477 -339q96 -69 234 -167.5t243 -174.5v-167q-426 298 -569 400z" />
<glyph unicode="=" horiz-adv-x="750" d="M127 255v115h505v-115h-505zM127 576v115h505v-115h-505z" />
<glyph unicode="&#x3e;" horiz-adv-x="727" d="M102 94v167l477 342q-105 74 -477 339v167q424 -300 569 -400v-215z" />
<glyph unicode="?" horiz-adv-x="868" d="M33 1179v146q0 99 35 181t92.5 133.5t129.5 79t149 27.5q75 0 144 -26.5t124.5 -77.5t88.5 -134.5t33 -188.5q0 -180 -98.5 -320t-296.5 -263v-284h-134v341q101 58 176 123t115 119t64 111t30.5 95t6.5 76q0 81 -21 142t-57.5 96t-80.5 52t-94 17q-118 0 -194 -79.5 t-77 -223.5l-1 -142h-134zM275 1v179h184v-179h-184z" />
<glyph unicode="@" horiz-adv-x="1434" d="M72 868q0 191 52 345t142.5 252t208 150t251.5 52q306 0 475.5 -202.5t169.5 -576.5q0 -94 -16 -170t-42.5 -126t-62.5 -83.5t-75 -48t-81 -14.5q-76 0 -141.5 44t-88.5 113q-12 -56 -46 -92t-75.5 -50t-91.5 -14q-55 0 -98 30t-67 73.5t-39.5 100.5t-20.5 102t-5 86 q0 217 66 329t166 112q94 0 181 -76v70h152v-560q0 -153 104 -153q129 0 129 320q0 156 -24 273.5t-65 191.5t-104.5 119.5t-134 63t-161.5 17.5q-35 0 -68.5 -3.5t-86.5 -19.5t-98 -42.5t-93.5 -78t-82 -121t-55.5 -177t-22 -240.5q0 -171 33.5 -300t86 -204.5t128 -122 t148.5 -62.5t160 -16q34 0 68 2t74 8t57.5 8.5t64 11.5t47.5 9l25 -118q-186 -40 -331 -40q-129 0 -234.5 26t-196 87t-152 155t-96 235.5t-34.5 324.5zM572 840q0 -146 28.5 -212.5t86.5 -66.5q52 0 83.5 21t63.5 62v477q-76 53 -132 53q-47 0 -77 -47.5t-41.5 -119 t-11.5 -167.5z" />
<glyph unicode="A" horiz-adv-x="972" d="M47 0l340 1721h198l340 -1721h-154l-86 448h-397l-88 -448h-153zM306 549h360l-181 1014z" />
<glyph unicode="B" horiz-adv-x="1012" d="M146 0v1721h370q89 0 158 -25t112 -66t70.5 -99t38 -118t10.5 -129q0 -107 -49.5 -209t-136.5 -142q61 -25 106 -73.5t69 -108.5t35 -119.5t11 -118.5q0 -90 -8.5 -159t-34 -138.5t-67.5 -114.5t-114 -73t-170 -28h-400zM298 116h272q52 0 91 21.5t63 56.5t38.5 88 t20 108t5.5 123q0 61 -5 109t-19.5 95t-38 78.5t-63 50.5t-92.5 19h-272v-749zM298 982h244q56 0 96 24.5t62 68t32 94.5t10 112q0 324 -246 324h-198v-623z" />
<glyph unicode="C" horiz-adv-x="1032" d="M114 499v721q0 92 12 167t42.5 143t78.5 114.5t122.5 73.5t172.5 27q404 0 404 -525v-70h-145v104q0 83 -12.5 147t-41.5 115.5t-80.5 79t-124.5 27.5q-66 0 -115 -18.5t-79.5 -50.5t-49 -80t-25.5 -100.5t-7 -119.5v-789q0 -85 12 -147.5t41.5 -115t85.5 -80t137 -27.5 q73 0 124.5 27.5t80.5 79.5t41.5 116t12.5 147v118h145v-84q0 -91 -11 -166t-39.5 -143.5t-73.5 -115t-116 -74t-164 -27.5q-100 0 -175.5 27.5t-123 74t-77 115t-41 143t-11.5 166.5z" />
<glyph unicode="D" horiz-adv-x="1086" d="M146 0v1721h387q98 0 174 -26.5t125.5 -72t81 -111.5t45 -140t13.5 -163v-700q0 -508 -439 -508h-387zM298 122h235q287 0 287 352v768q0 357 -287 357h-235v-1477z" />
<glyph unicode="E" horiz-adv-x="795" d="M146 0v1721h600v-122h-448v-652h320v-115h-320v-710h448v-122h-600z" />
<glyph unicode="F" horiz-adv-x="736" d="M146 0v1721h605v-122h-453v-652h356v-115h-356v-832h-152z" />
<glyph unicode="G" horiz-adv-x="1088" d="M114 481v730q0 534 453 534q72 0 130.5 -16t99 -43.5t71 -70.5t48.5 -89t29 -107.5t15 -119t4 -128.5v-12h-152v13v13q0 73 -1.5 110.5t-7.5 99t-22 94t-42 68t-70 51t-104 15.5q-84 0 -144 -28.5t-93 -79.5t-47.5 -110t-14.5 -130v-860q0 -66 12 -118.5t41.5 -100.5 t88.5 -74.5t145 -26.5q79 0 135 28t84 76.5t39.5 100.5t11.5 115v291h-211v115h363v-821h-67l-45 168q-34 -89 -120.5 -142t-191.5 -53q-69 0 -126.5 12.5t-99.5 32.5t-75.5 51.5t-55 62.5t-37.5 72t-24 74t-12.5 75t-5.5 68t-1 60z" />
<glyph unicode="H" horiz-adv-x="1126" d="M146 0v1721h152v-779h530v779h152v-1721h-152v836h-530v-836h-152z" />
<glyph unicode="I" horiz-adv-x="444" d="M145 0v1721h152v-1721h-152z" />
<glyph unicode="J" horiz-adv-x="566" d="M12 0v115q51 0 79 0.5t59.5 5.5t46 11.5t31 23.5t22 35.5t11 53t6.5 71t1 94.5v1311h152v-1311q0 -78 -3.5 -129t-15 -102t-33.5 -80.5t-58.5 -54t-90.5 -34.5t-128 -10h-79z" />
<glyph unicode="K" horiz-adv-x="981" d="M146 0v1721h152v-905l459 905h157l-356 -710l437 -1011h-161l-368 909l-168 -302v-607h-152z" />
<glyph unicode="L" horiz-adv-x="772" d="M146 0v1721h152v-1599h481v-122h-633z" />
<glyph unicode="M" horiz-adv-x="1330" d="M146 0v1721h187l332 -1486q61 292 162 714.5t170 771.5h187v-1721h-135v1377l-318 -1377h-132l-318 1376v-1376h-135z" />
<glyph unicode="N" horiz-adv-x="1083" d="M146 0v1721h117l545 -1363v1363h129v-1721h-114l-546 1334v-1334h-131z" />
<glyph unicode="O" horiz-adv-x="1106" d="M114 499v721q0 91 13.5 167t45.5 143.5t81 114t125 73.5t174 27t174 -27t125 -73.5t81 -114t45.5 -143.5t13.5 -167v-721q0 -526 -439 -526t-439 526zM266 465q0 -370 287 -370t287 370v789q0 369 -287 369t-287 -369v-789z" />
<glyph unicode="P" horiz-adv-x="1004" d="M146 0v1721h421q90 0 160 -24.5t116 -66.5t76 -102t42.5 -126.5t12.5 -143.5q0 -79 -10.5 -146t-39 -133t-73 -111.5t-117.5 -74t-168 -28.5h-268v-765h-152zM298 887l286 -1h3q126 0 180 88q55 90 55 281q0 178 -59 261t-179 83h-286v-712z" />
<glyph unicode="Q" horiz-adv-x="1113" d="M114 499v721q0 91 13.5 167t45.5 143.5t81 114t125 73.5t174 27t174 -27t125 -73.5t81 -114t45.5 -143.5t13.5 -167v-721q0 -360 -205 -474q38 -34 63 -54t66.5 -41.5t82.5 -27.5v-114q-83 12 -156.5 63t-151.5 138q-66 -16 -138 -16q-439 0 -439 526zM266 465 q0 -370 287 -370t287 370v789q0 369 -287 369t-287 -369v-789z" />
<glyph unicode="R" horiz-adv-x="1067" d="M146 0v1721h459q87 0 153 -24t106.5 -63.5t65.5 -98t34.5 -121t9.5 -138.5q0 -329 -240 -417l266 -859h-162l-251 840h-289v-840h-152zM298 962h306q65 0 110 26t67.5 74t31.5 100t9 119q0 55 -5.5 99t-20 86t-38.5 70.5t-63 45.5t-91 17h-306v-637z" />
<glyph unicode="S" horiz-adv-x="948" d="M68 415l134 39q8 -72 28.5 -133t55.5 -113.5t92.5 -82.5t130.5 -30q117 0 181 65t64 184q0 99 -58.5 191t-172.5 212l-269 283q-88 93 -135 174t-47 170q0 169 111 270t285 101q169 0 272 -95.5t137 -277.5l3 -16l-128 -40l-2 14q-20 129 -92.5 211t-189.5 82 q-114 0 -181.5 -58t-67.5 -171q0 -68 36.5 -134t104.5 -140l253 -275q10 -11 50 -54.5t52.5 -57.5t46 -54t46 -60.5t35.5 -58t31.5 -65.5t16.5 -65t8 -73q0 -184 -113.5 -284t-293.5 -100q-92 0 -167 35.5t-126.5 97.5t-84 140t-46.5 169z" />
<glyph unicode="T" horiz-adv-x="753" d="M-36 1599v122h825v-122h-338v-1599h-152v1599h-335z" />
<glyph unicode="U" horiz-adv-x="1132" d="M120 423v1298h152v-1333q0 -148 67 -220.5t226 -72.5q150 0 214 73t64 220v1333h151v-1298q0 -450 -429 -450q-103 0 -181.5 24t-128 64.5t-80.5 99t-43 122t-12 140.5z" />
<glyph unicode="V" horiz-adv-x="949" d="M12 1721h164l305 -1541l292 1541h164l-356 -1721h-199z" />
<glyph unicode="W" horiz-adv-x="1416" d="M23 1721h142l235 -1472l222 1472h193l203 -1472l234 1472h141l-286 -1721h-175l-215 1520l-232 -1520h-174z" />
<glyph unicode="X" horiz-adv-x="951" d="M30 0l367 866l-367 856h143l302 -724l293 724h156l-367 -872l367 -850h-146l-298 717l-293 -717h-157z" />
<glyph unicode="Y" horiz-adv-x="888" d="M-2 1721h154q20 -72 58 -203t78 -266t77.5 -259.5t61.5 -204.5l24 -79q64 235 148 519.5t142 492.5h149l-364 -1187v-534h-152v534z" />
<glyph unicode="Z" horiz-adv-x="866" d="M60 0v141l605 1458h-541v122h697v-141l-605 -1458h605v-122h-761z" />
<glyph unicode="[" horiz-adv-x="494" d="M150 -64v1843h331v-81h-179v-1681h179v-81h-331z" />
<glyph unicode="\" horiz-adv-x="639" d="M-12 1721h145l552 -1721h-144z" />
<glyph unicode="]" horiz-adv-x="504" d="M25 17h179v1681h-179v81h331v-1843h-331v81z" />
<glyph unicode="^" horiz-adv-x="739" d="M43 896l227 563h207l226 -563h-175l-155 540l-153 -540h-177z" />
<glyph unicode="_" horiz-adv-x="913" d="M115 0v115h696v-115h-696z" />
<glyph unicode="`" horiz-adv-x="451" d="M70 1722h162l123 -398h-56z" />
<glyph unicode="a" horiz-adv-x="808" d="M75 239q0 32 1 51.5t5.5 50.5t13 52t25 51.5t40.5 54t60 54t83 58t110.5 59t140.5 63.5v10q0 102 -9 174.5t-22 112t-33.5 61.5t-38.5 27.5t-44 5.5q-27 0 -48 -7.5t-45 -29t-40 -70t-20 -121.5v-7h-156q12 157 92.5 246.5t211.5 89.5q73 0 129 -23.5t88.5 -60 t52.5 -87.5t27 -99t7 -103v-576q0 -63 4.5 -132t9.5 -106l4 -38h-140l-19 145q-48 -84 -118.5 -128t-134.5 -44q-93 0 -165 73.5t-72 192.5zM226 267q0 -86 36 -127.5t85 -41.5q57 0 115.5 41t91.5 105v422q-73 -51 -115 -82t-88.5 -72.5t-70 -75.5t-39 -77.5t-15.5 -91.5z " />
<glyph unicode="b" horiz-adv-x="871" d="M120 0v1721h150v-636q47 69 107.5 104.5t123.5 35.5q43 0 75 -8.5t70 -43t62 -94.5t40.5 -171.5t16.5 -266.5v-95q0 -108 -8.5 -195t-22 -145.5t-34.5 -102t-42 -68t-48 -39t-49 -19t-49 -4.5q-152 0 -242 140v-113h-150zM270 205q45 -54 98 -87.5t98 -33.5q20 0 32.5 2 t30 11t28.5 27t23 51.5t19 81.5t11.5 121t4.5 167v95q0 110 -5 192t-16.5 132.5t-23 82t-30 45.5t-33 18t-36.5 4q-94 0 -201 -119v-790z" />
<glyph unicode="c" horiz-adv-x="816" d="M106 568v62q0 80 1 122.5t7 116t17.5 114.5t35.5 94t58 80.5t87 47.5t121 20q69 0 121.5 -22.5t85 -58.5t53.5 -91t30 -110t13 -126q0 -2 0.5 -5.5t0.5 -5.5h-150v9q-6 169 -39.5 239t-114.5 70q-39 0 -67.5 -11t-48 -39t-31.5 -63.5t-19 -96t-9 -124.5t-2 -160v-62 q0 -281 35 -387.5t142 -106.5q79 0 112.5 72t41.5 247v10h151v-7q-3 -76 -11.5 -133.5t-29 -114.5t-53 -93.5t-86 -59t-125.5 -22.5q-60 0 -108 12t-81.5 40t-58 55.5t-39 78.5t-23 87t-12.5 103t-4.5 105.5t-0.5 113.5z" />
<glyph unicode="d" horiz-adv-x="866" d="M101 546v95q0 155 16.5 266.5t40.5 171.5t62 94.5t70 43t75 8.5q63 0 123.5 -35.5t107.5 -104.5v636h150v-1721h-150v113q-90 -140 -242 -140q-27 0 -49 4.5t-49 19t-48 39t-42 68t-34.5 102t-22 145.5t-8.5 195zM251 545q0 -94 4.5 -167t11.5 -121t19 -81.5t23 -51.5 t28.5 -27t30 -11t32.5 -2q45 0 98 33.5t98 87.5v790q-107 119 -201 119q-22 0 -36.5 -4t-33 -18t-30 -45.5t-23 -82t-16.5 -132.5t-5 -192v-95z" />
<glyph unicode="e" horiz-adv-x="829" d="M108 552v167q1 125 18 216.5t44.5 146.5t71 87.5t89.5 44t108 11.5q161 0 231.5 -114t70.5 -360q0 -75 -2 -123h-480v-183q0 -118 11.5 -193.5t36.5 -113.5t55 -51t76 -13q67 0 112.5 67.5t46.5 225.5h140q-6 -68 -16 -121t-31.5 -106t-53 -88t-81.5 -57t-115 -22 q-127 0 -197.5 50.5t-103.5 176.5q-31 118 -31 326v26zM260 702h332v40v41v27q0 28 -1 56q-2 42 -5.5 79.5t-13.5 70t-25 56.5t-41 38t-60 14q-55 0 -90.5 -20t-55 -47t-28.5 -91t-10.5 -112.5t-1.5 -151.5z" />
<glyph unicode="f" horiz-adv-x="532" d="M10 1114v84h167v129v18v51t4 55t11.5 59.5t23.5 53t38.5 47t58.5 29.5t81 12q69 0 122 -13v-109q-24 6 -74 6q-33 0 -56 -10t-34.5 -22t-17.5 -36t-6.5 -39t-0.5 -43v-8v-180h192v-84h-192v-1114h-150v1114h-167z" />
<glyph unicode="g" horiz-adv-x="881" d="M17 -236q0 101 65 179t159 126q-15 3 -48.5 12.5t-75 29.5t-41.5 39q0 13 3.5 28.5t11 33t15.5 34t20 36t21 34t22 33.5t20 28t18 24t12 17q-71 64 -105.5 165t-34.5 210q0 58 11 116t37.5 115.5t65 101.5t98 71t132.5 27q96 0 159.5 -46.5t123.5 -139.5q19 33 33.5 55 t38.5 52t52 49.5t58 26.5v-145q-38 -7 -79 -33.5t-72 -61.5q38 -106 38 -181q0 -72 -12 -136t-38.5 -120.5t-66.5 -97.5t-99 -64.5t-132 -23.5q-86 0 -144 24q-55 -104 -69 -172q-5 -23 27 -34t164 -38q41 -8 64 -13q82 -17 141 -36.5t110.5 -49t77.5 -72t26 -97.5 q0 -50 -16.5 -90.5t-42.5 -67.5t-63.5 -47t-73.5 -31t-78.5 -17.5t-72.5 -8t-61 -1.5q-399 0 -399 157zM159 -191q0 -23 10.5 -40t33 -27t42 -16t54.5 -8.5t53 -3t53 -0.5h13q265 0 265 129q0 71 -37 107.5t-122 52.5l-214 46q-50 -37 -100.5 -112t-50.5 -128zM232 776 q0 -37 3 -71.5t15.5 -80t32.5 -78t57.5 -55.5t87.5 -23t87 23t57 56t32 78t15.5 80t3.5 71q0 35 -3 70.5t-15.5 84t-32 84.5t-57 62t-87.5 26q-42 0 -75.5 -17.5t-54 -47.5t-34.5 -63.5t-20.5 -73t-9 -68.5t-2.5 -57z" />
<glyph unicode="h" horiz-adv-x="860" d="M120 0v1721h150v-636q45 70 113 105t139 35q92 0 159 -74t67 -209v-942h-152v934q0 180 -126 180q-49 0 -105 -34.5t-95 -87.5v-992h-150z" />
<glyph unicode="i" horiz-adv-x="405" d="M132 0v1198h150v-1198h-150zM132 1472v179h150v-179h-150z" />
<glyph unicode="j" horiz-adv-x="428" d="M-44 -204q46 -2 56 -2q33 0 57.5 9t38.5 26.5t23 34.5t12 42.5t4 39.5t1 36v1216h150v-1244q0 -274 -261 -274q-40 0 -81 8v108zM148 1473v179h150v-179h-150z" />
<glyph unicode="k" horiz-adv-x="830" d="M120 0v1721h150v-1091l374 568h169l-287 -454l285 -744h-157l-235 653l-149 -183v-470h-150z" />
<glyph unicode="l" horiz-adv-x="442" d="M146 0v1721h150v-1721h-150z" />
<glyph unicode="m" horiz-adv-x="1335" d="M120 0v1198h151v-111q117 138 266 138q61 0 118 -38t82 -98q59 67 129 101.5t128 34.5q92 0 160.5 -64t68.5 -160v-1001h-150v970q0 75 -33.5 109.5t-89.5 34.5q-93 0 -190 -97v-1017h-150v971q0 143 -127 143q-51 0 -107.5 -32t-105.5 -87v-995h-150z" />
<glyph unicode="n" horiz-adv-x="860" d="M120 0v1198h150v-113q48 70 115 105t139 35q89 0 156.5 -74.5t67.5 -209.5v-941h-152v944q0 89 -35 129.5t-92 40.5q-47 0 -100.5 -32.5t-98.5 -88.5v-993h-150z" />
<glyph unicode="o" horiz-adv-x="846" d="M106 568v62q0 80 1 122.5t6.5 116t17 114.5t34.5 94t56.5 80.5t84.5 47.5t117 20t117 -20t84.5 -47.5t56.5 -80.5t34.5 -94t17 -114.5t6.5 -116t1 -122.5v-62v-101t-3 -94.5t-8.5 -93.5t-16.5 -82t-26.5 -76t-39.5 -59.5t-55 -49t-73.5 -28t-94.5 -11.5t-94.5 11.5 t-73.5 28t-55 49t-39.5 59.5t-26.5 76t-16.5 82t-8 93.5t-3 94.5t-0.5 101zM256 568q0 -282 33 -388t134 -106t134 106t33 388v62q0 95 -2 160t-8.5 124.5t-18 95.5t-30 63.5t-45 39t-63.5 11.5t-63.5 -11.5t-45.5 -39t-30 -63t-17.5 -96t-8.5 -124.5t-2 -160v-62z" />
<glyph unicode="p" horiz-adv-x="871" d="M120 -385v1583h150v-113q90 140 242 140q27 0 49 -4.5t49 -19t48 -39t42 -68t34.5 -102t22 -145.5t8.5 -195v-95q0 -155 -16.5 -266.5t-40.5 -171.5t-62 -94.5t-70 -43t-75 -8.5q-63 0 -123.5 35.5t-107.5 104.5v-498h-150zM270 203q107 -119 201 -119q22 0 36.5 4t33 18 t30 45.5t23 82t16.5 132.5t5 192v95q0 94 -4.5 167t-11.5 121t-19 81.5t-23 51.5t-28.5 27t-30 11t-32.5 2q-45 0 -98 -33.5t-98 -87.5v-790z" />
<glyph unicode="q" horiz-adv-x="871" d="M106 557v95q0 108 8.5 195t22 145.5t34.5 102t42 68t48 39t49 19t49 4.5q152 0 242 -140v113h150v-1583h-150v498q-47 -69 -107.5 -104.5t-123.5 -35.5q-43 0 -75 8.5t-70 43t-62 94.5t-40.5 171.5t-16.5 266.5zM256 558q0 -110 5 -192t16.5 -132.5t23 -82t30 -45.5 t33 -18t36.5 -4q94 0 201 119v790q-45 54 -98 87.5t-98 33.5q-20 0 -32.5 -2t-30 -11t-28.5 -27t-23 -51.5t-19 -81.5t-11.5 -121t-4.5 -167v-95z" />
<glyph unicode="r" horiz-adv-x="534" d="M120 0v1198h150v-169q28 93 101 139.5t151 48.5v-151q-11 4 -23 4q-229 0 -229 -176v-894h-150z" />
<glyph unicode="s" horiz-adv-x="749" d="M57 300l115 39q14 -44 34.5 -85t49.5 -82t68.5 -66t82.5 -25q79 0 118.5 48t39.5 130q0 115 -205 295l-87 76q-99 87 -149.5 155.5t-50.5 153.5q0 135 82 209.5t219 74.5q65 0 118 -25t89 -69.5t60.5 -96t39.5 -113.5l-133 -41q-9 56 -28.5 106t-60 90.5t-92.5 40.5 q-67 0 -106.5 -45.5t-39.5 -117.5q0 -60 38.5 -114t111.5 -116l95 -82q46 -40 70.5 -62.5t62 -64t56.5 -75t34.5 -80.5t16.5 -96q0 -134 -84.5 -211.5t-220.5 -77.5q-132 0 -220.5 92.5t-123.5 234.5z" />
<glyph unicode="t" horiz-adv-x="550" d="M4 1114v84h163v425h150v-425h192v-84h-192v-824q0 -43 1 -67.5t6.5 -53t16 -42.5t30 -23.5t48.5 -9.5q49 0 88 8v-103q-67 -17 -130 -17q-56 0 -96 17.5t-61.5 43.5t-34 69t-15.5 80.5t-3 90.5v831h-163z" />
<glyph unicode="u" d="M112 257v941h152v-944q0 -89 35 -129.5t92 -40.5q47 0 100.5 32.5t98.5 88.5v993h150v-1198h-150v113q-48 -70 -115 -105t-139 -35q-89 0 -156.5 74.5t-67.5 209.5z" />
<glyph unicode="v" horiz-adv-x="747" d="M25 1198h146l214 -1062l194 1062h143l-250 -1198h-175z" />
<glyph unicode="w" horiz-adv-x="1161" d="M42 1198h131l158 -1022l171 1022h160l184 -1022l144 1022h129l-196 -1198h-145l-193 988l-186 -988h-159z" />
<glyph unicode="x" horiz-adv-x="783" d="M39 0l258 626l-256 572h155l196 -499l196 499h155l-257 -572l258 -626h-146l-206 534l-206 -534h-147z" />
<glyph unicode="y" horiz-adv-x="777" d="M37 1198h152l208 -1001l204 1001h152l-300 -1281q-30 -116 -119.5 -163.5t-253.5 -52.5h-3v123q120 8 175.5 40t55.5 90q0 73 -11 142z" />
<glyph unicode="z" horiz-adv-x="695" d="M47 0v144l472 940h-408v114h549v-143l-461 -940h455v-115h-607z" />
<glyph unicode="{" horiz-adv-x="520" d="M35 768v188q79 0 105 40.5t26 118.5q0 77 0.5 118t3.5 109t9 105.5t18 91t29 83.5t43 65t60 52.5t80 29.5t102 12v-113q-52 0 -88 -12t-59 -47t-36 -65.5t-18.5 -101.5t-6.5 -118t-1 -150q0 -57 -5.5 -100.5t-21.5 -88.5t-50.5 -76.5t-85.5 -46.5q51 -15 85.5 -46.5 t50.5 -76.5t21.5 -88.5t5.5 -100.5q0 -103 1 -150t6.5 -118t18.5 -101.5t36 -65.5t59 -47t88 -12v-113q-56 0 -102 12t-80 29.5t-60 52.5t-43 65t-29 83.5t-18 91t-9 105.5t-3.5 109t-0.5 118q0 78 -26 118.5t-105 40.5z" />
<glyph unicode="|" horiz-adv-x="416" d="M150 -128v1874h118v-1874h-118z" />
<glyph unicode="}" horiz-adv-x="530" d="M25 56q52 0 88 12t59 47t36 65.5t18.5 101.5t6.5 118t1 150q0 57 5.5 100.5t21.5 88.5t50.5 76.5t85.5 46.5q-51 15 -85.5 46.5t-50.5 76.5t-21.5 88.5t-5.5 100.5q0 103 -1 150t-6.5 118t-18.5 101.5t-36 65.5t-59 47t-88 12v113q56 0 102 -12t80 -29.5t60 -52.5t43 -65 t29 -83.5t18 -91t9 -105.5t3.5 -109t0.5 -118q0 -78 26 -118.5t105 -40.5v-188q-79 0 -105 -40.5t-26 -118.5q0 -77 -0.5 -118t-3.5 -109t-9 -105.5t-18 -91t-29 -83.5t-43 -65t-60 -52.5t-80 -29.5t-102 -12v113z" />
<glyph unicode="~" horiz-adv-x="815" d="M98 959q1 19 3.5 37t13.5 47.5t28.5 50t51.5 36.5t80 16q42 0 139.5 -38t135.5 -38q29 0 45 14.5t21 52.5h116q0 -1 -1 -13.5t-4.5 -28.5t-9.5 -37t-18.5 -39.5t-30 -35t-46 -26.5t-64.5 -10q-57 0 -151.5 39t-131.5 39q-28 0 -42.5 -14t-19.5 -52h-115z" />
<glyph unicode="&#xa1;" horiz-adv-x="434" d="M119 1198v179h185v-179h-185zM131 -343l60 1332h54l80 -1332h-194z" />
<glyph unicode="&#xa2;" horiz-adv-x="760" d="M76 794v62q0 72 0.5 109.5t6 104t16 104t32 87t52 76t78 48t108.5 25.5v133h65v-134q76 -6 129 -39.5t82 -92.5t42.5 -122.5t18.5 -148.5q0 -2 0.5 -7t0.5 -7h-150v14q-1 32 -2 45t-3.5 47.5t-7 52.5t-11.5 47t-18.5 45t-27 33.5t-37.5 25t-49 7.5q-35 0 -61 -9.5 t-44.5 -24t-31 -46.5t-19.5 -61t-11 -85t-5.5 -101t-2.5 -126v-62q0 -86 2.5 -145t9 -114t18.5 -88.5t31.5 -59.5t47 -37t65.5 -11q21 0 39 5t32 16.5t25 22t19.5 31.5t14.5 34t10 40.5t6.5 40.5t4.5 43.5t3 40t2 39.5q0 3 0.5 9t0.5 8h151q0 -2 -0.5 -6t-0.5 -6 q-3 -72 -11 -127t-26.5 -109.5t-47.5 -90.5t-76 -60.5t-111 -29.5v-153h-65v153q-61 4 -108.5 24t-78.5 45t-52 73t-32 84.5t-16 104t-6 107t-1 116.5z" />
<glyph unicode="&#xa3;" horiz-adv-x="836" d="M55 0v65l128 50v653h-128v109h128v327q0 43 1.5 80t8.5 95t19.5 104t37 97.5t58 85.5t85 56.5t115.5 22.5q57 0 102.5 -17.5t73.5 -42.5t48.5 -65t30 -72t15 -77t6 -66.5t0.5 -54.5v-7h-120q0 40 -0.5 60t-3.5 55.5t-9 54t-17.5 43t-28.5 36t-43 19.5t-60 6 q-25 -1 -45 -7.5t-36 -19.5t-28.5 -26.5t-21 -38t-15 -43.5t-10.5 -53t-6.5 -57t-3.5 -65.5t-1 -68v-74.5v-281h289v-115h-289v-653h448v-115h-728z" />
<glyph unicode="&#xa4;" horiz-adv-x="1028" d="M106 635q0 91 34.5 175.5t100.5 142.5l-73 117l54 38l72 -116q96 59 222 59q137 0 236 -69l79 126l54 -38l-82 -129q60 -59 91.5 -139.5t31.5 -166.5q0 -88 -32.5 -169.5t-94.5 -140.5l86 -136l-54 -38l-84 133q-99 -65 -231 -65q-123 0 -217 56l-77 -124l-54 38l78 124 q-68 59 -104 144t-36 178zM211 635q0 -83 32.5 -154t103.5 -119.5t169 -50.5q97 2 168 50t104 119.5t33 154.5q0 129 -80.5 224.5t-224.5 99.5q-145 -4 -225 -99t-80 -225z" />
<glyph unicode="&#xa5;" horiz-adv-x="909" d="M10 1721h169l282 -1032q45 164 95 348t91 335.5t96 348.5h159l-340 -1109h181v-89h-205v-206h205v-91h-205v-226h-152v226h-212v91h212v206h-212v89h187z" />
<glyph unicode="&#xa6;" horiz-adv-x="403" d="M137 -14v551h132v-551h-132zM137 889v552h132v-552h-132z" />
<glyph unicode="&#xa7;" horiz-adv-x="834" d="M78 300l115 39q14 -44 34.5 -85t49.5 -82t68.5 -66t82.5 -25q79 0 118.5 48t39.5 130q0 115 -205 295l-87 76q-41 36 -54.5 48.5t-47 44.5t-47 51t-32.5 48.5t-26 58t-7 58.5q0 98 44.5 165t124.5 97q-64 60 -98.5 116.5t-34.5 120.5q0 135 82 209.5t219 74.5 q65 0 118 -25t89 -69.5t60.5 -96t39.5 -113.5l-133 -41q-9 56 -28.5 106t-60 90.5t-92.5 40.5q-67 0 -106.5 -45.5t-39.5 -117.5q0 -41 26.5 -84.5t55 -71.5t82.5 -74l95 -82q53 -46 87.5 -81t73 -84t58.5 -102.5t21 -110.5q0 -87 -37 -151.5t-103 -99.5q101 -117 104 -248 q0 -134 -84.5 -211.5t-220.5 -77.5q-132 0 -220.5 92.5t-123.5 234.5zM228 952q0 -31 12 -61t40.5 -61.5t49 -51t62.5 -56.5l146 -127q84 38 84 163q0 117 -205 295l-69 60q-56 -9 -88 -53t-32 -108z" />
<glyph unicode="&#xa8;" horiz-adv-x="795" d="M113 1386v179h184v-179h-184zM497 1386v179h184v-179h-184z" />
<glyph unicode="&#xa9;" horiz-adv-x="1378" d="M66 657q0 100 25 195t77 179.5t125.5 147.5t177 100t225.5 37t225.5 -37t177 -100t125.5 -147.5t77 -179.5t25 -195t-25 -195t-77 -179.5t-125.5 -147.5t-177 -100t-225.5 -37t-225.5 37t-177 100t-125.5 147.5t-77 179.5t-25 195zM156 657q0 -90 21.5 -175t66 -160.5 t107 -132t151.5 -89.5t194 -33t194 33t151.5 89.5t107 132t66 160.5t21.5 175t-21.5 175t-66 160.5t-107 132t-151.5 89.5t-194 33t-194 -33t-151.5 -89.5t-107 -132t-66 -160.5t-21.5 -175zM462 667q0 45 0.5 71.5t2.5 69t6.5 69t12.5 62t20 58t30.5 46.5t41.5 37.5 t55 22.5t71 9q46 0 82.5 -16.5t58.5 -38.5t37.5 -56.5t22.5 -58t10.5 -57t3.5 -39v-17.5h-87q-1 47 -6.5 80.5t-18.5 65.5t-39 48.5t-65 16.5q-34 0 -57.5 -8t-40 -29t-26 -46.5t-14.5 -72.5t-6.5 -94t-1.5 -123t1.5 -123t6.5 -94t14.5 -72.5t26 -46.5t40 -29t57.5 -8 q39 0 65 16.5t39 48.5t18.5 65.5t6.5 80.5h87q0 -6 -0.5 -16.5t-4.5 -40t-11.5 -56t-23.5 -59t-38 -56t-57.5 -39.5t-79.5 -16q-39 0 -71 9t-55 22.5t-41.5 37.5t-30.5 46.5t-20 58t-12.5 62t-6.5 69t-2.5 69t-0.5 71.5z" />
<glyph unicode="&#xaa;" horiz-adv-x="745" d="M94 189q0 33 1.5 52.5t9 51.5t22.5 54t44 53t71 57.5t105.5 58.5t145.5 64q0 95 -9.5 156t-29 87.5t-38 34.5t-45.5 8q-23 0 -40.5 -6.5t-38 -25t-33.5 -60.5t-16 -104h-130q10 131 77 205.5t176 74.5q61 0 107.5 -19.5t73.5 -50t44 -73t23 -82.5t6 -86v-419 q0 -50 4 -105t8 -85l3 -30h-117l-16 120q-40 -70 -99 -106.5t-112 -36.5q-77 0 -137 58.5t-60 153.5zM220 212q0 -67 30 -99t71 -32q47 0 95.5 31.5t76.5 80.5v331q-76 -49 -117 -79t-82 -69t-57.5 -78t-16.5 -86z" />
<glyph unicode="&#xab;" horiz-adv-x="874" d="M78 576v128l388 452v-200l-276 -315l276 -317v-200zM390 576v128l388 452v-200l-276 -315l276 -317v-200z" />
<glyph unicode="&#xac;" horiz-adv-x="657" d="M100 448v115h440v-307h-56v192h-384z" />
<glyph unicode="&#xad;" horiz-adv-x="659" d="M117 448v115h441v-115h-441z" />
<glyph unicode="&#xae;" horiz-adv-x="1378" d="M66 657q0 100 25 195t77 179.5t125.5 147.5t177 100t225.5 37t225.5 -37t177 -100t125.5 -147.5t77 -179.5t25 -195t-25 -195t-77 -179.5t-125.5 -147.5t-177 -100t-225.5 -37t-225.5 37t-177 100t-125.5 147.5t-77 179.5t-25 195zM156 657q0 -90 21.5 -175t66 -160.5 t107 -132t151.5 -89.5t194 -33t194 33t151.5 89.5t107 132t66 160.5t21.5 175t-21.5 175t-66 160.5t-107 132t-151.5 89.5t-194 33t-194 -33t-151.5 -89.5t-107 -132t-66 -160.5t-21.5 -175zM504 241v842h191q236 0 236 -240q0 -70 -47 -122.5t-101 -63.5q14 -29 154 -413 h-86l-133 402h-142v-405h-72zM576 695h67h47t41.5 2.5t40.5 7.5t30.5 16t27.5 26.5t14.5 39.5t6.5 56q0 97 -41 143t-128 46h-106v-337z" />
<glyph unicode="&#xaf;" horiz-adv-x="702" d="M131 1383v115h441v-115h-441z" />
<glyph unicode="&#xb0;" horiz-adv-x="637" d="M98 1504q0 88 56 153t163 65t163 -65t56 -153t-56 -153t-163 -65t-163 65t-56 153zM176 1504q0 -59 34 -103t107 -44t107 44t34 103t-34 103t-107 44t-107 -44t-34 -103z" />
<glyph unicode="&#xb1;" horiz-adv-x="702" d="M106 0v115h504v-115h-504zM106 576v115h192v192h120v-192h192v-115h-192v-192h-120v192h-192z" />
<glyph unicode="&#xb2;" horiz-adv-x="764" d="M100 586v100l305 459q117 188 117 278q0 212 -124 212q-48 0 -80.5 -21t-47.5 -61t-20.5 -82t-5.5 -100h-142q0 178 72 275t223 97q133 0 200 -85t67 -234q0 -116 -130 -318l-265 -409h381v-111h-550z" />
<glyph unicode="&#xb3;" horiz-adv-x="770" d="M104 955h130q0 -57 5.5 -99t20.5 -82t46 -60.5t77 -20.5q76 0 109 55.5t33 165.5q0 66 -46.5 142t-114.5 90v84q78 22 119.5 77.5t41.5 117.5q0 213 -132 213q-40 0 -69.5 -15t-46.5 -38.5t-27 -59.5t-13 -71t-3 -80h-130q0 177 71 273.5t217 96.5q128 0 195.5 -88 t67.5 -220q0 -74 -45 -145t-113 -103q66 -39 112 -122t46 -153q0 -149 -69 -237.5t-204 -88.5q-141 0 -209.5 96.5t-68.5 271.5z" />
<glyph unicode="&#xb4;" horiz-adv-x="444" d="M96 1324l123 398h162l-229 -398h-56z" />
<glyph unicode="&#xb6;" horiz-adv-x="969" d="M23 1165q0 139 93 216.5t278 77.5h437v-1459h-106v876h-211v-876h-125v876q-170 0 -268 75.5t-98 213.5z" />
<glyph unicode="&#xb7;" horiz-adv-x="446" d="M131 704v179h185v-179h-185z" />
<glyph unicode="&#xb8;" horiz-adv-x="449" d="M111 -335q147 0 147 67q0 31 -29 67.5t-74 66.5v134h64v-115q142 -83 142 -162q0 -52 -66.5 -84.5t-183.5 -32.5v59z" />
<glyph unicode="&#xb9;" horiz-adv-x="522" d="M51 1408v125q60 22 130 70.5t111 117.5h87v-1133h-136v909q-42 -29 -99 -55t-93 -34z" />
<glyph unicode="&#xba;" horiz-adv-x="715" d="M111 1234v49q0 49 0.5 74t2.5 71.5t6 72t12.5 64.5t20.5 61t31 48t43 40t57.5 23.5t73.5 9.5t73.5 -9.5t58 -23.5t43 -40t31 -48t21 -61t12.5 -64.5t6 -72t2.5 -71.5t0.5 -74v-49q0 -67 -0.5 -101t-5 -92.5t-13.5 -89.5t-27 -71t-44 -60.5t-66 -35t-92 -14.5 q-60 0 -104 16t-70 54t-42 72t-22 99t-7.5 105t-1.5 118zM228 1234q0 -220 25.5 -302.5t104.5 -82.5q80 0 105.5 82.5t25.5 302.5v49q0 89 -2.5 146.5t-10.5 107t-22.5 76t-38 41t-57.5 14.5q-82 0 -106 -82t-24 -303v-49z" />
<glyph unicode="&#xbb;" horiz-adv-x="872" d="M111 124v200l276 317l-276 315v200l388 -452v-128zM423 124v200l276 317l-276 315v200l388 -452v-128z" />
<glyph unicode="&#xbc;" horiz-adv-x="1499" d="M0 1408v125q60 22 130 70.5t111 117.5h87v-1133h-136v909q-42 -29 -99 -55t-93 -34zM348 0l552 1721h145l-553 -1721h-144zM883 276v95l301 761h210v-754h134v-102h-134v-277h-136v277h-375zM1028 378h230l-1 638z" />
<glyph unicode="&#xbd;" horiz-adv-x="1716" d="M0 1408v125q60 22 130 70.5t111 117.5h87v-1133h-136v909q-42 -29 -99 -55t-93 -34zM468 0l552 1721h145l-553 -1721h-144zM1126 -1v100l305 459q117 188 117 278q0 212 -124 212q-48 0 -80.5 -21t-47.5 -61t-20.5 -82t-5.5 -100h-142q0 178 72 275t223 97q133 0 200 -85 t67 -234q0 -116 -130 -318l-265 -409h381v-111h-550z" />
<glyph unicode="&#xbe;" horiz-adv-x="1890" d="M59 955h130q0 -57 5.5 -99t20.5 -82t46 -60.5t77 -20.5q76 0 109 55.5t33 165.5q0 66 -46.5 142t-114.5 90v84q78 22 119.5 77.5t41.5 117.5q0 213 -132 213q-40 0 -69.5 -15t-46.5 -38.5t-27 -59.5t-13 -71t-3 -80h-130q0 177 71 273.5t217 96.5q128 0 195.5 -88 t67.5 -220q0 -74 -45 -145t-113 -103q66 -39 112 -122t46 -153q0 -149 -69 -237.5t-204 -88.5q-141 0 -209.5 96.5t-68.5 271.5zM645 0l552 1721h145l-553 -1721h-144zM1273 276v95l301 761h210v-754h134v-102h-134v-277h-136v277h-375zM1418 378h230l-1 638z" />
<glyph unicode="&#xbf;" horiz-adv-x="811" d="M12 60q0 180 98.5 319.5t296.5 262.5v284h134v-340q-73 -43 -132.5 -88.5t-99.5 -86.5t-70 -84t-47 -78.5t-27 -72.5t-13 -62.5t-3 -51.5q0 -81 21 -142t57.5 -96t80.5 -52.5t94 -17.5q118 0 194 80t77 224l1 142h134v-146q0 -100 -35 -181.5t-92.5 -133t-129.5 -79.5 t-149 -28q-60 0 -116 16.5t-106 51t-87 84t-59 120.5t-22 156zM382 1198v180h184v-180h-184z" />
<glyph unicode="&#xc0;" horiz-adv-x="972" d="M47 0l340 1721h198l340 -1721h-154l-86 448h-397l-88 -448h-153zM229 2306h162l123 -398h-56zM306 549h360l-181 1014z" />
<glyph unicode="&#xc1;" horiz-adv-x="972" d="M47 0l340 1721h198l340 -1721h-154l-86 448h-397l-88 -448h-153zM306 549h360l-181 1014zM458 1908l123 398h162l-229 -398h-56z" />
<glyph unicode="&#xc2;" horiz-adv-x="972" d="M47 0l340 1721h198l340 -1721h-154l-86 448h-397l-88 -448h-153zM225 1908l156 307h213l153 -307h-110l-150 299l-149 -299h-113zM306 549h360l-181 1014z" />
<glyph unicode="&#xc3;" horiz-adv-x="972" d="M47 0l340 1721h198l340 -1721h-154l-86 448h-397l-88 -448h-153zM209 1920q1 19 3.5 37t14.5 47.5t30.5 50t54.5 36.5t84 16q28 0 94.5 -38t90.5 -38q29 0 45 14.5t21 52.5h116l-1 -14q-1 -13 -4.5 -28.5t-10 -36.5t-20 -39.5t-32 -35t-48.5 -26.5t-68 -10t-103.5 39 t-89.5 39q-28 0 -42.5 -14t-19.5 -52h-115zM306 549h360l-181 1014z" />
<glyph unicode="&#xc4;" horiz-adv-x="972" d="M47 0l340 1721h198l340 -1721h-154l-86 448h-397l-88 -448h-153zM202 1908v179h184v-179h-184zM306 549h360l-181 1014zM586 1908v179h184v-179h-184z" />
<glyph unicode="&#xc5;" horiz-adv-x="972" d="M47 0l340 1721h198l340 -1721h-154l-86 448h-397l-88 -448h-153zM267 1948q0 88 56 153t163 65t163 -65t56 -153t-56 -153t-163 -65t-163 65t-56 153zM306 549h360l-181 1014zM345 1948q0 -59 34 -103t107 -44t107 44t34 103t-34 103t-107 44t-107 -44t-34 -103z" />
<glyph unicode="&#xc6;" horiz-adv-x="1380" d="M12 0l636 1721h672v-122h-448v-652h320v-115h-320v-710h448v-122h-600v448h-391l-165 -448h-152zM365 549h354v1014z" />
<glyph unicode="&#xc7;" horiz-adv-x="1032" d="M114 499v721q0 92 12 167t42.5 143t78.5 114.5t122.5 73.5t172.5 27q404 0 404 -525v-70h-145v104q0 83 -12.5 147t-41.5 115.5t-80.5 79t-124.5 27.5q-66 0 -115 -18.5t-79.5 -50.5t-49 -80t-25.5 -100.5t-7 -119.5v-789q0 -85 12 -147.5t41.5 -115t85.5 -80t137 -27.5 q73 0 124.5 27.5t80.5 79.5t41.5 116t12.5 147v118h145v-84q0 -91 -11 -166t-39.5 -143.5t-73.5 -115t-116 -74t-164 -27.5q-100 0 -175.5 27.5t-123 74t-77 115t-41 143t-11.5 166.5zM454 -349q147 0 147 67q0 31 -29 67.5t-74 66.5v134h64v-115q142 -83 142 -162 q0 -52 -66.5 -84.5t-183.5 -32.5v59z" />
<glyph unicode="&#xc8;" horiz-adv-x="795" d="M146 0v1721h600v-122h-448v-652h320v-115h-320v-710h448v-122h-600zM189 2306h162l123 -398h-56z" />
<glyph unicode="&#xc9;" horiz-adv-x="795" d="M146 0v1721h600v-122h-448v-652h320v-115h-320v-710h448v-122h-600zM418 1908l123 398h162l-229 -398h-56z" />
<glyph unicode="&#xca;" horiz-adv-x="795" d="M146 0v1721h600v-122h-448v-652h320v-115h-320v-710h448v-122h-600zM185 1908l156 307h213l153 -307h-110l-150 299l-149 -299h-113z" />
<glyph unicode="&#xcb;" horiz-adv-x="795" d="M146 0v1721h600v-122h-448v-652h320v-115h-320v-710h448v-122h-600zM162 1908v179h184v-179h-184zM546 1908v179h184v-179h-184z" />
<glyph unicode="&#xcc;" horiz-adv-x="444" d="M-36 2306h162l123 -398h-56zM145 0v1721h152v-1721h-152z" />
<glyph unicode="&#xcd;" horiz-adv-x="444" d="M145 0v1721h152v-1721h-152zM193 1908l123 398h162l-229 -398h-56z" />
<glyph unicode="&#xce;" horiz-adv-x="444" d="M-40 1908l156 307h213l153 -307h-110l-150 299l-149 -299h-113zM145 0v1721h152v-1721h-152z" />
<glyph unicode="&#xcf;" horiz-adv-x="444" d="M-63 1908v179h184v-179h-184zM145 0v1721h152v-1721h-152zM321 1908v179h184v-179h-184z" />
<glyph unicode="&#xd0;" horiz-adv-x="1128" d="M43 830v94h140v797h387q98 0 174 -26.5t125.5 -72t81 -111.5t45 -140t13.5 -163v-700q0 -508 -439 -508h-387v830h-140zM335 122h235q287 0 287 352v768q0 357 -287 357h-235v-675h200v-94h-200v-708z" />
<glyph unicode="&#xd1;" horiz-adv-x="1083" d="M146 0v1721h117l545 -1363v1363h129v-1721h-114l-546 1334v-1334h-131zM264 1920q1 19 3.5 37t14.5 47.5t30.5 50t54.5 36.5t84 16q28 0 94.5 -38t90.5 -38q29 0 45 14.5t21 52.5h116l-1 -14q-1 -13 -4.5 -28.5t-10 -36.5t-20 -39.5t-32 -35t-48.5 -26.5t-68 -10 t-103.5 39t-89.5 39q-28 0 -42.5 -14t-19.5 -52h-115z" />
<glyph unicode="&#xd2;" horiz-adv-x="1106" d="M114 499v721q0 91 13.5 167t45.5 143.5t81 114t125 73.5t174 27t174 -27t125 -73.5t81 -114t45.5 -143.5t13.5 -167v-721q0 -526 -439 -526t-439 526zM266 465q0 -370 287 -370t287 370v789q0 369 -287 369t-287 -369v-789zM296 2306h162l123 -398h-56z" />
<glyph unicode="&#xd3;" horiz-adv-x="1106" d="M114 499v721q0 91 13.5 167t45.5 143.5t81 114t125 73.5t174 27t174 -27t125 -73.5t81 -114t45.5 -143.5t13.5 -167v-721q0 -526 -439 -526t-439 526zM266 465q0 -370 287 -370t287 370v789q0 369 -287 369t-287 -369v-789zM525 1908l123 398h162l-229 -398h-56z" />
<glyph unicode="&#xd4;" horiz-adv-x="1106" d="M114 499v721q0 91 13.5 167t45.5 143.5t81 114t125 73.5t174 27t174 -27t125 -73.5t81 -114t45.5 -143.5t13.5 -167v-721q0 -526 -439 -526t-439 526zM266 465q0 -370 287 -370t287 370v789q0 369 -287 369t-287 -369v-789zM292 1908l156 307h213l153 -307h-110l-150 299 l-149 -299h-113z" />
<glyph unicode="&#xd5;" horiz-adv-x="1106" d="M114 499v721q0 91 13.5 167t45.5 143.5t81 114t125 73.5t174 27t174 -27t125 -73.5t81 -114t45.5 -143.5t13.5 -167v-721q0 -526 -439 -526t-439 526zM266 465q0 -370 287 -370t287 370v789q0 369 -287 369t-287 -369v-789zM276 1920q1 19 3.5 37t14.5 47.5t30.5 50 t54.5 36.5t84 16q28 0 94.5 -38t90.5 -38q29 0 45 14.5t21 52.5h116l-1 -14q-1 -13 -4.5 -28.5t-10 -36.5t-20 -39.5t-32 -35t-48.5 -26.5t-68 -10t-103.5 39t-89.5 39q-28 0 -42.5 -14t-19.5 -52h-115z" />
<glyph unicode="&#xd6;" horiz-adv-x="1106" d="M114 499v721q0 91 13.5 167t45.5 143.5t81 114t125 73.5t174 27t174 -27t125 -73.5t81 -114t45.5 -143.5t13.5 -167v-721q0 -526 -439 -526t-439 526zM266 465q0 -370 287 -370t287 370v789q0 369 -287 369t-287 -369v-789zM269 1908v179h184v-179h-184zM653 1908v179 h184v-179h-184z" />
<glyph unicode="&#xd7;" horiz-adv-x="674" d="M51 410l192 192l-192 192l76 75l192 -192l192 192l76 -75l-192 -192q167 -168 192 -192l-76 -76l-192 192l-192 -192z" />
<glyph unicode="&#xd8;" horiz-adv-x="1106" d="M114 499v721q0 91 13.5 167t45.5 143.5t81 114t125 73.5t174 27q137 0 232 -53l57 178l65 -20l-64 -198q149 -130 149 -432v-721q0 -526 -439 -526q-137 0 -233 52l-57 -177l-64 20l63 197q-148 128 -148 434zM266 465q0 -151 47 -241l429 1336q-68 63 -189 63 q-287 0 -287 -369v-789zM363 159q70 -64 190 -64q287 0 287 370v789q0 151 -47 241z" />
<glyph unicode="&#xd9;" horiz-adv-x="1132" d="M120 423v1298h152v-1333q0 -148 67 -220.5t226 -72.5q150 0 214 73t64 220v1333h151v-1298q0 -450 -429 -450q-103 0 -181.5 24t-128 64.5t-80.5 99t-43 122t-12 140.5zM300 2306h162l123 -398h-56z" />
<glyph unicode="&#xda;" horiz-adv-x="1132" d="M120 423v1298h152v-1333q0 -148 67 -220.5t226 -72.5q150 0 214 73t64 220v1333h151v-1298q0 -450 -429 -450q-103 0 -181.5 24t-128 64.5t-80.5 99t-43 122t-12 140.5zM529 1908l123 398h162l-229 -398h-56z" />
<glyph unicode="&#xdb;" horiz-adv-x="1132" d="M120 423v1298h152v-1333q0 -148 67 -220.5t226 -72.5q150 0 214 73t64 220v1333h151v-1298q0 -450 -429 -450q-103 0 -181.5 24t-128 64.5t-80.5 99t-43 122t-12 140.5zM296 1908l156 307h213l153 -307h-110l-150 299l-149 -299h-113z" />
<glyph unicode="&#xdc;" horiz-adv-x="1132" d="M120 423v1298h152v-1333q0 -148 67 -220.5t226 -72.5q150 0 214 73t64 220v1333h151v-1298q0 -450 -429 -450q-103 0 -181.5 24t-128 64.5t-80.5 99t-43 122t-12 140.5zM273 1908v179h184v-179h-184zM657 1908v179h184v-179h-184z" />
<glyph unicode="&#xdd;" horiz-adv-x="888" d="M-2 1721h154q20 -72 58 -203t78 -266t77.5 -259.5t61.5 -204.5l24 -79q64 235 148 519.5t142 492.5h149l-364 -1187v-534h-152v534zM416 1908l123 398h162l-229 -398h-56z" />
<glyph unicode="&#xde;" horiz-adv-x="1058" d="M146 0v1721h152v-259h269q90 0 160 -24.5t116 -66.5t76 -102t42.5 -126.5t12.5 -143.5q0 -79 -10.5 -146t-39 -133t-73 -111.5t-117.5 -74t-168 -28.5h-268v-506h-152zM298 628l286 -1q128 -1 183 88t55 281q0 178 -59 261t-179 83h-286v-712z" />
<glyph unicode="&#xdf;" horiz-adv-x="1053" d="M137 0v1338q0 98 31.5 177.5t84 129t118 75.5t135.5 26q69 0 132.5 -27t115 -77.5t82 -131.5t30.5 -182q0 -70 -23 -140.5t-73.5 -131.5t-119.5 -89q74 -17 131.5 -59.5t90.5 -95.5t54 -119.5t28 -123.5t7 -116q0 -480 -577 -480v116q107 0 185.5 21t123.5 54t72 83 t35.5 97.5t8.5 108.5q0 75 -8 135t-30 118t-57.5 97t-94.5 62.5t-138 23.5h-105v117h107q61 0 105.5 26t68.5 72.5t35 101t11 119.5q0 148 -60.5 230.5t-143.5 82.5q-85 0 -147.5 -80t-62.5 -223v-1335h-152z" />
<glyph unicode="&#xe0;" horiz-adv-x="808" d="M75 239q0 32 1 51.5t5.5 50.5t13 52t25 51.5t40.5 54t60 54t83 58t110.5 59t140.5 63.5v10q0 102 -9 174.5t-22 112t-33.5 61.5t-38.5 27.5t-44 5.5q-27 0 -48 -7.5t-45 -29t-40 -70t-20 -121.5v-7h-156q12 157 92.5 246.5t211.5 89.5q73 0 129 -23.5t88.5 -60 t52.5 -87.5t27 -99t7 -103v-576q0 -63 4.5 -132t9.5 -106l4 -38h-140l-19 145q-48 -84 -118.5 -128t-134.5 -44q-93 0 -165 73.5t-72 192.5zM142 1786h162l123 -398h-56zM226 267q0 -86 36 -127.5t85 -41.5q57 0 115.5 41t91.5 105v422q-73 -51 -115 -82t-88.5 -72.5 t-70 -75.5t-39 -77.5t-15.5 -91.5z" />
<glyph unicode="&#xe1;" horiz-adv-x="808" d="M75 239q0 32 1 51.5t5.5 50.5t13 52t25 51.5t40.5 54t60 54t83 58t110.5 59t140.5 63.5v10q0 102 -9 174.5t-22 112t-33.5 61.5t-38.5 27.5t-44 5.5q-27 0 -48 -7.5t-45 -29t-40 -70t-20 -121.5v-7h-156q12 157 92.5 246.5t211.5 89.5q73 0 129 -23.5t88.5 -60 t52.5 -87.5t27 -99t7 -103v-576q0 -63 4.5 -132t9.5 -106l4 -38h-140l-19 145q-48 -84 -118.5 -128t-134.5 -44q-93 0 -165 73.5t-72 192.5zM226 267q0 -86 36 -127.5t85 -41.5q57 0 115.5 41t91.5 105v422q-73 -51 -115 -82t-88.5 -72.5t-70 -75.5t-39 -77.5t-15.5 -91.5z M372 1388l123 398h162l-229 -398h-56z" />
<glyph unicode="&#xe2;" horiz-adv-x="808" d="M75 239q0 32 1 51.5t5.5 50.5t13 52t25 51.5t40.5 54t60 54t83 58t110.5 59t140.5 63.5v10q0 102 -9 174.5t-22 112t-33.5 61.5t-38.5 27.5t-44 5.5q-27 0 -48 -7.5t-45 -29t-40 -70t-20 -121.5v-7h-156q12 157 92.5 246.5t211.5 89.5q73 0 129 -23.5t88.5 -60 t52.5 -87.5t27 -99t7 -103v-576q0 -63 4.5 -132t9.5 -106l4 -38h-140l-19 145q-48 -84 -118.5 -128t-134.5 -44q-93 0 -165 73.5t-72 192.5zM138 1388l156 307h213l153 -307h-110l-150 299l-149 -299h-113zM226 267q0 -86 36 -127.5t85 -41.5q57 0 115.5 41t91.5 105v422 q-73 -51 -115 -82t-88.5 -72.5t-70 -75.5t-39 -77.5t-15.5 -91.5z" />
<glyph unicode="&#xe3;" horiz-adv-x="808" d="M75 239q0 32 1 51.5t5.5 50.5t13 52t25 51.5t40.5 54t60 54t83 58t110.5 59t140.5 63.5v10q0 102 -9 174.5t-22 112t-33.5 61.5t-38.5 27.5t-44 5.5q-27 0 -48 -7.5t-45 -29t-40 -70t-20 -121.5v-7h-156q12 157 92.5 246.5t211.5 89.5q73 0 129 -23.5t88.5 -60 t52.5 -87.5t27 -99t7 -103v-576q0 -63 4.5 -132t9.5 -106l4 -38h-140l-19 145q-48 -84 -118.5 -128t-134.5 -44q-93 0 -165 73.5t-72 192.5zM122 1400q1 19 3.5 37t14.5 47.5t30.5 50t54.5 36.5t84 16q28 0 94.5 -38t90.5 -38q29 0 45 14.5t21 52.5h116l-1 -14 q-1 -13 -4.5 -28.5t-10 -36.5t-20 -39.5t-32 -35t-48.5 -26.5t-68 -10t-103.5 39t-89.5 39q-28 0 -42.5 -14t-19.5 -52h-115zM226 267q0 -86 36 -127.5t85 -41.5q57 0 115.5 41t91.5 105v422q-73 -51 -115 -82t-88.5 -72.5t-70 -75.5t-39 -77.5t-15.5 -91.5z" />
<glyph unicode="&#xe4;" horiz-adv-x="808" d="M75 239q0 32 1 51.5t5.5 50.5t13 52t25 51.5t40.5 54t60 54t83 58t110.5 59t140.5 63.5v10q0 102 -9 174.5t-22 112t-33.5 61.5t-38.5 27.5t-44 5.5q-27 0 -48 -7.5t-45 -29t-40 -70t-20 -121.5v-7h-156q12 157 92.5 246.5t211.5 89.5q73 0 129 -23.5t88.5 -60 t52.5 -87.5t27 -99t7 -103v-576q0 -63 4.5 -132t9.5 -106l4 -38h-140l-19 145q-48 -84 -118.5 -128t-134.5 -44q-93 0 -165 73.5t-72 192.5zM115 1388v179h184v-179h-184zM226 267q0 -86 36 -127.5t85 -41.5q57 0 115.5 41t91.5 105v422q-73 -51 -115 -82t-88.5 -72.5 t-70 -75.5t-39 -77.5t-15.5 -91.5zM499 1388v179h184v-179h-184z" />
<glyph unicode="&#xe5;" horiz-adv-x="808" d="M75 239q0 32 1 51.5t5.5 50.5t13 52t25 51.5t40.5 54t60 54t83 58t110.5 59t140.5 63.5v10q0 102 -9 174.5t-22 112t-33.5 61.5t-38.5 27.5t-44 5.5q-27 0 -48 -7.5t-45 -29t-40 -70t-20 -121.5v-7h-156q12 157 92.5 246.5t211.5 89.5q73 0 129 -23.5t88.5 -60 t52.5 -87.5t27 -99t7 -103v-576q0 -63 4.5 -132t9.5 -106l4 -38h-140l-19 145q-48 -84 -118.5 -128t-134.5 -44q-93 0 -165 73.5t-72 192.5zM180 1606q0 88 56 153t163 65t163 -65t56 -153t-56 -153t-163 -65t-163 65t-56 153zM226 267q0 -86 36 -127.5t85 -41.5 q57 0 115.5 41t91.5 105v422q-73 -51 -115 -82t-88.5 -72.5t-70 -75.5t-39 -77.5t-15.5 -91.5zM258 1606q0 -59 34 -103t107 -44t107 44t34 103t-34 103t-107 44t-107 -44t-34 -103z" />
<glyph unicode="&#xe6;" horiz-adv-x="1255" d="M74 239q0 32 1 51t5.5 49.5t13 50t25 47.5t40.5 48.5t60 46.5t83 48t110.5 46.5t140.5 48.5v76q-1 100 -9.5 171t-21.5 109.5t-34 60t-38.5 27t-43.5 5.5t-47 -7t-44.5 -27.5t-39.5 -66.5t-21 -115q0 -3 -0.5 -9.5t-0.5 -9.5h-156q12 157 92.5 246.5t211.5 89.5 q165 0 232 -153q82 153 253 153q110 0 184 -73t74 -194q0 -58 -24 -107.5t-63 -83t-85.5 -60.5t-93 -43t-85.5 -26.5t-63 -13.5l-24 -4v-175q0 -143 22 -227.5t55.5 -114t84.5 -29.5q32 0 56.5 11t46 39.5t33.5 84t14 137.5v21h140l-2 -22q-6 -67 -16 -117.5t-31 -100.5 t-51 -82t-79 -52t-114 -20q-106 0 -175 62t-92 174q-19 -67 -55.5 -116.5t-79.5 -73.5t-81 -35t-71 -11q-93 0 -165 73.5t-72 192.5zM225 267q0 -83 30 -126.5t73 -43.5q58 0 104 45.5t71 111.5t37.5 128t12.5 107v97q-195 -70 -261.5 -133.5t-66.5 -185.5zM707 704 q80 16 137.5 40t89 49.5t49.5 58.5t22.5 59t4.5 59q0 65 -31 109.5t-86 44.5q-30 0 -55 -7t-43 -17t-32 -31t-23.5 -38.5t-16 -51t-9.5 -56.5t-4.5 -66.5t-2 -70.5t-0.5 -78v-4z" />
<glyph unicode="&#xe7;" horiz-adv-x="816" d="M106 568v62q0 80 1 122.5t7 116t17.5 114.5t35.5 94t58 80.5t87 47.5t121 20q69 0 121.5 -22.5t85 -58.5t53.5 -91t30 -110t13 -126q0 -2 0.5 -5.5t0.5 -5.5h-150v9q-6 169 -39.5 239t-114.5 70q-39 0 -67.5 -11t-48 -39t-31.5 -63.5t-19 -96t-9 -124.5t-2 -160v-62 q0 -281 35 -387.5t142 -106.5q79 0 112.5 72t41.5 247v10h151v-7q-3 -76 -11.5 -133.5t-29 -114.5t-53 -93.5t-86 -59t-125.5 -22.5q-60 0 -108 12t-81.5 40t-58 55.5t-39 78.5t-23 87t-12.5 103t-4.5 105.5t-0.5 113.5zM346 -349q147 0 147 67q0 31 -29 67.5t-74 66.5v134 h64v-115q142 -83 142 -162q0 -52 -66.5 -84.5t-183.5 -32.5v59z" />
<glyph unicode="&#xe8;" horiz-adv-x="829" d="M108 552v167q1 125 18 216.5t44.5 146.5t71 87.5t89.5 44t108 11.5q161 0 231.5 -114t70.5 -360q0 -75 -2 -123h-480v-183q0 -118 11.5 -193.5t36.5 -113.5t55 -51t76 -13q67 0 112.5 67.5t46.5 225.5h140q-6 -68 -16 -121t-31.5 -106t-53 -88t-81.5 -57t-115 -22 q-127 0 -197.5 50.5t-103.5 176t-31 352.5zM165 1786h162l123 -398h-56zM260 702h332q-1 40 0 81t-1 82.5t-5.5 79.5t-13.5 70.5t-25 56.5t-41 38t-60 14q-55 0 -90.5 -20t-55 -47t-28.5 -91t-10.5 -112.5t-1.5 -151.5z" />
<glyph unicode="&#xe9;" horiz-adv-x="829" d="M108 552v167q1 125 18 216.5t44.5 146.5t71 87.5t89.5 44t108 11.5q161 0 231.5 -114t70.5 -360q0 -75 -2 -123h-480v-183q0 -118 11.5 -193.5t36.5 -113.5t55 -51t76 -13q67 0 112.5 67.5t46.5 225.5h140q-6 -68 -16 -121t-31.5 -106t-53 -88t-81.5 -57t-115 -22 q-127 0 -197.5 50.5t-103.5 176t-31 352.5zM260 702h332q-1 40 0 81t-1 82.5t-5.5 79.5t-13.5 70.5t-25 56.5t-41 38t-60 14q-55 0 -90.5 -20t-55 -47t-28.5 -91t-10.5 -112.5t-1.5 -151.5zM394 1388l123 398h162l-229 -398h-56z" />
<glyph unicode="&#xea;" horiz-adv-x="829" d="M108 552v167q1 125 18 216.5t44.5 146.5t71 87.5t89.5 44t108 11.5q161 0 231.5 -114t70.5 -360q0 -75 -2 -123h-480v-183q0 -118 11.5 -193.5t36.5 -113.5t55 -51t76 -13q67 0 112.5 67.5t46.5 225.5h140q-6 -68 -16 -121t-31.5 -106t-53 -88t-81.5 -57t-115 -22 q-127 0 -197.5 50.5t-103.5 176t-31 352.5zM161 1388l156 307h213l153 -307h-110l-150 299l-149 -299h-113zM260 702h332q-1 40 0 81t-1 82.5t-5.5 79.5t-13.5 70.5t-25 56.5t-41 38t-60 14q-55 0 -90.5 -20t-55 -47t-28.5 -91t-10.5 -112.5t-1.5 -151.5z" />
<glyph unicode="&#xeb;" horiz-adv-x="829" d="M108 552v167q1 125 18 216.5t44.5 146.5t71 87.5t89.5 44t108 11.5q161 0 231.5 -114t70.5 -360q0 -75 -2 -123h-480v-183q0 -118 11.5 -193.5t36.5 -113.5t55 -51t76 -13q67 0 112.5 67.5t46.5 225.5h140q-6 -68 -16 -121t-31.5 -106t-53 -88t-81.5 -57t-115 -22 q-127 0 -197.5 50.5t-103.5 176t-31 352.5zM138 1388v179h184v-179h-184zM260 702h332q-1 40 0 81t-1 82.5t-5.5 79.5t-13.5 70.5t-25 56.5t-41 38t-60 14q-55 0 -90.5 -20t-55 -47t-28.5 -91t-10.5 -112.5t-1.5 -151.5zM522 1388v179h184v-179h-184z" />
<glyph unicode="&#xec;" horiz-adv-x="405" d="M-50 1786h162l123 -398h-56zM132 0v1198h150v-1198h-150z" />
<glyph unicode="&#xed;" horiz-adv-x="405" d="M132 0v1198h150v-1198h-150zM179 1388l123 398h162l-229 -398h-56z" />
<glyph unicode="&#xee;" horiz-adv-x="405" d="M-54 1388l156 307h213l153 -307h-110l-150 299l-149 -299h-113zM132 0v1198h150v-1198h-150z" />
<glyph unicode="&#xef;" horiz-adv-x="405" d="M-77 1388v179h184v-179h-184zM132 0v1198h150v-1198h-150zM307 1388v179h184v-179h-184z" />
<glyph unicode="&#xf0;" horiz-adv-x="877" d="M84 532v5q0 124 18 223.5t55 176.5t99 119.5t146 42.5q115 0 183 -45q-26 184 -68 304l-165 -37v95l128 29q-50 93 -123.5 130.5t-190.5 47.5l-14 122q167 -12 279.5 -75t182.5 -195l179 41v-95l-140 -32q104 -271 105 -854v-25q0 -264 -82 -400.5t-264 -136.5 q-87 0 -151.5 42t-102.5 119t-56 176t-18 222zM234 531q0 -164 21 -261.5t59 -136t98 -38.5q41 0 68.5 8.5t53.5 36t41.5 76.5t24.5 132.5t9 202.5q0 151 -15 380q-23 21 -80.5 33.5t-111.5 12.5q-56 0 -91.5 -38t-55.5 -135t-21 -259v-14z" />
<glyph unicode="&#xf1;" horiz-adv-x="860" d="M120 0v1198h150v-113q48 70 115 105t139 35q89 0 156.5 -74.5t67.5 -209.5v-941h-152v944q0 89 -35 129.5t-92 40.5q-47 0 -100.5 -32.5t-98.5 -88.5v-993h-150zM157 1400q1 19 3.5 37t14.5 47.5t30.5 50t54.5 36.5t84 16q28 0 94.5 -38t90.5 -38q29 0 45 14.5t21 52.5 h116l-1 -14q-1 -13 -4.5 -28.5t-10 -36.5t-20 -39.5t-32 -35t-48.5 -26.5t-68 -10t-103.5 39t-89.5 39q-28 0 -42.5 -14t-19.5 -52h-115z" />
<glyph unicode="&#xf2;" horiz-adv-x="846" d="M106 568v62q0 80 1 122.5t6.5 116t17 114.5t34.5 94t56.5 80.5t84.5 47.5t117 20t117 -20t84.5 -47.5t56.5 -80.5t34.5 -94t17 -114.5t6.5 -116t1 -122.5v-62q0 -67 -0.5 -101t-3 -94.5t-8 -93.5t-16.5 -82t-26.5 -76t-39.5 -59.5t-55 -49t-73.5 -28t-94.5 -11.5 t-94.5 11.5t-73.5 28t-55 49t-39.5 59.5t-26.5 76t-16.5 82t-8 93.5t-3 94.5t-0.5 101zM166 1786h162l123 -398h-56zM256 568q0 -282 33 -388t134 -106t134 106t33 388v62q0 95 -2 160t-8.5 124.5t-18 95.5t-30 63.5t-45 39t-63.5 11.5t-63.5 -11.5t-45.5 -39t-30 -63 t-17.5 -96t-8.5 -124.5t-2 -160v-62z" />
<glyph unicode="&#xf3;" horiz-adv-x="846" d="M106 568v62q0 80 1 122.5t6.5 116t17 114.5t34.5 94t56.5 80.5t84.5 47.5t117 20t117 -20t84.5 -47.5t56.5 -80.5t34.5 -94t17 -114.5t6.5 -116t1 -122.5v-62q0 -67 -0.5 -101t-3 -94.5t-8 -93.5t-16.5 -82t-26.5 -76t-39.5 -59.5t-55 -49t-73.5 -28t-94.5 -11.5 t-94.5 11.5t-73.5 28t-55 49t-39.5 59.5t-26.5 76t-16.5 82t-8 93.5t-3 94.5t-0.5 101zM256 568q0 -282 33 -388t134 -106t134 106t33 388v62q0 95 -2 160t-8.5 124.5t-18 95.5t-30 63.5t-45 39t-63.5 11.5t-63.5 -11.5t-45.5 -39t-30 -63t-17.5 -96t-8.5 -124.5t-2 -160 v-62zM395 1388l123 398h162l-229 -398h-56z" />
<glyph unicode="&#xf4;" horiz-adv-x="846" d="M106 568v62q0 80 1 122.5t6.5 116t17 114.5t34.5 94t56.5 80.5t84.5 47.5t117 20t117 -20t84.5 -47.5t56.5 -80.5t34.5 -94t17 -114.5t6.5 -116t1 -122.5v-62q0 -67 -0.5 -101t-3 -94.5t-8 -93.5t-16.5 -82t-26.5 -76t-39.5 -59.5t-55 -49t-73.5 -28t-94.5 -11.5 t-94.5 11.5t-73.5 28t-55 49t-39.5 59.5t-26.5 76t-16.5 82t-8 93.5t-3 94.5t-0.5 101zM162 1388l156 307h213l153 -307h-110l-150 299l-149 -299h-113zM256 568q0 -282 33 -388t134 -106t134 106t33 388v62q0 95 -2 160t-8.5 124.5t-18 95.5t-30 63.5t-45 39t-63.5 11.5 t-63.5 -11.5t-45.5 -39t-30 -63t-17.5 -96t-8.5 -124.5t-2 -160v-62z" />
<glyph unicode="&#xf5;" horiz-adv-x="846" d="M106 568v62q0 80 1 122.5t6.5 116t17 114.5t34.5 94t56.5 80.5t84.5 47.5t117 20t117 -20t84.5 -47.5t56.5 -80.5t34.5 -94t17 -114.5t6.5 -116t1 -122.5v-62q0 -67 -0.5 -101t-3 -94.5t-8 -93.5t-16.5 -82t-26.5 -76t-39.5 -59.5t-55 -49t-73.5 -28t-94.5 -11.5 t-94.5 11.5t-73.5 28t-55 49t-39.5 59.5t-26.5 76t-16.5 82t-8 93.5t-3 94.5t-0.5 101zM146 1400q1 19 3.5 37t14.5 47.5t30.5 50t54.5 36.5t84 16q28 0 94.5 -38t90.5 -38q29 0 45 14.5t21 52.5h116l-1 -14q-1 -13 -4.5 -28.5t-10 -36.5t-20 -39.5t-32 -35t-48.5 -26.5 t-68 -10t-103.5 39t-89.5 39q-28 0 -42.5 -14t-19.5 -52h-115zM256 568q0 -282 33 -388t134 -106t134 106t33 388v62q0 95 -2 160t-8.5 124.5t-18 95.5t-30 63.5t-45 39t-63.5 11.5t-63.5 -11.5t-45.5 -39t-30 -63t-17.5 -96t-8.5 -124.5t-2 -160v-62z" />
<glyph unicode="&#xf6;" horiz-adv-x="846" d="M106 568v62q0 80 1 122.5t6.5 116t17 114.5t34.5 94t56.5 80.5t84.5 47.5t117 20t117 -20t84.5 -47.5t56.5 -80.5t34.5 -94t17 -114.5t6.5 -116t1 -122.5v-62q0 -67 -0.5 -101t-3 -94.5t-8 -93.5t-16.5 -82t-26.5 -76t-39.5 -59.5t-55 -49t-73.5 -28t-94.5 -11.5 t-94.5 11.5t-73.5 28t-55 49t-39.5 59.5t-26.5 76t-16.5 82t-8 93.5t-3 94.5t-0.5 101zM139 1388v179h184v-179h-184zM256 568q0 -282 33 -388t134 -106t134 106t33 388v62q0 95 -2 160t-8.5 124.5t-18 95.5t-30 63.5t-45 39t-63.5 11.5t-63.5 -11.5t-45.5 -39t-30 -63 t-17.5 -96t-8.5 -124.5t-2 -160v-62zM523 1388v179h184v-179h-184z" />
<glyph unicode="&#xf7;" horiz-adv-x="674" d="M35 576v115h568v-115h-568zM227 233v179h184v-179h-184zM227 879v179h184v-179h-184z" />
<glyph unicode="&#xf8;" horiz-adv-x="850" d="M106 568v62q0 80 1 122.5t6.5 116t17 114.5t34.5 94t56.5 80.5t84.5 47.5t117 20q106 0 175 -47l97 303l49 -16l-104 -325q36 -40 57.5 -96t30 -134.5t10.5 -131t2 -148.5v-62q0 -67 -0.5 -101t-3 -94.5t-8 -93.5t-16.5 -82t-26.5 -76t-39.5 -59.5t-55 -49t-73.5 -28 t-94.5 -11.5q-86 0 -149 30l-83 -259l-48 16l87 271q-30 24 -52 57.5t-35 79.5t-21 85t-11.5 102.5t-4 101.5t-0.5 111zM256 568q0 -269 28 -370l268 838q-35 88 -129 88q-37 0 -63.5 -11.5t-45.5 -39t-30 -63t-17.5 -96t-8.5 -124.5t-2 -160v-62zM314 127q36 -53 109 -53 q101 0 134 106t33 388v62q0 214 -14 311z" />
<glyph unicode="&#xf9;" d="M112 257v941h152v-944q0 -89 35 -129.5t92 -40.5q47 0 100.5 32.5t98.5 88.5v993h150v-1198h-150v113q-48 -70 -115 -105t-139 -35q-89 0 -156.5 74.5t-67.5 209.5zM169 1786h162l123 -398h-56z" />
<glyph unicode="&#xfa;" d="M112 257v941h152v-944q0 -89 35 -129.5t92 -40.5q47 0 100.5 32.5t98.5 88.5v993h150v-1198h-150v113q-48 -70 -115 -105t-139 -35q-89 0 -156.5 74.5t-67.5 209.5zM398 1388l123 398h162l-229 -398h-56z" />
<glyph unicode="&#xfb;" d="M112 257v941h152v-944q0 -89 35 -129.5t92 -40.5q47 0 100.5 32.5t98.5 88.5v993h150v-1198h-150v113q-48 -70 -115 -105t-139 -35q-89 0 -156.5 74.5t-67.5 209.5zM165 1388l156 307h213l153 -307h-110l-150 299l-149 -299h-113z" />
<glyph unicode="&#xfc;" d="M112 257v941h152v-944q0 -89 35 -129.5t92 -40.5q47 0 100.5 32.5t98.5 88.5v993h150v-1198h-150v113q-48 -70 -115 -105t-139 -35q-89 0 -156.5 74.5t-67.5 209.5zM142 1388v179h184v-179h-184zM526 1388v179h184v-179h-184z" />
<glyph unicode="&#xfd;" horiz-adv-x="777" d="M37 1198h152l208 -1001l204 1001h152l-300 -1281q-30 -116 -119.5 -163.5t-253.5 -52.5h-3v123q120 8 175.5 40t55.5 90q0 73 -11 142zM367 1388l123 398h162l-229 -398h-56z" />
<glyph unicode="&#xfe;" horiz-adv-x="874" d="M120 -385v2106h150v-636q47 69 107.5 104.5t123.5 35.5q43 0 75 -8.5t70 -43t62 -94.5t40.5 -171.5t16.5 -266.5v-95q0 -108 -8.5 -195t-22 -145.5t-34.5 -102t-42 -68t-48 -39t-49 -19t-49 -4.5q-152 0 -242 140v-498h-150zM270 205q45 -54 98 -87.5t98 -33.5 q20 0 32.5 2t30 11t28.5 27t23 51.5t19 81.5t11.5 121t4.5 167v95q0 110 -5 192t-16.5 132.5t-23 82t-30 45.5t-33 18t-36.5 4q-94 0 -201 -119v-790z" />
<glyph unicode="&#xff;" horiz-adv-x="777" d="M37 1198h152l208 -1001l204 1001h152l-300 -1281q-30 -116 -119.5 -163.5t-253.5 -52.5h-3v123q120 8 175.5 40t55.5 90q0 73 -11 142zM111 1388v179h184v-179h-184zM495 1388v179h184v-179h-184z" />
<glyph unicode="&#x100;" horiz-adv-x="972" d="M47 0l340 1721h198l340 -1721h-154l-86 448h-397l-88 -448h-153zM265 1908v115h441v-115h-441zM306 549h360l-181 1014z" />
<glyph unicode="&#x101;" horiz-adv-x="808" d="M75 239q0 32 1 51.5t5.5 50.5t13 52t25 51.5t40.5 54t60 54t83 58t110.5 59t140.5 63.5v10q0 102 -9 174.5t-22 112t-33.5 61.5t-38.5 27.5t-44 5.5q-27 0 -48 -7.5t-45 -29t-40 -70t-20 -121.5v-7h-156q12 157 92.5 246.5t211.5 89.5q73 0 129 -23.5t88.5 -60 t52.5 -87.5t27 -99t7 -103v-576q0 -63 4.5 -132t9.5 -106l4 -38h-140l-19 145q-48 -84 -118.5 -128t-134.5 -44q-93 0 -165 73.5t-72 192.5zM179 1388v115h441v-115h-441zM226 267q0 -86 36 -127.5t85 -41.5q57 0 115.5 41t91.5 105v422q-73 -51 -115 -82t-88.5 -72.5 t-70 -75.5t-39 -77.5t-15.5 -91.5z" />
<glyph unicode="&#x102;" horiz-adv-x="972" d="M47 0l340 1721h198l340 -1721h-154l-86 448h-397l-88 -448h-153zM210 2176h111q14 -94 56.5 -126.5t108.5 -32.5t108.5 32.5t56.5 126.5h111q-3 -77 -30.5 -132.5t-70.5 -83.5t-86 -40t-89 -12t-89 12t-86 40t-70.5 83.5t-30.5 132.5zM306 549h360l-181 1014z" />
<glyph unicode="&#x103;" horiz-adv-x="808" d="M75 239q0 32 1 51.5t5.5 50.5t13 52t25 51.5t40.5 54t60 54t83 58t110.5 59t140.5 63.5v10q0 102 -9 174.5t-22 112t-33.5 61.5t-38.5 27.5t-44 5.5q-27 0 -48 -7.5t-45 -29t-40 -70t-20 -121.5v-7h-156q12 157 92.5 246.5t211.5 89.5q73 0 129 -23.5t88.5 -60 t52.5 -87.5t27 -99t7 -103v-576q0 -63 4.5 -132t9.5 -106l4 -38h-140l-19 145q-48 -84 -118.5 -128t-134.5 -44q-93 0 -165 73.5t-72 192.5zM124 1656h111q14 -94 56.5 -126.5t108.5 -32.5t108.5 32.5t56.5 126.5h111q-3 -77 -30.5 -132.5t-70.5 -83.5t-86 -40t-89 -12 t-89 12t-86 40t-70.5 83.5t-30.5 132.5zM226 267q0 -86 36 -127.5t85 -41.5q57 0 115.5 41t91.5 105v422q-73 -51 -115 -82t-88.5 -72.5t-70 -75.5t-39 -77.5t-15.5 -91.5z" />
<glyph unicode="&#x104;" horiz-adv-x="972" d="M47 0l340 1721h198l340 -1721h-154l-86 448h-397l-88 -448h-153zM306 549h360l-181 1014zM640 -207q0 69 54.5 132.5t100.5 86.5h69q-61 -55 -96 -105.5t-35 -104.5q0 -12 1.5 -21.5t6.5 -17t9 -13t13.5 -9.5t16 -7t21.5 -5t24 -3t28.5 -1.5t31 -0.5h35.5v-70 q-61 0 -100 2.5t-76.5 10.5t-58 23t-33 40.5t-12.5 62.5z" />
<glyph unicode="&#x105;" horiz-adv-x="808" d="M75 239q0 32 1 51.5t5.5 50.5t13 52t25 51.5t40.5 54t60 54t83 58t110.5 59t140.5 63.5v10q0 102 -9 174.5t-22 112t-33.5 61.5t-38.5 27.5t-44 5.5q-27 0 -48 -7.5t-45 -29t-40 -70t-20 -121.5v-7h-156q12 157 92.5 246.5t211.5 89.5q73 0 129 -23.5t88.5 -60 t52.5 -87.5t27 -99t7 -103v-576q0 -63 4.5 -132t9.5 -106l4 -38h-140l-19 145q-48 -84 -118.5 -128t-134.5 -44q-93 0 -165 73.5t-72 192.5zM226 267q0 -86 36 -127.5t85 -41.5q57 0 115.5 41t91.5 105v422q-73 -51 -115 -82t-88.5 -72.5t-70 -75.5t-39 -77.5t-15.5 -91.5z M444 -211q0 69 54.5 132.5t100.5 86.5h69q-61 -55 -96 -105.5t-35 -104.5q0 -12 1.5 -21.5t6.5 -17t9 -13t13.5 -9.5t16 -7t21.5 -5t24 -3t28.5 -1.5t31 -0.5h35.5v-70q-61 0 -100 2.5t-76.5 10.5t-58 23t-33 40.5t-12.5 62.5z" />
<glyph unicode="&#x106;" horiz-adv-x="1032" d="M114 499v721q0 92 12 167t42.5 143t78.5 114.5t122.5 73.5t172.5 27q404 0 404 -525v-70h-145v104q0 83 -12.5 147t-41.5 115.5t-80.5 79t-124.5 27.5q-66 0 -115 -18.5t-79.5 -50.5t-49 -80t-25.5 -100.5t-7 -119.5v-789q0 -85 12 -147.5t41.5 -115t85.5 -80t137 -27.5 q73 0 124.5 27.5t80.5 79.5t41.5 116t12.5 147v118h145v-84q0 -91 -11 -166t-39.5 -143.5t-73.5 -115t-116 -74t-164 -27.5q-100 0 -175.5 27.5t-123 74t-77 115t-41 143t-11.5 166.5zM502 1908l123 398h162l-229 -398h-56z" />
<glyph unicode="&#x107;" horiz-adv-x="816" d="M106 568v62q0 80 1 122.5t7 116t17.5 114.5t35.5 94t58 80.5t87 47.5t121 20q69 0 121.5 -22.5t85 -58.5t53.5 -91t30 -110t13 -126q0 -2 0.5 -5.5t0.5 -5.5h-150v9q-6 169 -39.5 239t-114.5 70q-39 0 -67.5 -11t-48 -39t-31.5 -63.5t-19 -96t-9 -124.5t-2 -160v-62 q0 -281 35 -387.5t142 -106.5q79 0 112.5 72t41.5 247v10h151v-7q-3 -76 -11.5 -133.5t-29 -114.5t-53 -93.5t-86 -59t-125.5 -22.5q-60 0 -108 12t-81.5 40t-58 55.5t-39 78.5t-23 87t-12.5 103t-4.5 105.5t-0.5 113.5zM394 1388l123 398h162l-229 -398h-56z" />
<glyph unicode="&#x108;" horiz-adv-x="1032" d="M114 499v721q0 92 12 167t42.5 143t78.5 114.5t122.5 73.5t172.5 27q404 0 404 -525v-70h-145v104q0 83 -12.5 147t-41.5 115.5t-80.5 79t-124.5 27.5q-66 0 -115 -18.5t-79.5 -50.5t-49 -80t-25.5 -100.5t-7 -119.5v-789q0 -85 12 -147.5t41.5 -115t85.5 -80t137 -27.5 q73 0 124.5 27.5t80.5 79.5t41.5 116t12.5 147v118h145v-84q0 -91 -11 -166t-39.5 -143.5t-73.5 -115t-116 -74t-164 -27.5q-100 0 -175.5 27.5t-123 74t-77 115t-41 143t-11.5 166.5zM269 1908l156 307h213l153 -307h-110l-150 299l-149 -299h-113z" />
<glyph unicode="&#x109;" horiz-adv-x="816" d="M106 568v62q0 80 1 122.5t7 116t17.5 114.5t35.5 94t58 80.5t87 47.5t121 20q69 0 121.5 -22.5t85 -58.5t53.5 -91t30 -110t13 -126q0 -2 0.5 -5.5t0.5 -5.5h-150v9q-6 169 -39.5 239t-114.5 70q-39 0 -67.5 -11t-48 -39t-31.5 -63.5t-19 -96t-9 -124.5t-2 -160v-62 q0 -281 35 -387.5t142 -106.5q79 0 112.5 72t41.5 247v10h151v-7q-3 -76 -11.5 -133.5t-29 -114.5t-53 -93.5t-86 -59t-125.5 -22.5q-60 0 -108 12t-81.5 40t-58 55.5t-39 78.5t-23 87t-12.5 103t-4.5 105.5t-0.5 113.5zM161 1388l156 307h213l153 -307h-110l-150 299 l-149 -299h-113z" />
<glyph unicode="&#x10a;" horiz-adv-x="1032" d="M114 499v721q0 92 12 167t42.5 143t78.5 114.5t122.5 73.5t172.5 27q404 0 404 -525v-70h-145v104q0 83 -12.5 147t-41.5 115.5t-80.5 79t-124.5 27.5q-66 0 -115 -18.5t-79.5 -50.5t-49 -80t-25.5 -100.5t-7 -119.5v-789q0 -85 12 -147.5t41.5 -115t85.5 -80t137 -27.5 q73 0 124.5 27.5t80.5 79.5t41.5 116t12.5 147v118h145v-84q0 -91 -11 -166t-39.5 -143.5t-73.5 -115t-116 -74t-164 -27.5q-100 0 -175.5 27.5t-123 74t-77 115t-41 143t-11.5 166.5zM438 1908v179h184v-179h-184z" />
<glyph unicode="&#x10b;" horiz-adv-x="816" d="M106 568v62q0 80 1 122.5t7 116t17.5 114.5t35.5 94t58 80.5t87 47.5t121 20q69 0 121.5 -22.5t85 -58.5t53.5 -91t30 -110t13 -126q0 -2 0.5 -5.5t0.5 -5.5h-150v9q-6 169 -39.5 239t-114.5 70q-39 0 -67.5 -11t-48 -39t-31.5 -63.5t-19 -96t-9 -124.5t-2 -160v-62 q0 -281 35 -387.5t142 -106.5q79 0 112.5 72t41.5 247v10h151v-7q-3 -76 -11.5 -133.5t-29 -114.5t-53 -93.5t-86 -59t-125.5 -22.5q-60 0 -108 12t-81.5 40t-58 55.5t-39 78.5t-23 87t-12.5 103t-4.5 105.5t-0.5 113.5zM330 1388v179h184v-179h-184z" />
<glyph unicode="&#x10c;" horiz-adv-x="1032" d="M114 499v721q0 92 12 167t42.5 143t78.5 114.5t122.5 73.5t172.5 27q404 0 404 -525v-70h-145v104q0 83 -12.5 147t-41.5 115.5t-80.5 79t-124.5 27.5q-66 0 -115 -18.5t-79.5 -50.5t-49 -80t-25.5 -100.5t-7 -119.5v-789q0 -85 12 -147.5t41.5 -115t85.5 -80t137 -27.5 q73 0 124.5 27.5t80.5 79.5t41.5 116t12.5 147v118h145v-84q0 -91 -11 -166t-39.5 -143.5t-73.5 -115t-116 -74t-164 -27.5q-100 0 -175.5 27.5t-123 74t-77 115t-41 143t-11.5 166.5zM293 2255h142l95 -237l95 237h142l-209 -347h-56z" />
<glyph unicode="&#x10d;" horiz-adv-x="816" d="M106 568v62q0 80 1 122.5t7 116t17.5 114.5t35.5 94t58 80.5t87 47.5t121 20q69 0 121.5 -22.5t85 -58.5t53.5 -91t30 -110t13 -126q0 -2 0.5 -5.5t0.5 -5.5h-150v9q-6 169 -39.5 239t-114.5 70q-39 0 -67.5 -11t-48 -39t-31.5 -63.5t-19 -96t-9 -124.5t-2 -160v-62 q0 -281 35 -387.5t142 -106.5q79 0 112.5 72t41.5 247v10h151v-7q-3 -76 -11.5 -133.5t-29 -114.5t-53 -93.5t-86 -59t-125.5 -22.5q-60 0 -108 12t-81.5 40t-58 55.5t-39 78.5t-23 87t-12.5 103t-4.5 105.5t-0.5 113.5zM185 1735h142l95 -237l95 237h142l-209 -347h-56z " />
<glyph unicode="&#x10e;" horiz-adv-x="1086" d="M146 0v1721h387q98 0 174 -26.5t125.5 -72t81 -111.5t45 -140t13.5 -163v-700q0 -508 -439 -508h-387zM298 122h235q287 0 287 352v768q0 357 -287 357h-235v-1477zM322 2255h142l95 -237l95 237h142l-209 -347h-56z" />
<glyph unicode="&#x10f;" horiz-adv-x="866" d="M101 546v95q0 155 16.5 266.5t40.5 171.5t62 94.5t70 43t75 8.5q63 0 123.5 -35.5t107.5 -104.5v636h150v-1721h-150v113q-90 -140 -242 -140q-27 0 -49 4.5t-49 19t-48 39t-42 68t-34.5 102t-22 145.5t-8.5 195zM251 545q0 -94 4.5 -167t11.5 -121t19 -81.5t23 -51.5 t28.5 -27t30 -11t32.5 -2q45 0 98 33.5t98 87.5v790q-107 119 -201 119q-22 0 -36.5 -4t-33 -18t-30 -45.5t-23 -82t-16.5 -132.5t-5 -192v-95zM991 1542v179h185v-23q0 -54 -0.5 -80.5t-1.5 -73t-5 -70t-10 -58t-16 -52.5t-24 -37.5t-34 -28.5t-45 -12l-27 55q32 12 55 38 t33 58t14 57.5t4 47.5h-128z" />
<glyph unicode="&#x110;" horiz-adv-x="1128" d="M43 830v94h140v797h387q98 0 174 -26.5t125.5 -72t81 -111.5t45 -140t13.5 -163v-700q0 -508 -439 -508h-387v830h-140zM335 122h235q287 0 287 352v768q0 357 -287 357h-235v-675h200v-94h-200v-708z" />
<glyph unicode="&#x111;" d="M101 546v95q0 155 16.5 266.5t40.5 171.5t62 94.5t70 43t75 8.5q63 0 123.5 -35.5t107.5 -104.5v314h-178v85h178v237h150v-237h114v-85h-114v-1399h-150v113q-90 -140 -242 -140q-27 0 -49 4.5t-49 19t-48 39t-42 68t-34.5 102t-22 145.5t-8.5 195zM251 545 q0 -94 4.5 -167t11.5 -121t19 -81.5t23 -51.5t28.5 -27t30 -11t32.5 -2q45 0 98 33.5t98 87.5v790q-107 119 -201 119q-22 0 -36.5 -4t-33 -18t-30 -45.5t-23 -82t-16.5 -132.5t-5 -192v-95z" />
<glyph unicode="&#x112;" horiz-adv-x="795" d="M146 0v1721h600v-122h-448v-652h320v-115h-320v-710h448v-122h-600zM225 1908v115h441v-115h-441z" />
<glyph unicode="&#x113;" horiz-adv-x="829" d="M108 552v167q1 125 18 216.5t44.5 146.5t71 87.5t89.5 44t108 11.5q161 0 231.5 -114t70.5 -360q0 -75 -2 -123h-480v-183q0 -118 11.5 -193.5t36.5 -113.5t55 -51t76 -13q67 0 112.5 67.5t46.5 225.5h140q-6 -68 -16 -121t-31.5 -106t-53 -88t-81.5 -57t-115 -22 q-127 0 -197.5 50.5t-103.5 176t-31 352.5zM202 1388v115h441v-115h-441zM260 702h332q-1 40 0 81t-1 82.5t-5.5 79.5t-13.5 70.5t-25 56.5t-41 38t-60 14q-55 0 -90.5 -20t-55 -47t-28.5 -91t-10.5 -112.5t-1.5 -151.5z" />
<glyph unicode="&#x116;" horiz-adv-x="795" d="M146 0v1721h600v-122h-448v-652h320v-115h-320v-710h448v-122h-600zM354 1867v179h184v-179h-184z" />
<glyph unicode="&#x117;" horiz-adv-x="829" d="M108 552v167q1 125 18 216.5t44.5 146.5t71 87.5t89.5 44t108 11.5q161 0 231.5 -114t70.5 -360q0 -75 -2 -123h-480v-183q0 -118 11.5 -193.5t36.5 -113.5t55 -51t76 -13q67 0 112.5 67.5t46.5 225.5h140q-6 -68 -16 -121t-31.5 -106t-53 -88t-81.5 -57t-115 -22 q-127 0 -197.5 50.5t-103.5 176t-31 352.5zM260 702h332q-1 40 0 81t-1 82.5t-5.5 79.5t-13.5 70.5t-25 56.5t-41 38t-60 14q-55 0 -90.5 -20t-55 -47t-28.5 -91t-10.5 -112.5t-1.5 -151.5zM330 1347v179h184v-179h-184z" />
<glyph unicode="&#x118;" horiz-adv-x="795" d="M146 0v1721h600v-122h-448v-652h320v-115h-320v-710h448v-122h-600zM291 -207q0 69 54.5 132.5t100.5 86.5h69q-61 -55 -96 -105.5t-35 -104.5q0 -12 1.5 -21.5t6.5 -17t9 -13t13.5 -9.5t16 -7t21.5 -5t24 -3t28.5 -1.5t31 -0.5h35.5v-70q-61 0 -100 2.5t-76.5 10.5 t-58 23t-33 40.5t-12.5 62.5z" />
<glyph unicode="&#x119;" horiz-adv-x="829" d="M108 552v167q1 125 18 216.5t44.5 146.5t71 87.5t89.5 44t108 11.5q161 0 231.5 -114t70.5 -360q0 -75 -2 -123h-480v-183q0 -118 11.5 -193.5t36.5 -113.5t55 -51t76 -13q67 0 112.5 67.5t46.5 225.5h140q-6 -68 -16 -121t-31.5 -106t-53 -88t-81.5 -57t-115 -22 q-127 0 -197.5 50.5t-103.5 176t-31 352.5zM233 -234q0 69 54.5 132.5t100.5 86.5h69q-61 -55 -96 -105.5t-35 -104.5q0 -12 1.5 -21.5t6.5 -17t9 -13t13.5 -9.5t16 -7t21.5 -5t24 -3t28.5 -1.5t31 -0.5h35.5v-70q-61 0 -100 2.5t-76.5 10.5t-58 23t-33 40.5t-12.5 62.5z M260 702h332q-1 40 0 81t-1 82.5t-5.5 79.5t-13.5 70.5t-25 56.5t-41 38t-60 14q-55 0 -90.5 -20t-55 -47t-28.5 -91t-10.5 -112.5t-1.5 -151.5z" />
<glyph unicode="&#x11a;" horiz-adv-x="795" d="M146 0v1721h600v-122h-448v-652h320v-115h-320v-710h448v-122h-600zM209 2255h142l95 -237l95 237h142l-209 -347h-56z" />
<glyph unicode="&#x11b;" horiz-adv-x="829" d="M108 552v167q1 125 18 216.5t44.5 146.5t71 87.5t89.5 44t108 11.5q161 0 231.5 -114t70.5 -360q0 -75 -2 -123h-480v-183q0 -118 11.5 -193.5t36.5 -113.5t55 -51t76 -13q67 0 112.5 67.5t46.5 225.5h140q-6 -68 -16 -121t-31.5 -106t-53 -88t-81.5 -57t-115 -22 q-127 0 -197.5 50.5t-103.5 176t-31 352.5zM185 1735h142l95 -237l95 237h142l-209 -347h-56zM260 702h332q-1 40 0 81t-1 82.5t-5.5 79.5t-13.5 70.5t-25 56.5t-41 38t-60 14q-55 0 -90.5 -20t-55 -47t-28.5 -91t-10.5 -112.5t-1.5 -151.5z" />
<glyph unicode="&#x11c;" horiz-adv-x="1088" d="M114 481v730q0 534 453 534q72 0 130.5 -16t99 -43.5t71 -70.5t48.5 -89t29 -107.5t15 -119t4 -128.5v-12h-152v13v13q0 73 -1.5 110.5t-7.5 99t-22 94t-42 68t-70 51t-104 15.5q-84 0 -144 -28.5t-93 -79.5t-47.5 -110t-14.5 -130v-860q0 -66 12 -118.5t41.5 -100.5 t88.5 -74.5t145 -26.5q79 0 135 28t84 76.5t39.5 100.5t11.5 115v291h-211v115h363v-821h-67l-45 168q-34 -89 -120.5 -142t-191.5 -53q-69 0 -126.5 12.5t-99.5 32.5t-75.5 51.5t-55 62.5t-37.5 72t-24 74t-12.5 75t-5.5 68t-1 60zM284 1908l156 307h213l153 -307h-110 l-150 299l-149 -299h-113z" />
<glyph unicode="&#x11d;" horiz-adv-x="881" d="M17 -236q0 101 65 179t159 126q-15 3 -48.5 12.5t-75 29.5t-41.5 39q0 13 3.5 28.5t11 33t15.5 34t20 36t21 34t22 33.5t20 28t18 24t12 17q-71 64 -105.5 165t-34.5 210q0 58 11 116t37.5 115.5t65 101.5t98 71t132.5 27q96 0 159.5 -46.5t123.5 -139.5q19 33 33.5 55 t38.5 52t52 49.5t58 26.5v-145q-38 -7 -79 -33.5t-72 -61.5q38 -106 38 -181q0 -72 -12 -136t-38.5 -120.5t-66.5 -97.5t-99 -64.5t-132 -23.5q-86 0 -144 24q-55 -104 -69 -172q-5 -23 27 -34t164 -38q41 -8 64 -13q82 -17 141 -36.5t110.5 -49t77.5 -72t26 -97.5 q0 -50 -16.5 -90.5t-42.5 -67.5t-63.5 -47t-73.5 -31t-78.5 -17.5t-72.5 -8t-61 -1.5q-399 0 -399 157zM159 -191q0 -23 10.5 -40t33 -27t42 -16t54.5 -8.5t53 -3t53 -0.5h13q265 0 265 129q0 71 -37 107.5t-122 52.5l-214 46q-50 -37 -100.5 -112t-50.5 -128zM192 1388 l156 307h213l153 -307h-110l-150 299l-149 -299h-113zM232 776q0 -37 3 -71.5t15.5 -80t32.5 -78t57.5 -55.5t87.5 -23t87 23t57 56t32 78t15.5 80t3.5 71q0 35 -3 70.5t-15.5 84t-32 84.5t-57 62t-87.5 26q-42 0 -75.5 -17.5t-54 -47.5t-34.5 -63.5t-20.5 -73t-9 -68.5 t-2.5 -57z" />
<glyph unicode="&#x11e;" horiz-adv-x="1088" d="M114 481v730q0 534 453 534q72 0 130.5 -16t99 -43.5t71 -70.5t48.5 -89t29 -107.5t15 -119t4 -128.5v-12h-152v13v13q0 73 -1.5 110.5t-7.5 99t-22 94t-42 68t-70 51t-104 15.5q-84 0 -144 -28.5t-93 -79.5t-47.5 -110t-14.5 -130v-860q0 -66 12 -118.5t41.5 -100.5 t88.5 -74.5t145 -26.5q79 0 135 28t84 76.5t39.5 100.5t11.5 115v291h-211v115h363v-821h-67l-45 168q-34 -89 -120.5 -142t-191.5 -53q-69 0 -126.5 12.5t-99.5 32.5t-75.5 51.5t-55 62.5t-37.5 72t-24 74t-12.5 75t-5.5 68t-1 60zM268 2176h111q14 -94 56.5 -126.5 t108.5 -32.5t108.5 32.5t56.5 126.5h111q-3 -77 -30.5 -132.5t-70.5 -83.5t-86 -40t-89 -12t-89 12t-86 40t-70.5 83.5t-30.5 132.5z" />
<glyph unicode="&#x11f;" horiz-adv-x="881" d="M17 -236q0 101 65 179t159 126q-15 3 -48.5 12.5t-75 29.5t-41.5 39q0 13 3.5 28.5t11 33t15.5 34t20 36t21 34t22 33.5t20 28t18 24t12 17q-71 64 -105.5 165t-34.5 210q0 58 11 116t37.5 115.5t65 101.5t98 71t132.5 27q96 0 159.5 -46.5t123.5 -139.5q19 33 33.5 55 t38.5 52t52 49.5t58 26.5v-145q-38 -7 -79 -33.5t-72 -61.5q38 -106 38 -181q0 -72 -12 -136t-38.5 -120.5t-66.5 -97.5t-99 -64.5t-132 -23.5q-86 0 -144 24q-55 -104 -69 -172q-5 -23 27 -34t164 -38q41 -8 64 -13q82 -17 141 -36.5t110.5 -49t77.5 -72t26 -97.5 q0 -50 -16.5 -90.5t-42.5 -67.5t-63.5 -47t-73.5 -31t-78.5 -17.5t-72.5 -8t-61 -1.5q-399 0 -399 157zM159 -191q0 -23 10.5 -40t33 -27t42 -16t54.5 -8.5t53 -3t53 -0.5h13q265 0 265 129q0 71 -37 107.5t-122 52.5l-214 46q-50 -37 -100.5 -112t-50.5 -128zM176 1656h111 q14 -94 56.5 -126.5t108.5 -32.5t108.5 32.5t56.5 126.5h111q-3 -77 -30.5 -132.5t-70.5 -83.5t-86 -40t-89 -12t-89 12t-86 40t-70.5 83.5t-30.5 132.5zM232 776q0 -37 3 -71.5t15.5 -80t32.5 -78t57.5 -55.5t87.5 -23t87 23t57 56t32 78t15.5 80t3.5 71q0 35 -3 70.5 t-15.5 84t-32 84.5t-57 62t-87.5 26q-42 0 -75.5 -17.5t-54 -47.5t-34.5 -63.5t-20.5 -73t-9 -68.5t-2.5 -57z" />
<glyph unicode="&#x120;" horiz-adv-x="1088" d="M114 481v730q0 534 453 534q72 0 130.5 -16t99 -43.5t71 -70.5t48.5 -89t29 -107.5t15 -119t4 -128.5v-12h-152v13v13q0 73 -1.5 110.5t-7.5 99t-22 94t-42 68t-70 51t-104 15.5q-84 0 -144 -28.5t-93 -79.5t-47.5 -110t-14.5 -130v-860q0 -66 12 -118.5t41.5 -100.5 t88.5 -74.5t145 -26.5q79 0 135 28t84 76.5t39.5 100.5t11.5 115v291h-211v115h363v-821h-67l-45 168q-34 -89 -120.5 -142t-191.5 -53q-69 0 -126.5 12.5t-99.5 32.5t-75.5 51.5t-55 62.5t-37.5 72t-24 74t-12.5 75t-5.5 68t-1 60zM453 1908v179h184v-179h-184z" />
<glyph unicode="&#x121;" horiz-adv-x="881" d="M17 -236q0 101 65 179t159 126q-15 3 -48.5 12.5t-75 29.5t-41.5 39q0 13 3.5 28.5t11 33t15.5 34t20 36t21 34t22 33.5t20 28t18 24t12 17q-71 64 -105.5 165t-34.5 210q0 58 11 116t37.5 115.5t65 101.5t98 71t132.5 27q96 0 159.5 -46.5t123.5 -139.5q19 33 33.5 55 t38.5 52t52 49.5t58 26.5v-145q-38 -7 -79 -33.5t-72 -61.5q38 -106 38 -181q0 -72 -12 -136t-38.5 -120.5t-66.5 -97.5t-99 -64.5t-132 -23.5q-86 0 -144 24q-55 -104 -69 -172q-5 -23 27 -34t164 -38q41 -8 64 -13q82 -17 141 -36.5t110.5 -49t77.5 -72t26 -97.5 q0 -50 -16.5 -90.5t-42.5 -67.5t-63.5 -47t-73.5 -31t-78.5 -17.5t-72.5 -8t-61 -1.5q-399 0 -399 157zM159 -191q0 -23 10.5 -40t33 -27t42 -16t54.5 -8.5t53 -3t53 -0.5h13q265 0 265 129q0 71 -37 107.5t-122 52.5l-214 46q-50 -37 -100.5 -112t-50.5 -128zM232 776 q0 -37 3 -71.5t15.5 -80t32.5 -78t57.5 -55.5t87.5 -23t87 23t57 56t32 78t15.5 80t3.5 71q0 35 -3 70.5t-15.5 84t-32 84.5t-57 62t-87.5 26q-42 0 -75.5 -17.5t-54 -47.5t-34.5 -63.5t-20.5 -73t-9 -68.5t-2.5 -57zM361 1388v179h184v-179h-184z" />
<glyph unicode="&#x122;" horiz-adv-x="1088" d="M114 481v730q0 534 453 534q72 0 130.5 -16t99 -43.5t71 -70.5t48.5 -89t29 -107.5t15 -119t4 -128.5v-12h-152v13v13q0 73 -1.5 110.5t-7.5 99t-22 94t-42 68t-70 51t-104 15.5q-84 0 -144 -28.5t-93 -79.5t-47.5 -110t-14.5 -130v-860q0 -66 12 -118.5t41.5 -100.5 t88.5 -74.5t145 -26.5q79 0 135 28t84 76.5t39.5 100.5t11.5 115v291h-211v115h363v-821h-67l-45 168q-34 -89 -120.5 -142t-191.5 -53q-69 0 -126.5 12.5t-99.5 32.5t-75.5 51.5t-55 62.5t-37.5 72t-24 74t-12.5 75t-5.5 68t-1 60zM452 -190h185v-24v-63t-1 -58.5t-2.5 -57 t-4.5 -50t-7.5 -47.5t-11 -39.5t-16 -35.5t-21.5 -26.5t-27 -21t-34 -10.5q-8 -2 -11 -2l-27 55q32 12 55 38t33 58t14 57.5t4 47.5h-128v179z" />
<glyph unicode="&#x123;" horiz-adv-x="929" d="M17 -236q0 101 65 179t159 126q-15 3 -48.5 12.5t-75 29.5t-41.5 39q0 13 3.5 28.5t11 33t15.5 34t20 36t21 34t22 33.5t20 28t18 24t12 17q-71 64 -105.5 165t-34.5 210q0 58 11 116t37.5 115.5t65 101.5t98 71t132.5 27q96 0 159.5 -46.5t123.5 -139.5q19 33 33.5 55 t38.5 52t52 49.5t58 26.5v-145q-38 -7 -79 -33.5t-72 -61.5q38 -106 38 -181q0 -72 -12 -136t-38.5 -120.5t-66.5 -97.5t-99 -64.5t-132 -23.5q-86 0 -144 24q-55 -104 -69 -172q-5 -23 27 -34t164 -38q41 -8 64 -13q82 -17 141 -36.5t110.5 -49t77.5 -72t26 -97.5 q0 -50 -16.5 -90.5t-42.5 -67.5t-63.5 -47t-73.5 -31t-78.5 -17.5t-72.5 -8t-61 -1.5q-399 0 -399 157zM159 -191q0 -23 10.5 -40t33 -27t42 -16t54.5 -8.5t53 -3t53 -0.5h13q265 0 265 129q0 71 -37 107.5t-122 52.5l-214 46q-50 -37 -100.5 -112t-50.5 -128zM232 776 q0 -37 3 -71.5t15.5 -80t32.5 -78t57.5 -55.5t87.5 -23t87 23t57 56t32 78t15.5 80t3.5 71q0 35 -3 70.5t-15.5 84t-32 84.5t-57 62t-87.5 26q-42 0 -75.5 -17.5t-54 -47.5t-34.5 -63.5t-20.5 -73t-9 -68.5t-2.5 -57zM365 1292v23q0 54 0.5 80.5t1.5 73t5 70t10 58t16 52.5 t24 37.5t34 28.5t45 12l27 -55q-32 -12 -55 -38t-33 -58t-14 -57.5t-4 -47.5h128v-179h-185z" />
<glyph unicode="&#x124;" horiz-adv-x="1126" d="M146 0v1721h152v-779h530v779h152v-1721h-152v836h-530v-836h-152zM302 1908l156 307h213l153 -307h-110l-150 299l-149 -299h-113z" />
<glyph unicode="&#x125;" horiz-adv-x="860" d="M120 0v1721h150v-636q45 70 113 105t139 35q92 0 159 -74t67 -209v-942h-152v934q0 180 -126 180q-49 0 -105 -34.5t-95 -87.5v-992h-150zM173 1884l156 307h213l153 -307h-110l-150 299l-149 -299h-113z" />
<glyph unicode="&#x126;" horiz-adv-x="1118" d="M100 1331v94h40v296h152v-296h530v296h152v-296h40v-94h-40v-1331h-152v836h-530v-836h-152v1331h-40zM292 942h530v389h-530v-389z" />
<glyph unicode="&#x127;" horiz-adv-x="912" d="M31 1403v95h123v223h150v-223h168v-95h-168v-318q46 71 110.5 105.5t133.5 34.5q93 0 163.5 -74t70.5 -209v-942h-152v934q0 78 -36.5 116t-84.5 38t-103 -26.5t-101 -69.5v-992h-151v1403h-123z" />
<glyph unicode="&#x128;" horiz-adv-x="444" d="M-56 1920q1 19 3.5 37t14.5 47.5t30.5 50t54.5 36.5t84 16q28 0 94.5 -38t90.5 -38q29 0 45 14.5t21 52.5h116l-1 -14q-1 -13 -4.5 -28.5t-10 -36.5t-20 -39.5t-32 -35t-48.5 -26.5t-68 -10t-103.5 39t-89.5 39q-28 0 -42.5 -14t-19.5 -52h-115zM145 0v1721h152v-1721 h-152z" />
<glyph unicode="&#x129;" horiz-adv-x="405" d="M-70 1400q1 19 3.5 37t14.5 47.5t30.5 50t54.5 36.5t84 16q28 0 94.5 -38t90.5 -38q29 0 45 14.5t21 52.5h116l-1 -14q-1 -13 -4.5 -28.5t-10 -36.5t-20 -39.5t-32 -35t-48.5 -26.5t-68 -10t-103.5 39t-89.5 39q-28 0 -42.5 -14t-19.5 -52h-115zM132 0v1198h150v-1198 h-150z" />
<glyph unicode="&#x12a;" horiz-adv-x="444" d="M1 1908v115h441v-115h-441zM145 0v1721h152v-1721h-152z" />
<glyph unicode="&#x12b;" horiz-adv-x="405" d="M-13 1388v115h441v-115h-441zM132 0v1198h150v-1198h-150z" />
<glyph unicode="&#x12c;" horiz-adv-x="444" d="M-55 2176h111q14 -94 56.5 -126.5t108.5 -32.5t108.5 32.5t56.5 126.5h111q-3 -77 -30.5 -132.5t-70.5 -83.5t-86 -40t-89 -12t-89 12t-86 40t-70.5 83.5t-30.5 132.5zM145 0v1721h152v-1721h-152z" />
<glyph unicode="&#x12d;" horiz-adv-x="405" d="M-69 1656h111q14 -94 56.5 -126.5t108.5 -32.5t108.5 32.5t56.5 126.5h111q-3 -77 -30.5 -132.5t-70.5 -83.5t-86 -40t-89 -12t-89 12t-86 40t-70.5 83.5t-30.5 132.5zM132 0v1198h150v-1198h-150z" />
<glyph unicode="&#x12e;" horiz-adv-x="444" d="M32 -207q0 69 54.5 132.5t100.5 86.5h69q-61 -55 -96 -105.5t-35 -104.5q0 -12 1.5 -21.5t6.5 -17t9 -13t13.5 -9.5t16 -7t21.5 -5t24 -3t28.5 -1.5t31 -0.5h35.5v-70q-61 0 -100 2.5t-76.5 10.5t-58 23t-33 40.5t-12.5 62.5zM145 0v1721h152v-1721h-152z" />
<glyph unicode="&#x12f;" horiz-adv-x="405" d="M18 -207q0 69 54.5 132.5t100.5 86.5h69q-61 -55 -96 -105.5t-35 -104.5q0 -12 1.5 -21.5t6.5 -17t9 -13t13.5 -9.5t16 -7t21.5 -5t24 -3t28.5 -1.5t31 -0.5h35.5v-70q-61 0 -100 2.5t-76.5 10.5t-58 23t-33 40.5t-12.5 62.5zM132 0v1198h150v-1198h-150zM132 1472v179 h150v-179h-150z" />
<glyph unicode="&#x130;" horiz-adv-x="444" d="M129 1908v179h184v-179h-184zM145 0v1721h152v-1721h-152z" />
<glyph unicode="&#x131;" horiz-adv-x="405" d="M132 0v1198h150v-1198h-150z" />
<glyph unicode="&#x132;" horiz-adv-x="1010" d="M145 0v1721h152v-1721h-152zM456 0v115q51 0 79 0.5t59.5 5.5t46 11.5t31 23.5t22 35.5t11 53t6.5 71t1 94.5v1311h152v-1311q0 -78 -3.5 -129t-15 -102t-33.5 -80.5t-58.5 -54t-90.5 -34.5t-128 -10h-79z" />
<glyph unicode="&#x133;" horiz-adv-x="833" d="M132 0v1198h150v-1198h-150zM132 1472v179h150v-179h-150zM361 -204q46 -2 56 -2q33 0 57.5 9t38.5 26.5t23 34.5t12 42.5t4 39.5t1 36v1216h150v-1244q0 -274 -261 -274q-40 0 -81 8v108zM553 1473v179h150v-179h-150z" />
<glyph unicode="&#x134;" horiz-adv-x="566" d="M12 0v115q51 0 79 0.5t59.5 5.5t46 11.5t31 23.5t22 35.5t11 53t6.5 71t1 94.5v1311h152v-1311q0 -78 -3.5 -129t-15 -102t-33.5 -80.5t-58.5 -54t-90.5 -34.5t-128 -10h-79zM48 1908l156 307h213l153 -307h-110l-150 299l-149 -299h-113z" />
<glyph unicode="&#x135;" horiz-adv-x="410" d="M-92 1388l156 307h213l153 -307h-110l-150 299l-149 -299h-113zM-72 -204q46 -2 56 -2q33 0 57.5 9t38.5 26.5t23 34.5t12 42.5t4 39.5t1 36v1216h150v-1244q0 -274 -261 -274q-40 0 -81 8v108z" />
<glyph unicode="&#x136;" horiz-adv-x="981" d="M146 0v1721h152v-905l459 905h157l-356 -710l437 -1011h-161l-368 909l-168 -302v-607h-152zM478 -163h185v-24v-63t-1 -58.5t-2.5 -57t-4.5 -50t-7.5 -47.5t-11 -39.5t-16 -35.5t-21.5 -26.5t-27 -21t-34 -10.5q-8 -2 -11 -2l-27 55q32 12 55 38t33 58t14 57.5t4 47.5 h-128v179z" />
<glyph unicode="&#x137;" horiz-adv-x="830" d="M120 0v1721h150v-1091l374 568h169l-287 -454l285 -744h-157l-235 653l-149 -183v-470h-150zM374 -163h185v-24v-63t-1 -58.5t-2.5 -57t-4.5 -50t-7.5 -47.5t-11 -39.5t-16 -35.5t-21.5 -26.5t-27 -21t-34 -10.5q-8 -2 -11 -2l-27 55q32 12 55 38t33 58t14 57.5t4 47.5 h-128v179z" />
<glyph unicode="&#x138;" horiz-adv-x="880" d="M120 0v1198h150v-598l374 598h171l-295 -481l296 -717h-162l-243 619l-141 -199v-420h-150z" />
<glyph unicode="&#x139;" horiz-adv-x="772" d="M146 0v1721h152v-1599h481v-122h-633zM434 1908l123 398h162l-229 -398h-56z" />
<glyph unicode="&#x13a;" horiz-adv-x="442" d="M146 0v1721h150v-1721h-150zM193 1884l123 398h162l-229 -398h-56z" />
<glyph unicode="&#x13b;" horiz-adv-x="772" d="M146 0v1721h152v-1599h481v-122h-633zM370 -163h185v-24v-63t-1 -58.5t-2.5 -57t-4.5 -50t-7.5 -47.5t-11 -39.5t-16 -35.5t-21.5 -26.5t-27 -21t-34 -10.5q-8 -2 -11 -2l-27 55q32 12 55 38t33 58t14 57.5t4 47.5h-128v179z" />
<glyph unicode="&#x13c;" horiz-adv-x="442" d="M128 -163h185v-24v-63t-1 -58.5t-2.5 -57t-4.5 -50t-7.5 -47.5t-11 -39.5t-16 -35.5t-21.5 -26.5t-27 -21t-34 -10.5q-8 -2 -11 -2l-27 55q32 12 55 38t33 58t14 57.5t4 47.5h-128v179zM146 0v1721h150v-1721h-150z" />
<glyph unicode="&#x13d;" horiz-adv-x="772" d="M146 0v1721h152v-1599h481v-122h-633zM1023 1566v179h185v-23q0 -54 -0.5 -80.5t-1.5 -73t-5 -70t-10 -58t-16 -52.5t-24 -37.5t-34 -28.5t-45 -12l-27 55q32 12 55 38t33 58t14 57.5t4 47.5h-128z" />
<glyph unicode="&#x13e;" horiz-adv-x="442" d="M146 0v1721h150v-1721h-150zM541 1542v179h185v-23q0 -54 -0.5 -80.5t-1.5 -73t-5 -70t-10 -58t-16 -52.5t-24 -37.5t-34 -28.5t-45 -12l-27 55q32 12 55 38t33 58t14 57.5t4 47.5h-128z" />
<glyph unicode="&#x13f;" horiz-adv-x="772" d="M146 0v1721h152v-1599h481v-122h-633zM500 783v179h185v-179h-185z" />
<glyph unicode="&#x140;" horiz-adv-x="888" d="M146 0v1721h150v-1721h-150zM573 704v179h185v-179h-185z" />
<glyph unicode="&#x141;" horiz-adv-x="827" d="M43 806v115l140 53v747h152v-690l251 96v-115l-251 -96v-794h481v-122h-633v859z" />
<glyph unicode="&#x142;" horiz-adv-x="530" d="M43 806v115l140 67v733h150v-660l136 66v-115l-136 -66v-946h-150v873z" />
<glyph unicode="&#x143;" horiz-adv-x="1083" d="M146 0v1721h117l545 -1363v1363h129v-1721h-114l-546 1334v-1334h-131zM514 1908l123 398h162l-229 -398h-56z" />
<glyph unicode="&#x144;" horiz-adv-x="860" d="M120 0v1198h150v-113q48 70 115 105t139 35q89 0 156.5 -74.5t67.5 -209.5v-941h-152v944q0 89 -35 129.5t-92 40.5q-47 0 -100.5 -32.5t-98.5 -88.5v-993h-150zM406 1388l123 398h162l-229 -398h-56z" />
<glyph unicode="&#x145;" horiz-adv-x="1083" d="M146 0v1721h117l545 -1363v1363h129v-1721h-114l-546 1334v-1334h-131zM449 -163h185v-24v-63t-1 -58.5t-2.5 -57t-4.5 -50t-7.5 -47.5t-11 -39.5t-16 -35.5t-21.5 -26.5t-27 -21t-34 -10.5q-8 -2 -11 -2l-27 55q32 12 55 38t33 58t14 57.5t4 47.5h-128v179z" />
<glyph unicode="&#x146;" horiz-adv-x="860" d="M120 0v1198h150v-113q48 70 115 105t139 35q89 0 156.5 -74.5t67.5 -209.5v-941h-152v944q0 89 -35 129.5t-92 40.5q-47 0 -100.5 -32.5t-98.5 -88.5v-993h-150zM341 -163h185v-24v-63t-1 -58.5t-2.5 -57t-4.5 -50t-7.5 -47.5t-11 -39.5t-16 -35.5t-21.5 -26.5t-27 -21 t-34 -10.5q-8 -2 -11 -2l-27 55q32 12 55 38t33 58t14 57.5t4 47.5h-128v179z" />
<glyph unicode="&#x147;" horiz-adv-x="1083" d="M146 0v1721h117l545 -1363v1363h129v-1721h-114l-546 1334v-1334h-131zM304 2255h142l95 -237l95 237h142l-209 -347h-56z" />
<glyph unicode="&#x148;" horiz-adv-x="860" d="M120 0v1198h150v-113q48 70 115 105t139 35q89 0 156.5 -74.5t67.5 -209.5v-941h-152v944q0 89 -35 129.5t-92 40.5q-47 0 -100.5 -32.5t-98.5 -88.5v-993h-150zM197 1735h142l95 -237l95 237h142l-209 -347h-56z" />
<glyph unicode="&#x14c;" horiz-adv-x="1106" d="M114 499v721q0 91 13.5 167t45.5 143.5t81 114t125 73.5t174 27t174 -27t125 -73.5t81 -114t45.5 -143.5t13.5 -167v-721q0 -526 -439 -526t-439 526zM266 465q0 -370 287 -370t287 370v789q0 369 -287 369t-287 -369v-789zM333 1908v115h441v-115h-441z" />
<glyph unicode="&#x14d;" horiz-adv-x="846" d="M106 568v62q0 80 1 122.5t6.5 116t17 114.5t34.5 94t56.5 80.5t84.5 47.5t117 20t117 -20t84.5 -47.5t56.5 -80.5t34.5 -94t17 -114.5t6.5 -116t1 -122.5v-62q0 -67 -0.5 -101t-3 -94.5t-8 -93.5t-16.5 -82t-26.5 -76t-39.5 -59.5t-55 -49t-73.5 -28t-94.5 -11.5 t-94.5 11.5t-73.5 28t-55 49t-39.5 59.5t-26.5 76t-16.5 82t-8 93.5t-3 94.5t-0.5 101zM203 1388v115h441v-115h-441zM256 568q0 -282 33 -388t134 -106t134 106t33 388v62q0 95 -2 160t-8.5 124.5t-18 95.5t-30 63.5t-45 39t-63.5 11.5t-63.5 -11.5t-45.5 -39t-30 -63 t-17.5 -96t-8.5 -124.5t-2 -160v-62z" />
<glyph unicode="&#x14e;" horiz-adv-x="1106" d="M114 499v721q0 91 13.5 167t45.5 143.5t81 114t125 73.5t174 27t174 -27t125 -73.5t81 -114t45.5 -143.5t13.5 -167v-721q0 -526 -439 -526t-439 526zM266 465q0 -370 287 -370t287 370v789q0 369 -287 369t-287 -369v-789zM277 2176h111q14 -94 56.5 -126.5t108.5 -32.5 t108.5 32.5t56.5 126.5h111q-3 -77 -30.5 -132.5t-70.5 -83.5t-86 -40t-89 -12t-89 12t-86 40t-70.5 83.5t-30.5 132.5z" />
<glyph unicode="&#x14f;" horiz-adv-x="846" d="M106 568v62q0 80 1 122.5t6.5 116t17 114.5t34.5 94t56.5 80.5t84.5 47.5t117 20t117 -20t84.5 -47.5t56.5 -80.5t34.5 -94t17 -114.5t6.5 -116t1 -122.5v-62q0 -67 -0.5 -101t-3 -94.5t-8 -93.5t-16.5 -82t-26.5 -76t-39.5 -59.5t-55 -49t-73.5 -28t-94.5 -11.5 t-94.5 11.5t-73.5 28t-55 49t-39.5 59.5t-26.5 76t-16.5 82t-8 93.5t-3 94.5t-0.5 101zM147 1656h111q14 -94 56.5 -126.5t108.5 -32.5t108.5 32.5t56.5 126.5h111q-3 -77 -30.5 -132.5t-70.5 -83.5t-86 -40t-89 -12t-89 12t-86 40t-70.5 83.5t-30.5 132.5zM256 568 q0 -282 33 -388t134 -106t134 106t33 388v62q0 95 -2 160t-8.5 124.5t-18 95.5t-30 63.5t-45 39t-63.5 11.5t-63.5 -11.5t-45.5 -39t-30 -63t-17.5 -96t-8.5 -124.5t-2 -160v-62z" />
<glyph unicode="&#x150;" horiz-adv-x="1106" d="M114 499v721q0 91 13.5 167t45.5 143.5t81 114t125 73.5t174 27t174 -27t125 -73.5t81 -114t45.5 -143.5t13.5 -167v-721q0 -526 -439 -526t-439 526zM266 465q0 -370 287 -370t287 370v789q0 369 -287 369t-287 -369v-789zM408 1908l106 313h160l-207 -313h-59z M639 1908l106 313h160l-207 -313h-59z" />
<glyph unicode="&#x151;" horiz-adv-x="846" d="M106 568v62q0 80 1 122.5t6.5 116t17 114.5t34.5 94t56.5 80.5t84.5 47.5t117 20t117 -20t84.5 -47.5t56.5 -80.5t34.5 -94t17 -114.5t6.5 -116t1 -122.5v-62q0 -67 -0.5 -101t-3 -94.5t-8 -93.5t-16.5 -82t-26.5 -76t-39.5 -59.5t-55 -49t-73.5 -28t-94.5 -11.5 t-94.5 11.5t-73.5 28t-55 49t-39.5 59.5t-26.5 76t-16.5 82t-8 93.5t-3 94.5t-0.5 101zM256 568q0 -282 33 -388t134 -106t134 106t33 388v62q0 95 -2 160t-8.5 124.5t-18 95.5t-30 63.5t-45 39t-63.5 11.5t-63.5 -11.5t-45.5 -39t-30 -63t-17.5 -96t-8.5 -124.5t-2 -160 v-62zM278 1388l106 313h160l-207 -313h-59zM509 1388l106 313h160l-207 -313h-59z" />
<glyph unicode="&#x152;" horiz-adv-x="1499" d="M115 499v721q0 501 439 501h887v-122h-448v-652h320v-115h-320v-710h448v-122h-887q-439 0 -439 499zM267 465q0 -341 287 -344h287v1478h-287q-81 0 -138.5 -26t-89 -75t-45.5 -108.5t-14 -135.5v-789z" />
<glyph unicode="&#x153;" horiz-adv-x="1332" d="M108 568v62q0 80 1 122.5t6.5 116t17 114.5t34.5 94t56.5 80.5t84.5 47.5t117 20q168 0 243 -121q42 68 105 94.5t150 26.5q161 0 231.5 -114t70.5 -360q0 -75 -2 -123h-480v-183q0 -118 11.5 -193.5t36.5 -113.5t55 -51t76 -13q66 0 111.5 68.5t47.5 224.5h139 q-6 -67 -16 -120t-31.5 -106.5t-53 -88.5t-81 -57t-114.5 -22q-93 0 -155 26.5t-101 87.5q-75 -114 -243 -114q-52 0 -94.5 11.5t-73.5 28t-55 49t-39.5 59.5t-26.5 76t-16.5 82t-8 93.5t-3 94.5t-0.5 101zM258 568q0 -282 33 -388t134 -106t134 106t33 388v62q0 95 -2 160 t-8.5 124.5t-18 95.5t-30 63.5t-45 39t-63.5 11.5t-63.5 -11.5t-45.5 -39t-30 -63t-17.5 -96t-8.5 -124.5t-2 -160v-62zM744 702h332v56q0 34 -0.5 52t-1 51t-2.5 51.5t-5.5 47.5t-9 45.5t-13 38t-18.5 34t-24.5 24.5t-32 17t-39.5 5q-30 0 -54.5 -6.5t-42.5 -16t-32 -29 t-23.5 -37t-16 -49t-10 -56.5t-5 -68.5t-2 -74.5t-0.5 -85z" />
<glyph unicode="&#x154;" horiz-adv-x="1067" d="M146 0v1721h459q87 0 153 -24t106.5 -63.5t65.5 -98t34.5 -121t9.5 -138.5q0 -329 -240 -417l266 -859h-162l-251 840h-289v-840h-152zM298 962h306q65 0 110 26t67.5 74t31.5 100t9 119q0 55 -5.5 99t-20 86t-38.5 70.5t-63 45.5t-91 17h-306v-637zM545 1908l123 398 h162l-229 -398h-56z" />
<glyph unicode="&#x155;" horiz-adv-x="534" d="M120 0v1198h150v-169q28 93 101 139.5t151 48.5v-151q-11 4 -23 4q-229 0 -229 -176v-894h-150zM293 1388l123 398h162l-229 -398h-56z" />
<glyph unicode="&#x156;" horiz-adv-x="1067" d="M146 0v1721h459q87 0 153 -24t106.5 -63.5t65.5 -98t34.5 -121t9.5 -138.5q0 -329 -240 -417l266 -859h-162l-251 840h-289v-840h-152zM298 962h306q65 0 110 26t67.5 74t31.5 100t9 119q0 55 -5.5 99t-20 86t-38.5 70.5t-63 45.5t-91 17h-306v-637zM480 -163h185v-24 v-63t-1 -58.5t-2.5 -57t-4.5 -50t-7.5 -47.5t-11 -39.5t-16 -35.5t-21.5 -26.5t-27 -21t-34 -10.5q-8 -2 -11 -2l-27 55q32 12 55 38t33 58t14 57.5t4 47.5h-128v179z" />
<glyph unicode="&#x157;" horiz-adv-x="534" d="M120 0v1198h150v-169q28 93 101 139.5t151 48.5v-151q-11 4 -23 4q-229 0 -229 -176v-894h-150zM228 -163h185v-24v-63t-1 -58.5t-2.5 -57t-4.5 -50t-7.5 -47.5t-11 -39.5t-16 -35.5t-21.5 -26.5t-27 -21t-34 -10.5q-8 -2 -11 -2l-27 55q32 12 55 38t33 58t14 57.5 t4 47.5h-128v179z" />
<glyph unicode="&#x158;" horiz-adv-x="1067" d="M146 0v1721h459q87 0 153 -24t106.5 -63.5t65.5 -98t34.5 -121t9.5 -138.5q0 -329 -240 -417l266 -859h-162l-251 840h-289v-840h-152zM298 962h306q65 0 110 26t67.5 74t31.5 100t9 119q0 55 -5.5 99t-20 86t-38.5 70.5t-63 45.5t-91 17h-306v-637zM336 2255h142 l95 -237l95 237h142l-209 -347h-56z" />
<glyph unicode="&#x159;" horiz-adv-x="534" d="M84 1735h142l95 -237l95 237h142l-209 -347h-56zM120 0v1198h150v-169q28 93 101 139.5t151 48.5v-151q-11 4 -23 4q-229 0 -229 -176v-894h-150z" />
<glyph unicode="&#x15a;" horiz-adv-x="948" d="M68 415l134 39q8 -72 28.5 -133t55.5 -113.5t92.5 -82.5t130.5 -30q117 0 181 65t64 184q0 99 -58.5 191t-172.5 212l-269 283q-88 93 -135 174t-47 170q0 169 111 270t285 101q169 0 272 -95.5t137 -277.5l3 -16l-128 -40l-2 14q-20 129 -92.5 211t-189.5 82 q-114 0 -181.5 -58t-67.5 -171q0 -68 36.5 -134t104.5 -140l253 -275q10 -11 50 -54.5t52.5 -57.5t46 -54t46 -60.5t35.5 -58t31.5 -65.5t16.5 -65t8 -73q0 -184 -113.5 -284t-293.5 -100q-92 0 -167 35.5t-126.5 97.5t-84 140t-46.5 169zM456 1908l123 398h162l-229 -398 h-56z" />
<glyph unicode="&#x15b;" horiz-adv-x="749" d="M57 300l115 39q14 -44 34.5 -85t49.5 -82t68.5 -66t82.5 -25q79 0 118.5 48t39.5 130q0 115 -205 295l-87 76q-99 87 -149.5 155.5t-50.5 153.5q0 135 82 209.5t219 74.5q65 0 118 -25t89 -69.5t60.5 -96t39.5 -113.5l-133 -41q-9 56 -28.5 106t-60 90.5t-92.5 40.5 q-67 0 -106.5 -45.5t-39.5 -117.5q0 -60 38.5 -114t111.5 -116l95 -82q46 -40 70.5 -62.5t62 -64t56.5 -75t34.5 -80.5t16.5 -96q0 -134 -84.5 -211.5t-220.5 -77.5q-132 0 -220.5 92.5t-123.5 234.5zM354 1388l123 398h162l-229 -398h-56z" />
<glyph unicode="&#x15c;" horiz-adv-x="948" d="M68 415l134 39q8 -72 28.5 -133t55.5 -113.5t92.5 -82.5t130.5 -30q117 0 181 65t64 184q0 99 -58.5 191t-172.5 212l-269 283q-88 93 -135 174t-47 170q0 169 111 270t285 101q169 0 272 -95.5t137 -277.5l3 -16l-128 -40l-2 14q-20 129 -92.5 211t-189.5 82 q-114 0 -181.5 -58t-67.5 -171q0 -68 36.5 -134t104.5 -140l253 -275q10 -11 50 -54.5t52.5 -57.5t46 -54t46 -60.5t35.5 -58t31.5 -65.5t16.5 -65t8 -73q0 -184 -113.5 -284t-293.5 -100q-92 0 -167 35.5t-126.5 97.5t-84 140t-46.5 169zM222 1908l156 307h213l153 -307 h-110l-150 299l-149 -299h-113z" />
<glyph unicode="&#x15d;" horiz-adv-x="749" d="M57 300l115 39q14 -44 34.5 -85t49.5 -82t68.5 -66t82.5 -25q79 0 118.5 48t39.5 130q0 115 -205 295l-87 76q-99 87 -149.5 155.5t-50.5 153.5q0 135 82 209.5t219 74.5q65 0 118 -25t89 -69.5t60.5 -96t39.5 -113.5l-133 -41q-9 56 -28.5 106t-60 90.5t-92.5 40.5 q-67 0 -106.5 -45.5t-39.5 -117.5q0 -60 38.5 -114t111.5 -116l95 -82q46 -40 70.5 -62.5t62 -64t56.5 -75t34.5 -80.5t16.5 -96q0 -134 -84.5 -211.5t-220.5 -77.5q-132 0 -220.5 92.5t-123.5 234.5zM120 1388l156 307h213l153 -307h-110l-150 299l-149 -299h-113z" />
<glyph unicode="&#x15e;" horiz-adv-x="948" d="M68 415l134 39q8 -72 28.5 -133t55.5 -113.5t92.5 -82.5t130.5 -30q117 0 181 65t64 184q0 99 -58.5 191t-172.5 212l-269 283q-88 93 -135 174t-47 170q0 169 111 270t285 101q169 0 272 -95.5t137 -277.5l3 -16l-128 -40l-2 14q-20 129 -92.5 211t-189.5 82 q-114 0 -181.5 -58t-67.5 -171q0 -68 36.5 -134t104.5 -140l253 -275q10 -11 50 -54.5t52.5 -57.5t46 -54t46 -60.5t35.5 -58t31.5 -65.5t16.5 -65t8 -73q0 -184 -113.5 -284t-293.5 -100q-92 0 -167 35.5t-126.5 97.5t-84 140t-46.5 169zM407 -349q147 0 147 67 q0 31 -29 67.5t-74 66.5v134h64v-115q142 -83 142 -162q0 -52 -66.5 -84.5t-183.5 -32.5v59z" />
<glyph unicode="&#x15f;" horiz-adv-x="749" d="M57 300l115 39q14 -44 34.5 -85t49.5 -82t68.5 -66t82.5 -25q79 0 118.5 48t39.5 130q0 115 -205 295l-87 76q-99 87 -149.5 155.5t-50.5 153.5q0 135 82 209.5t219 74.5q65 0 118 -25t89 -69.5t60.5 -96t39.5 -113.5l-133 -41q-9 56 -28.5 106t-60 90.5t-92.5 40.5 q-67 0 -106.5 -45.5t-39.5 -117.5q0 -60 38.5 -114t111.5 -116l95 -82q46 -40 70.5 -62.5t62 -64t56.5 -75t34.5 -80.5t16.5 -96q0 -134 -84.5 -211.5t-220.5 -77.5q-132 0 -220.5 92.5t-123.5 234.5zM305 -349q147 0 147 67q0 31 -29 67.5t-74 66.5v134h64v-115 q142 -83 142 -162q0 -52 -66.5 -84.5t-183.5 -32.5v59z" />
<glyph unicode="&#x160;" horiz-adv-x="948" d="M68 415l134 39q8 -72 28.5 -133t55.5 -113.5t92.5 -82.5t130.5 -30q117 0 181 65t64 184q0 99 -58.5 191t-172.5 212l-269 283q-88 93 -135 174t-47 170q0 169 111 270t285 101q169 0 272 -95.5t137 -277.5l3 -16l-128 -40l-2 14q-20 129 -92.5 211t-189.5 82 q-114 0 -181.5 -58t-67.5 -171q0 -68 36.5 -134t104.5 -140l253 -275q10 -11 50 -54.5t52.5 -57.5t46 -54t46 -60.5t35.5 -58t31.5 -65.5t16.5 -65t8 -73q0 -184 -113.5 -284t-293.5 -100q-92 0 -167 35.5t-126.5 97.5t-84 140t-46.5 169zM246 2255h142l95 -237l95 237h142 l-209 -347h-56z" />
<glyph unicode="&#x161;" horiz-adv-x="749" d="M57 300l115 39q14 -44 34.5 -85t49.5 -82t68.5 -66t82.5 -25q79 0 118.5 48t39.5 130q0 115 -205 295l-87 76q-99 87 -149.5 155.5t-50.5 153.5q0 135 82 209.5t219 74.5q65 0 118 -25t89 -69.5t60.5 -96t39.5 -113.5l-133 -41q-9 56 -28.5 106t-60 90.5t-92.5 40.5 q-67 0 -106.5 -45.5t-39.5 -117.5q0 -60 38.5 -114t111.5 -116l95 -82q46 -40 70.5 -62.5t62 -64t56.5 -75t34.5 -80.5t16.5 -96q0 -134 -84.5 -211.5t-220.5 -77.5q-132 0 -220.5 92.5t-123.5 234.5zM144 1735h142l95 -237l95 237h142l-209 -347h-56z" />
<glyph unicode="&#x162;" horiz-adv-x="753" d="M-36 1599v122h825v-122h-338v-1599h-152v1599h-335zM299 -322q147 0 147 67q0 31 -29 67.5t-74 66.5v134h64v-115q142 -83 142 -162q0 -52 -66.5 -84.5t-183.5 -32.5v59z" />
<glyph unicode="&#x163;" horiz-adv-x="550" d="M4 1114v84h163v425h150v-425h192v-84h-192v-824q0 -43 1 -67.5t6.5 -53t16 -42.5t30 -23.5t48.5 -9.5q49 0 88 8v-103q-67 -17 -130 -17q-56 0 -96 17.5t-61.5 43.5t-34 69t-15.5 80.5t-3 90.5v831h-163zM301 -340q147 0 147 67q0 31 -29 67.5t-74 66.5v134h64v-115 q142 -83 142 -162q0 -52 -66.5 -84.5t-183.5 -32.5v59z" />
<glyph unicode="&#x164;" horiz-adv-x="753" d="M-36 1599v122h825v-122h-338v-1599h-152v1599h-335zM140 2255h142l95 -237l95 237h142l-209 -347h-56z" />
<glyph unicode="&#x165;" horiz-adv-x="550" d="M4 1114v84h163v425h150v-425h192v-84h-192v-824q0 -43 1 -67.5t6.5 -53t16 -42.5t30 -23.5t48.5 -9.5q49 0 88 8v-103q-67 -17 -130 -17q-56 0 -96 17.5t-61.5 43.5t-34 69t-15.5 80.5t-3 90.5v831h-163zM753 1444v179h185v-23q0 -54 -0.5 -80.5t-1.5 -73t-5 -70t-10 -58 t-16 -52.5t-24 -37.5t-34 -28.5t-45 -12l-27 55q32 12 55 38t33 58t14 57.5t4 47.5h-128z" />
<glyph unicode="&#x168;" horiz-adv-x="1132" d="M120 423v1298h152v-1333q0 -148 67 -220.5t226 -72.5q150 0 214 73t64 220v1333h151v-1298q0 -450 -429 -450q-103 0 -181.5 24t-128 64.5t-80.5 99t-43 122t-12 140.5zM280 1920q1 19 3.5 37t14.5 47.5t30.5 50t54.5 36.5t84 16q28 0 94.5 -38t90.5 -38q29 0 45 14.5 t21 52.5h116l-1 -14q-1 -13 -4.5 -28.5t-10 -36.5t-20 -39.5t-32 -35t-48.5 -26.5t-68 -10t-103.5 39t-89.5 39q-28 0 -42.5 -14t-19.5 -52h-115z" />
<glyph unicode="&#x169;" d="M112 257v941h152v-944q0 -89 35 -129.5t92 -40.5q47 0 100.5 32.5t98.5 88.5v993h150v-1198h-150v113q-48 -70 -115 -105t-139 -35q-89 0 -156.5 74.5t-67.5 209.5zM149 1400q1 19 3.5 37t14.5 47.5t30.5 50t54.5 36.5t84 16q28 0 94.5 -38t90.5 -38q29 0 45 14.5 t21 52.5h116l-1 -14q-1 -13 -4.5 -28.5t-10 -36.5t-20 -39.5t-32 -35t-48.5 -26.5t-68 -10t-103.5 39t-89.5 39q-28 0 -42.5 -14t-19.5 -52h-115z" />
<glyph unicode="&#x16a;" horiz-adv-x="1132" d="M120 423v1298h152v-1333q0 -148 67 -220.5t226 -72.5q150 0 214 73t64 220v1333h151v-1298q0 -450 -429 -450q-103 0 -181.5 24t-128 64.5t-80.5 99t-43 122t-12 140.5zM337 1908v115h441v-115h-441z" />
<glyph unicode="&#x16b;" d="M112 257v941h152v-944q0 -89 35 -129.5t92 -40.5q47 0 100.5 32.5t98.5 88.5v993h150v-1198h-150v113q-48 -70 -115 -105t-139 -35q-89 0 -156.5 74.5t-67.5 209.5zM205 1388v115h441v-115h-441z" />
<glyph unicode="&#x16c;" horiz-adv-x="1132" d="M120 423v1298h152v-1333q0 -148 67 -220.5t226 -72.5q150 0 214 73t64 220v1333h151v-1298q0 -450 -429 -450q-103 0 -181.5 24t-128 64.5t-80.5 99t-43 122t-12 140.5zM281 2176h111q14 -94 56.5 -126.5t108.5 -32.5t108.5 32.5t56.5 126.5h111q-3 -77 -30.5 -132.5 t-70.5 -83.5t-86 -40t-89 -12t-89 12t-86 40t-70.5 83.5t-30.5 132.5z" />
<glyph unicode="&#x16d;" d="M112 257v941h152v-944q0 -89 35 -129.5t92 -40.5q47 0 100.5 32.5t98.5 88.5v993h150v-1198h-150v113q-48 -70 -115 -105t-139 -35q-89 0 -156.5 74.5t-67.5 209.5zM150 1656h111q14 -94 56.5 -126.5t108.5 -32.5t108.5 32.5t56.5 126.5h111q-3 -77 -30.5 -132.5 t-70.5 -83.5t-86 -40t-89 -12t-89 12t-86 40t-70.5 83.5t-30.5 132.5z" />
<glyph unicode="&#x16e;" horiz-adv-x="1132" d="M120 423v1298h152v-1333q0 -148 67 -220.5t226 -72.5q150 0 214 73t64 220v1333h151v-1298q0 -450 -429 -450q-103 0 -181.5 24t-128 64.5t-80.5 99t-43 122t-12 140.5zM338 2126q0 88 56 153t163 65t163 -65t56 -153t-56 -153t-163 -65t-163 65t-56 153zM416 2126 q0 -59 34 -103t107 -44t107 44t34 103t-34 103t-107 44t-107 -44t-34 -103z" />
<glyph unicode="&#x16f;" d="M112 257v941h152v-944q0 -89 35 -129.5t92 -40.5q47 0 100.5 32.5t98.5 88.5v993h150v-1198h-150v113q-48 -70 -115 -105t-139 -35q-89 0 -156.5 74.5t-67.5 209.5zM207 1606q0 88 56 153t163 65t163 -65t56 -153t-56 -153t-163 -65t-163 65t-56 153zM285 1606 q0 -59 34 -103t107 -44t107 44t34 103t-34 103t-107 44t-107 -44t-34 -103z" />
<glyph unicode="&#x170;" horiz-adv-x="1132" d="M120 423v1298h152v-1333q0 -148 67 -220.5t226 -72.5q150 0 214 73t64 220v1333h151v-1298q0 -450 -429 -450q-103 0 -181.5 24t-128 64.5t-80.5 99t-43 122t-12 140.5zM412 1908l106 313h160l-207 -313h-59zM643 1908l106 313h160l-207 -313h-59z" />
<glyph unicode="&#x171;" d="M112 257v941h152v-944q0 -89 35 -129.5t92 -40.5q47 0 100.5 32.5t98.5 88.5v993h150v-1198h-150v113q-48 -70 -115 -105t-139 -35q-89 0 -156.5 74.5t-67.5 209.5zM281 1388l106 313h160l-207 -313h-59zM512 1388l106 313h160l-207 -313h-59z" />
<glyph unicode="&#x172;" horiz-adv-x="1132" d="M120 423v1298h152v-1333q0 -148 67 -220.5t226 -72.5q150 0 214 73t64 220v1333h151v-1298q0 -450 -429 -450q-103 0 -181.5 24t-128 64.5t-80.5 99t-43 122t-12 140.5zM368 -234q0 69 54.5 132.5t100.5 86.5h69q-61 -55 -96 -105.5t-35 -104.5q0 -12 1.5 -21.5t6.5 -17 t9 -13t13.5 -9.5t16 -7t21.5 -5t24 -3t28.5 -1.5t31 -0.5h35.5v-70q-61 0 -100 2.5t-76.5 10.5t-58 23t-33 40.5t-12.5 62.5z" />
<glyph unicode="&#x173;" d="M112 257v941h152v-944q0 -89 35 -129.5t92 -40.5q47 0 100.5 32.5t98.5 88.5v993h150v-1198h-150v113q-48 -70 -115 -105t-139 -35q-89 0 -156.5 74.5t-67.5 209.5zM271 -234q0 69 54.5 132.5t100.5 86.5h69q-61 -55 -96 -105.5t-35 -104.5q0 -12 1.5 -21.5t6.5 -17 t9 -13t13.5 -9.5t16 -7t21.5 -5t24 -3t28.5 -1.5t31 -0.5h35.5v-70q-61 0 -100 2.5t-76.5 10.5t-58 23t-33 40.5t-12.5 62.5z" />
<glyph unicode="&#x174;" horiz-adv-x="1416" d="M23 1721h142l235 -1472l222 1472h193l203 -1472l234 1472h141l-286 -1721h-175l-215 1520l-232 -1520h-174zM447 1908l156 307h213l153 -307h-110l-150 299l-149 -299h-113z" />
<glyph unicode="&#x175;" horiz-adv-x="1161" d="M42 1198h131l158 -1022l171 1022h160l184 -1022l144 1022h129l-196 -1198h-145l-193 988l-186 -988h-159zM320 1388l156 307h213l153 -307h-110l-150 299l-149 -299h-113z" />
<glyph unicode="&#x176;" horiz-adv-x="888" d="M-2 1721h154q20 -72 58 -203t78 -266t77.5 -259.5t61.5 -204.5l24 -79q64 235 148 519.5t142 492.5h149l-364 -1187v-534h-152v534zM183 1908l156 307h213l153 -307h-110l-150 299l-149 -299h-113z" />
<glyph unicode="&#x177;" horiz-adv-x="777" d="M37 1198h152l208 -1001l204 1001h152l-300 -1281q-30 -116 -119.5 -163.5t-253.5 -52.5h-3v123q120 8 175.5 40t55.5 90q0 73 -11 142zM134 1388l156 307h213l153 -307h-110l-150 299l-149 -299h-113z" />
<glyph unicode="&#x178;" horiz-adv-x="888" d="M-2 1721h154q20 -72 58 -203t78 -266t77.5 -259.5t61.5 -204.5l24 -79q64 235 148 519.5t142 492.5h149l-364 -1187v-534h-152v534zM160 1908v179h184v-179h-184zM544 1908v179h184v-179h-184z" />
<glyph unicode="&#x179;" horiz-adv-x="866" d="M60 0v141l605 1458h-541v122h697v-141l-605 -1458h605v-122h-761zM412 1908l123 398h162l-229 -398h-56z" />
<glyph unicode="&#x17a;" horiz-adv-x="695" d="M47 0v144l472 940h-408v114h549v-143l-461 -940h455v-115h-607zM326 1388l123 398h162l-229 -398h-56z" />
<glyph unicode="&#x17b;" horiz-adv-x="866" d="M60 0v141l605 1458h-541v122h697v-141l-605 -1458h605v-122h-761zM349 1908v179h184v-179h-184z" />
<glyph unicode="&#x17c;" horiz-adv-x="695" d="M47 0v144l472 940h-408v114h549v-143l-461 -940h455v-115h-607zM261 1388v179h184v-179h-184z" />
<glyph unicode="&#x17d;" horiz-adv-x="866" d="M60 0v141l605 1458h-541v122h697v-141l-605 -1458h605v-122h-761zM204 2255h142l95 -237l95 237h142l-209 -347h-56z" />
<glyph unicode="&#x17e;" horiz-adv-x="695" d="M47 0v144l472 940h-408v114h549v-143l-461 -940h455v-115h-607zM116 1735h142l95 -237l95 237h142l-209 -347h-56z" />
<glyph unicode="&#x192;" horiz-adv-x="500" d="M-41 -272q24 -6 74 -6q33 0 56 10t34.5 22t17.5 36t6.5 39t0.5 43v8v1487q0 41 2.5 72.5t15 74t34.5 70.5t64 48t101 20q69 0 122 -13v-109q-24 6 -74 6q-33 0 -56 -10t-34.5 -22t-17.5 -36t-6.5 -39t-0.5 -43v-8v-1488q0 -41 -2.5 -72t-15 -74t-34.5 -70.5t-64 -47.5 t-101 -20q-69 0 -122 13v109z" />
<glyph unicode="&#x1c4;" horiz-adv-x="1952" d="M146 0v1721h387q98 0 174 -26.5t125.5 -72t81 -111.5t45 -140t13.5 -163v-700q0 -508 -439 -508h-387zM298 122h235q287 0 287 352v768q0 357 -287 357h-235v-1477zM1146 0v141l605 1458h-541v122h697v-141l-605 -1458h605v-122h-761zM1290 2255h142l95 -237l95 237h142 l-209 -347h-56z" />
<glyph unicode="&#x1c5;" horiz-adv-x="1781" d="M146 0v1721h387q98 0 174 -26.5t125.5 -72t81 -111.5t45 -140t13.5 -163v-700q0 -508 -439 -508h-387zM298 122h235q287 0 287 352v768q0 357 -287 357h-235v-1477zM1133 0v144l472 940h-408v114h549v-143l-461 -940h455v-115h-607zM1202 1735h142l95 -237l95 237h142 l-209 -347h-56z" />
<glyph unicode="&#x1c6;" horiz-adv-x="1561" d="M101 546v95q0 155 16.5 266.5t40.5 171.5t62 94.5t70 43t75 8.5q63 0 123.5 -35.5t107.5 -104.5v636h150v-1721h-150v113q-90 -140 -242 -140q-27 0 -49 4.5t-49 19t-48 39t-42 68t-34.5 102t-22 145.5t-8.5 195zM251 545q0 -94 4.5 -167t11.5 -121t19 -81.5t23 -51.5 t28.5 -27t30 -11t32.5 -2q45 0 98 33.5t98 87.5v790q-107 119 -201 119q-22 0 -36.5 -4t-33 -18t-30 -45.5t-23 -82t-16.5 -132.5t-5 -192v-95zM913 0v144l472 940h-408v114h549v-143l-461 -940h455v-115h-607zM982 1735h142l95 -237l95 237h142l-209 -347h-56z" />
<glyph unicode="&#x1c7;" horiz-adv-x="1338" d="M146 0v1721h152v-1599h481v-122h-633zM784 0v115q51 0 79 0.5t59.5 5.5t46 11.5t31 23.5t22 35.5t11 53t6.5 71t1 94.5v1311h152v-1311q0 -78 -3.5 -129t-15 -102t-33.5 -80.5t-58.5 -54t-90.5 -34.5t-128 -10h-79z" />
<glyph unicode="&#x1c8;" horiz-adv-x="1200" d="M146 0v1721h152v-1599h481v-122h-633zM728 -204q46 -2 56 -2q33 0 57.5 9t38.5 26.5t23 34.5t12 42.5t4 39.5t1 36v1216h150v-1244q0 -274 -261 -274q-40 0 -81 8v108zM920 1473v179h150v-179h-150z" />
<glyph unicode="&#x1c9;" horiz-adv-x="870" d="M146 0v1721h150v-1721h-150zM398 -204q46 -2 56 -2q33 0 57.5 9t38.5 26.5t23 34.5t12 42.5t4 39.5t1 36v1216h150v-1244q0 -274 -261 -274q-40 0 -81 8v108zM590 1473v179h150v-179h-150z" />
<glyph unicode="&#x1ca;" horiz-adv-x="1649" d="M146 0v1721h117l545 -1363v1363h129v-1721h-114l-546 1334v-1334h-131zM1095 0v115q51 0 79 0.5t59.5 5.5t46 11.5t31 23.5t22 35.5t11 53t6.5 71t1 94.5v1311h152v-1311q0 -78 -3.5 -129t-15 -102t-33.5 -80.5t-58.5 -54t-90.5 -34.5t-128 -10h-79z" />
<glyph unicode="&#x1cb;" horiz-adv-x="1511" d="M146 0v1721h117l545 -1363v1363h129v-1721h-114l-546 1334v-1334h-131zM1039 -204q46 -2 56 -2q33 0 57.5 9t38.5 26.5t23 34.5t12 42.5t4 39.5t1 36v1216h150v-1244q0 -274 -261 -274q-40 0 -81 8v108zM1231 1473v179h150v-179h-150z" />
<glyph unicode="&#x1cc;" horiz-adv-x="1288" d="M120 0v1198h150v-113q48 70 115 105t139 35q89 0 156.5 -74.5t67.5 -209.5v-941h-152v944q0 89 -35 129.5t-92 40.5q-47 0 -100.5 -32.5t-98.5 -88.5v-993h-150zM816 -204q46 -2 56 -2q33 0 57.5 9t38.5 26.5t23 34.5t12 42.5t4 39.5t1 36v1216h150v-1244 q0 -274 -261 -274q-40 0 -81 8v108zM1008 1473v179h150v-179h-150z" />
<glyph unicode="&#x1f1;" horiz-adv-x="1952" d="M146 0v1721h387q98 0 174 -26.5t125.5 -72t81 -111.5t45 -140t13.5 -163v-700q0 -508 -439 -508h-387zM298 122h235q287 0 287 352v768q0 357 -287 357h-235v-1477zM1146 0v141l605 1458h-541v122h697v-141l-605 -1458h605v-122h-761z" />
<glyph unicode="&#x1f2;" horiz-adv-x="1781" d="M146 0v1721h387q98 0 174 -26.5t125.5 -72t81 -111.5t45 -140t13.5 -163v-700q0 -508 -439 -508h-387zM298 122h235q287 0 287 352v768q0 357 -287 357h-235v-1477zM1133 0v144l472 940h-408v114h549v-143l-461 -940h455v-115h-607z" />
<glyph unicode="&#x1f3;" horiz-adv-x="1561" d="M101 546v95q0 155 16.5 266.5t40.5 171.5t62 94.5t70 43t75 8.5q63 0 123.5 -35.5t107.5 -104.5v636h150v-1721h-150v113q-90 -140 -242 -140q-27 0 -49 4.5t-49 19t-48 39t-42 68t-34.5 102t-22 145.5t-8.5 195zM251 545q0 -94 4.5 -167t11.5 -121t19 -81.5t23 -51.5 t28.5 -27t30 -11t32.5 -2q45 0 98 33.5t98 87.5v790q-107 119 -201 119q-22 0 -36.5 -4t-33 -18t-30 -45.5t-23 -82t-16.5 -132.5t-5 -192v-95zM913 0v144l472 940h-408v114h549v-143l-461 -940h455v-115h-607z" />
<glyph unicode="&#x1f4;" horiz-adv-x="1088" d="M114 481v730q0 534 453 534q72 0 130.5 -16t99 -43.5t71 -70.5t48.5 -89t29 -107.5t15 -119t4 -128.5v-12h-152v13v13q0 73 -1.5 110.5t-7.5 99t-22 94t-42 68t-70 51t-104 15.5q-84 0 -144 -28.5t-93 -79.5t-47.5 -110t-14.5 -130v-860q0 -66 12 -118.5t41.5 -100.5 t88.5 -74.5t145 -26.5q79 0 135 28t84 76.5t39.5 100.5t11.5 115v291h-211v115h363v-821h-67l-45 168q-34 -89 -120.5 -142t-191.5 -53q-69 0 -126.5 12.5t-99.5 32.5t-75.5 51.5t-55 62.5t-37.5 72t-24 74t-12.5 75t-5.5 68t-1 60zM516 1908l123 398h162l-229 -398h-56z " />
<glyph unicode="&#x1f5;" horiz-adv-x="881" d="M17 -236q0 101 65 179t159 126q-15 3 -48.5 12.5t-75 29.5t-41.5 39q0 13 3.5 28.5t11 33t15.5 34t20 36t21 34t22 33.5t20 28t18 24t12 17q-71 64 -105.5 165t-34.5 210q0 58 11 116t37.5 115.5t65 101.5t98 71t132.5 27q96 0 159.5 -46.5t123.5 -139.5q19 33 33.5 55 t38.5 52t52 49.5t58 26.5v-145q-38 -7 -79 -33.5t-72 -61.5q38 -106 38 -181q0 -72 -12 -136t-38.5 -120.5t-66.5 -97.5t-99 -64.5t-132 -23.5q-86 0 -144 24q-55 -104 -69 -172q-5 -23 27 -34t164 -38q41 -8 64 -13q82 -17 141 -36.5t110.5 -49t77.5 -72t26 -97.5 q0 -50 -16.5 -90.5t-42.5 -67.5t-63.5 -47t-73.5 -31t-78.5 -17.5t-72.5 -8t-61 -1.5q-399 0 -399 157zM159 -191q0 -23 10.5 -40t33 -27t42 -16t54.5 -8.5t53 -3t53 -0.5h13q265 0 265 129q0 71 -37 107.5t-122 52.5l-214 46q-50 -37 -100.5 -112t-50.5 -128zM232 776 q0 -37 3 -71.5t15.5 -80t32.5 -78t57.5 -55.5t87.5 -23t87 23t57 56t32 78t15.5 80t3.5 71q0 35 -3 70.5t-15.5 84t-32 84.5t-57 62t-87.5 26q-42 0 -75.5 -17.5t-54 -47.5t-34.5 -63.5t-20.5 -73t-9 -68.5t-2.5 -57zM424 1388l123 398h162l-229 -398h-56z" />
<glyph unicode="&#x200;" horiz-adv-x="972" d="M47 0l340 1721h198l340 -1721h-154l-86 448h-397l-88 -448h-153zM134 2221h160l106 -313h-59zM306 549h360l-181 1014zM365 2221h160l106 -313h-59z" />
<glyph unicode="&#x201;" horiz-adv-x="808" d="M48 1701h160l106 -313h-59zM75 239q0 32 1 51.5t5.5 50.5t13 52t25 51.5t40.5 54t60 54t83 58t110.5 59t140.5 63.5v10q0 102 -9 174.5t-22 112t-33.5 61.5t-38.5 27.5t-44 5.5q-27 0 -48 -7.5t-45 -29t-40 -70t-20 -121.5v-7h-156q12 157 92.5 246.5t211.5 89.5 q73 0 129 -23.5t88.5 -60t52.5 -87.5t27 -99t7 -103v-576q0 -63 4.5 -132t9.5 -106l4 -38h-140l-19 145q-48 -84 -118.5 -128t-134.5 -44q-93 0 -165 73.5t-72 192.5zM226 267q0 -86 36 -127.5t85 -41.5q57 0 115.5 41t91.5 105v422q-73 -51 -115 -82t-88.5 -72.5t-70 -75.5 t-39 -77.5t-15.5 -91.5zM279 1701h160l106 -313h-59z" />
<glyph unicode="&#x202;" horiz-adv-x="972" d="M47 0l340 1721h198l340 -1721h-154l-86 448h-397l-88 -448h-153zM210 1908q3 77 30.5 132.5t70.5 83.5t86 40t89 12t89 -12t86 -40t70.5 -83.5t30.5 -132.5h-111q-14 94 -56.5 126.5t-108.5 32.5t-108.5 -32.5t-56.5 -126.5h-111zM306 549h360l-181 1014z" />
<glyph unicode="&#x203;" horiz-adv-x="808" d="M75 239q0 32 1 51.5t5.5 50.5t13 52t25 51.5t40.5 54t60 54t83 58t110.5 59t140.5 63.5v10q0 102 -9 174.5t-22 112t-33.5 61.5t-38.5 27.5t-44 5.5q-27 0 -48 -7.5t-45 -29t-40 -70t-20 -121.5v-7h-156q12 157 92.5 246.5t211.5 89.5q73 0 129 -23.5t88.5 -60 t52.5 -87.5t27 -99t7 -103v-576q0 -63 4.5 -132t9.5 -106l4 -38h-140l-19 145q-48 -84 -118.5 -128t-134.5 -44q-93 0 -165 73.5t-72 192.5zM124 1388q3 77 30.5 132.5t70.5 83.5t86 40t89 12t89 -12t86 -40t70.5 -83.5t30.5 -132.5h-111q-14 94 -56.5 126.5t-108.5 32.5 t-108.5 -32.5t-56.5 -126.5h-111zM226 267q0 -86 36 -127.5t85 -41.5q57 0 115.5 41t91.5 105v422q-73 -51 -115 -82t-88.5 -72.5t-70 -75.5t-39 -77.5t-15.5 -91.5z" />
<glyph unicode="&#x204;" horiz-adv-x="795" d="M94 2221h160l106 -313h-59zM146 0v1721h600v-122h-448v-652h320v-115h-320v-710h448v-122h-600zM325 2221h160l106 -313h-59z" />
<glyph unicode="&#x205;" horiz-adv-x="829" d="M70 1701h160l106 -313h-59zM108 552v167q1 125 18 216.5t44.5 146.5t71 87.5t89.5 44t108 11.5q161 0 231.5 -114t70.5 -360q0 -75 -2 -123h-480v-183q0 -118 11.5 -193.5t36.5 -113.5t55 -51t76 -13q67 0 112.5 67.5t46.5 225.5h140q-6 -68 -16 -121t-31.5 -106t-53 -88 t-81.5 -57t-115 -22q-127 0 -197.5 50.5t-103.5 176t-31 352.5zM260 702h332q-1 40 0 81t-1 82.5t-5.5 79.5t-13.5 70.5t-25 56.5t-41 38t-60 14q-55 0 -90.5 -20t-55 -47t-28.5 -91t-10.5 -112.5t-1.5 -151.5zM301 1701h160l106 -313h-59z" />
<glyph unicode="&#x206;" horiz-adv-x="795" d="M146 0v1721h600v-122h-448v-652h320v-115h-320v-710h448v-122h-600zM170 1908q3 77 30.5 132.5t70.5 83.5t86 40t89 12t89 -12t86 -40t70.5 -83.5t30.5 -132.5h-111q-14 94 -56.5 126.5t-108.5 32.5t-108.5 -32.5t-56.5 -126.5h-111z" />
<glyph unicode="&#x207;" horiz-adv-x="829" d="M108 552v167q1 125 18 216.5t44.5 146.5t71 87.5t89.5 44t108 11.5q161 0 231.5 -114t70.5 -360q0 -75 -2 -123h-480v-183q0 -118 11.5 -193.5t36.5 -113.5t55 -51t76 -13q67 0 112.5 67.5t46.5 225.5h140q-6 -68 -16 -121t-31.5 -106t-53 -88t-81.5 -57t-115 -22 q-127 0 -197.5 50.5t-103.5 176t-31 352.5zM146 1388q3 77 30.5 132.5t70.5 83.5t86 40t89 12t89 -12t86 -40t70.5 -83.5t30.5 -132.5h-111q-14 94 -56.5 126.5t-108.5 32.5t-108.5 -32.5t-56.5 -126.5h-111zM260 702h332q-1 40 0 81t-1 82.5t-5.5 79.5t-13.5 70.5t-25 56.5 t-41 38t-60 14q-55 0 -90.5 -20t-55 -47t-28.5 -91t-10.5 -112.5t-1.5 -151.5z" />
<glyph unicode="&#x208;" horiz-adv-x="444" d="M-131 2221h160l106 -313h-59zM100 2221h160l106 -313h-59zM145 0v1721h152v-1721h-152z" />
<glyph unicode="&#x209;" horiz-adv-x="405" d="M-145 1701h160l106 -313h-59zM86 1701h160l106 -313h-59zM132 0v1198h150v-1198h-150z" />
<glyph unicode="&#x20a;" horiz-adv-x="444" d="M-55 1908q3 77 30.5 132.5t70.5 83.5t86 40t89 12t89 -12t86 -40t70.5 -83.5t30.5 -132.5h-111q-14 94 -56.5 126.5t-108.5 32.5t-108.5 -32.5t-56.5 -126.5h-111zM145 0v1721h152v-1721h-152z" />
<glyph unicode="&#x20b;" horiz-adv-x="405" d="M-69 1388q3 77 30.5 132.5t70.5 83.5t86 40t89 12t89 -12t86 -40t70.5 -83.5t30.5 -132.5h-111q-14 94 -56.5 126.5t-108.5 32.5t-108.5 -32.5t-56.5 -126.5h-111zM132 0v1198h150v-1198h-150z" />
<glyph unicode="&#x20c;" horiz-adv-x="1106" d="M114 499v721q0 91 13.5 167t45.5 143.5t81 114t125 73.5t174 27t174 -27t125 -73.5t81 -114t45.5 -143.5t13.5 -167v-721q0 -526 -439 -526t-439 526zM201 2221h160l106 -313h-59zM266 465q0 -370 287 -370t287 370v789q0 369 -287 369t-287 -369v-789zM432 2221h160 l106 -313h-59z" />
<glyph unicode="&#x20d;" horiz-adv-x="846" d="M71 1701h160l106 -313h-59zM106 568v62q0 80 1 122.5t6.5 116t17 114.5t34.5 94t56.5 80.5t84.5 47.5t117 20t117 -20t84.5 -47.5t56.5 -80.5t34.5 -94t17 -114.5t6.5 -116t1 -122.5v-62q0 -67 -0.5 -101t-3 -94.5t-8 -93.5t-16.5 -82t-26.5 -76t-39.5 -59.5t-55 -49 t-73.5 -28t-94.5 -11.5t-94.5 11.5t-73.5 28t-55 49t-39.5 59.5t-26.5 76t-16.5 82t-8 93.5t-3 94.5t-0.5 101zM256 568q0 -282 33 -388t134 -106t134 106t33 388v62q0 95 -2 160t-8.5 124.5t-18 95.5t-30 63.5t-45 39t-63.5 11.5t-63.5 -11.5t-45.5 -39t-30 -63t-17.5 -96 t-8.5 -124.5t-2 -160v-62zM302 1701h160l106 -313h-59z" />
<glyph unicode="&#x20e;" horiz-adv-x="1106" d="M114 499v721q0 91 13.5 167t45.5 143.5t81 114t125 73.5t174 27t174 -27t125 -73.5t81 -114t45.5 -143.5t13.5 -167v-721q0 -526 -439 -526t-439 526zM266 465q0 -370 287 -370t287 370v789q0 369 -287 369t-287 -369v-789zM277 1908q3 77 30.5 132.5t70.5 83.5t86 40 t89 12t89 -12t86 -40t70.5 -83.5t30.5 -132.5h-111q-14 94 -56.5 126.5t-108.5 32.5t-108.5 -32.5t-56.5 -126.5h-111z" />
<glyph unicode="&#x20f;" horiz-adv-x="846" d="M106 568v62q0 80 1 122.5t6.5 116t17 114.5t34.5 94t56.5 80.5t84.5 47.5t117 20t117 -20t84.5 -47.5t56.5 -80.5t34.5 -94t17 -114.5t6.5 -116t1 -122.5v-62q0 -67 -0.5 -101t-3 -94.5t-8 -93.5t-16.5 -82t-26.5 -76t-39.5 -59.5t-55 -49t-73.5 -28t-94.5 -11.5 t-94.5 11.5t-73.5 28t-55 49t-39.5 59.5t-26.5 76t-16.5 82t-8 93.5t-3 94.5t-0.5 101zM147 1388q3 77 30.5 132.5t70.5 83.5t86 40t89 12t89 -12t86 -40t70.5 -83.5t30.5 -132.5h-111q-14 94 -56.5 126.5t-108.5 32.5t-108.5 -32.5t-56.5 -126.5h-111zM256 568 q0 -282 33 -388t134 -106t134 106t33 388v62q0 95 -2 160t-8.5 124.5t-18 95.5t-30 63.5t-45 39t-63.5 11.5t-63.5 -11.5t-45.5 -39t-30 -63t-17.5 -96t-8.5 -124.5t-2 -160v-62z" />
<glyph unicode="&#x210;" horiz-adv-x="1067" d="M146 0v1721h459q87 0 153 -24t106.5 -63.5t65.5 -98t34.5 -121t9.5 -138.5q0 -329 -240 -417l266 -859h-162l-251 840h-289v-840h-152zM221 2221h160l106 -313h-59zM298 962h306q65 0 110 26t67.5 74t31.5 100t9 119q0 55 -5.5 99t-20 86t-38.5 70.5t-63 45.5t-91 17 h-306v-637zM452 2221h160l106 -313h-59z" />
<glyph unicode="&#x211;" horiz-adv-x="534" d="M-31 1701h160l106 -313h-59zM120 0v1198h150v-169q28 93 101 139.5t151 48.5v-151q-11 4 -23 4q-229 0 -229 -176v-894h-150zM200 1701h160l106 -313h-59z" />
<glyph unicode="&#x212;" horiz-adv-x="1067" d="M146 0v1721h459q87 0 153 -24t106.5 -63.5t65.5 -98t34.5 -121t9.5 -138.5q0 -329 -240 -417l266 -859h-162l-251 840h-289v-840h-152zM297 1908q3 77 30.5 132.5t70.5 83.5t86 40t89 12t89 -12t86 -40t70.5 -83.5t30.5 -132.5h-111q-14 94 -56.5 126.5t-108.5 32.5 t-108.5 -32.5t-56.5 -126.5h-111zM298 962h306q65 0 110 26t67.5 74t31.5 100t9 119q0 55 -5.5 99t-20 86t-38.5 70.5t-63 45.5t-91 17h-306v-637z" />
<glyph unicode="&#x213;" horiz-adv-x="534" d="M45 1388q3 77 30.5 132.5t70.5 83.5t86 40t89 12t89 -12t86 -40t70.5 -83.5t30.5 -132.5h-111q-14 94 -56.5 126.5t-108.5 32.5t-108.5 -32.5t-56.5 -126.5h-111zM120 0v1198h150v-169q28 93 101 139.5t151 48.5v-151q-11 4 -23 4q-229 0 -229 -176v-894h-150z" />
<glyph unicode="&#x214;" horiz-adv-x="1132" d="M120 423v1298h152v-1333q0 -148 67 -220.5t226 -72.5q150 0 214 73t64 220v1333h151v-1298q0 -450 -429 -450q-103 0 -181.5 24t-128 64.5t-80.5 99t-43 122t-12 140.5zM205 2221h160l106 -313h-59zM436 2221h160l106 -313h-59z" />
<glyph unicode="&#x215;" d="M74 1701h160l106 -313h-59zM112 257v941h152v-944q0 -89 35 -129.5t92 -40.5q47 0 100.5 32.5t98.5 88.5v993h150v-1198h-150v113q-48 -70 -115 -105t-139 -35q-89 0 -156.5 74.5t-67.5 209.5zM305 1701h160l106 -313h-59z" />
<glyph unicode="&#x216;" horiz-adv-x="1132" d="M120 423v1298h152v-1333q0 -148 67 -220.5t226 -72.5q150 0 214 73t64 220v1333h151v-1298q0 -450 -429 -450q-103 0 -181.5 24t-128 64.5t-80.5 99t-43 122t-12 140.5zM281 1908q3 77 30.5 132.5t70.5 83.5t86 40t89 12t89 -12t86 -40t70.5 -83.5t30.5 -132.5h-111 q-14 94 -56.5 126.5t-108.5 32.5t-108.5 -32.5t-56.5 -126.5h-111z" />
<glyph unicode="&#x217;" d="M112 257v941h152v-944q0 -89 35 -129.5t92 -40.5q47 0 100.5 32.5t98.5 88.5v993h150v-1198h-150v113q-48 -70 -115 -105t-139 -35q-89 0 -156.5 74.5t-67.5 209.5zM150 1388q3 77 30.5 132.5t70.5 83.5t86 40t89 12t89 -12t86 -40t70.5 -83.5t30.5 -132.5h-111 q-14 94 -56.5 126.5t-108.5 32.5t-108.5 -32.5t-56.5 -126.5h-111z" />
<glyph unicode="&#x218;" horiz-adv-x="948" d="M68 415l134 39q8 -72 28.5 -133t55.5 -113.5t92.5 -82.5t130.5 -30q117 0 181 65t64 184q0 99 -58.5 191t-172.5 212l-269 283q-88 93 -135 174t-47 170q0 169 111 270t285 101q169 0 272 -95.5t137 -277.5l3 -16l-128 -40l-2 14q-20 129 -92.5 211t-189.5 82 q-114 0 -181.5 -58t-67.5 -171q0 -68 36.5 -134t104.5 -140l253 -275q10 -11 50 -54.5t52.5 -57.5t46 -54t46 -60.5t35.5 -58t31.5 -65.5t16.5 -65t8 -73q0 -184 -113.5 -284t-293.5 -100q-92 0 -167 35.5t-126.5 97.5t-84 140t-46.5 169zM391 -190h185v-24v-63t-1 -58.5 t-2.5 -57t-4.5 -50t-7.5 -47.5t-11 -39.5t-16 -35.5t-21.5 -26.5t-27 -21t-34 -10.5q-8 -2 -11 -2l-27 55q32 12 55 38t33 58t14 57.5t4 47.5h-128v179z" />
<glyph unicode="&#x219;" horiz-adv-x="749" d="M57 300l115 39q14 -44 34.5 -85t49.5 -82t68.5 -66t82.5 -25q79 0 118.5 48t39.5 130q0 115 -205 295l-87 76q-99 87 -149.5 155.5t-50.5 153.5q0 135 82 209.5t219 74.5q65 0 118 -25t89 -69.5t60.5 -96t39.5 -113.5l-133 -41q-9 56 -28.5 106t-60 90.5t-92.5 40.5 q-67 0 -106.5 -45.5t-39.5 -117.5q0 -60 38.5 -114t111.5 -116l95 -82q46 -40 70.5 -62.5t62 -64t56.5 -75t34.5 -80.5t16.5 -96q0 -134 -84.5 -211.5t-220.5 -77.5q-132 0 -220.5 92.5t-123.5 234.5zM289 -190h185v-24v-63t-1 -58.5t-2.5 -57t-4.5 -50t-7.5 -47.5 t-11 -39.5t-16 -35.5t-21.5 -26.5t-27 -21t-34 -10.5q-8 -2 -11 -2l-27 55q32 12 55 38t33 58t14 57.5t4 47.5h-128v179z" />
<glyph unicode="&#x21a;" horiz-adv-x="753" d="M-36 1599v122h825v-122h-338v-1599h-152v1599h-335zM284 -163h185v-24v-63t-1 -58.5t-2.5 -57t-4.5 -50t-7.5 -47.5t-11 -39.5t-16 -35.5t-21.5 -26.5t-27 -21t-34 -10.5q-8 -2 -11 -2l-27 55q32 12 55 38t33 58t14 57.5t4 47.5h-128v179z" />
<glyph unicode="&#x21b;" horiz-adv-x="550" d="M4 1114v84h163v425h150v-425h192v-84h-192v-824q0 -43 1 -67.5t6.5 -53t16 -42.5t30 -23.5t48.5 -9.5q49 0 88 8v-103q-67 -17 -130 -17q-56 0 -96 17.5t-61.5 43.5t-34 69t-15.5 80.5t-3 90.5v831h-163zM164 -181h185v-24v-63t-1 -58.5t-2.5 -57t-4.5 -50t-7.5 -47.5 t-11 -39.5t-16 -35.5t-21.5 -26.5t-27 -21t-34 -10.5q-8 -2 -11 -2l-27 55q32 12 55 38t33 58t14 57.5t4 47.5h-128v179z" />
<glyph unicode="&#x237;" horiz-adv-x="410" d="M-72 -204q46 -2 56 -2q33 0 57.5 9t38.5 26.5t23 34.5t12 42.5t4 39.5t1 36v1216h150v-1244q0 -274 -261 -274q-40 0 -81 8v108z" />
<glyph unicode="&#x2c6;" horiz-adv-x="713" d="M94 1408l156 307h213l153 -307h-110l-150 299l-149 -299h-113z" />
<glyph unicode="&#x2c7;" horiz-adv-x="618" d="M74 1671h142l95 -237l95 237h142l-209 -347h-56z" />
<glyph unicode="&#x2d8;" horiz-adv-x="739" d="M92 1581h111q14 -94 56.5 -126.5t108.5 -32.5t108.5 32.5t56.5 126.5h111q-3 -77 -30.5 -132.5t-70.5 -83.5t-86 -40t-89 -12t-89 12t-86 40t-70.5 83.5t-30.5 132.5z" />
<glyph unicode="&#x2d9;" horiz-adv-x="410" d="M113 1380v179h184v-179h-184z" />
<glyph unicode="&#x2da;" horiz-adv-x="637" d="M98 1504q0 88 56 153t163 65t163 -65t56 -153t-56 -153t-163 -65t-163 65t-56 153zM176 1504q0 -59 34 -103t107 -44t107 44t34 103t-34 103t-107 44t-107 -44t-34 -103z" />
<glyph unicode="&#x2db;" horiz-adv-x="475" d="M98 -219q0 69 54.5 132.5t100.5 86.5h69q-61 -55 -96 -105.5t-35 -104.5q0 -12 1.5 -21.5t6.5 -17t9 -13t13.5 -9.5t16 -7t21.5 -5t24 -3t28.5 -1.5t31 -0.5h35.5v-70q-61 0 -100 2.5t-76.5 10.5t-58 23t-33 40.5t-12.5 62.5z" />
<glyph unicode="&#x2dc;" horiz-adv-x="754" d="M102 1376q1 19 3.5 37t14.5 47.5t30.5 50t54.5 36.5t84 16q28 0 94.5 -38t90.5 -38q29 0 45 14.5t21 52.5h116l-1 -14q-1 -13 -4.5 -28.5t-10 -36.5t-20 -39.5t-32 -35t-48.5 -26.5t-68 -10t-103.5 39t-89.5 39q-28 0 -42.5 -14t-19.5 -52h-115z" />
<glyph unicode="&#x2dd;" horiz-adv-x="655" d="M100 1408l106 313h160l-207 -313h-59zM331 1408l106 313h160l-207 -313h-59z" />
<glyph unicode="&#x30f;" horiz-adv-x="666" d="M68 1721h160l106 -313h-59zM299 1721h160l106 -313h-59z" />
<glyph unicode="&#x311;" horiz-adv-x="737" d="M90 1313q3 77 30.5 132.5t70.5 83.5t86 40t89 12t89 -12t86 -40t70.5 -83.5t30.5 -132.5h-111q-14 94 -56.5 126.5t-108.5 32.5t-108.5 -32.5t-56.5 -126.5h-111z" />
<glyph unicode="&#x326;" horiz-adv-x="502" d="M156 -87h185v-24v-63t-1 -58.5t-2.5 -57t-4.5 -50t-7.5 -47.5t-11 -39.5t-16 -35.5t-21.5 -26.5t-27 -21t-34 -10.5q-8 -2 -11 -2l-27 55q32 12 55 38t33 58t14 57.5t4 47.5h-128v179z" />
<glyph unicode="&#x1e02;" horiz-adv-x="1012" d="M146 0v1721h370q89 0 158 -25t112 -66t70.5 -99t38 -118t10.5 -129q0 -107 -49.5 -209t-136.5 -142q61 -25 106 -73.5t69 -108.5t35 -119.5t11 -118.5q0 -90 -8.5 -159t-34 -138.5t-67.5 -114.5t-114 -73t-170 -28h-400zM298 116h272q52 0 91 21.5t63 56.5t38.5 88 t20 108t5.5 123q0 61 -5 109t-19.5 95t-38 78.5t-63 50.5t-92.5 19h-272v-749zM298 982h244q56 0 96 24.5t62 68t32 94.5t10 112q0 324 -246 324h-198v-623zM451 1867v179h184v-179h-184z" />
<glyph unicode="&#x1e03;" horiz-adv-x="871" d="M120 0v1721h150v-636q47 69 107.5 104.5t123.5 35.5q43 0 75 -8.5t70 -43t62 -94.5t40.5 -171.5t16.5 -266.5v-95q0 -108 -8.5 -195t-22 -145.5t-34.5 -102t-42 -68t-48 -39t-49 -19t-49 -4.5q-152 0 -242 140v-113h-150zM270 205q45 -54 98 -87.5t98 -33.5q20 0 32.5 2 t30 11t28.5 27t23 51.5t19 81.5t11.5 121t4.5 167v95q0 110 -5 192t-16.5 132.5t-23 82t-30 45.5t-33 18t-36.5 4q-94 0 -201 -119v-790zM351 1843v179h184v-179h-184z" />
<glyph unicode="&#x1e0a;" horiz-adv-x="1086" d="M146 0v1721h387q98 0 174 -26.5t125.5 -72t81 -111.5t45 -140t13.5 -163v-700q0 -508 -439 -508h-387zM298 122h235q287 0 287 352v768q0 357 -287 357h-235v-1477zM467 1867v179h184v-179h-184z" />
<glyph unicode="&#x1e0b;" horiz-adv-x="866" d="M101 546v95q0 155 16.5 266.5t40.5 171.5t62 94.5t70 43t75 8.5q63 0 123.5 -35.5t107.5 -104.5v636h150v-1721h-150v113q-90 -140 -242 -140q-27 0 -49 4.5t-49 19t-48 39t-42 68t-34.5 102t-22 145.5t-8.5 195zM251 545q0 -94 4.5 -167t11.5 -121t19 -81.5t23 -51.5 t28.5 -27t30 -11t32.5 -2q45 0 98 33.5t98 87.5v790q-107 119 -201 119q-22 0 -36.5 -4t-33 -18t-30 -45.5t-23 -82t-16.5 -132.5t-5 -192v-95zM331 1843v179h184v-179h-184z" />
<glyph unicode="&#x1e1e;" horiz-adv-x="736" d="M146 0v1721h605v-122h-453v-652h356v-115h-356v-832h-152zM357 1867v179h184v-179h-184z" />
<glyph unicode="&#x1e1f;" horiz-adv-x="532" d="M10 1114v84h167v129v18v51t4 55t11.5 59.5t23.5 53t38.5 47t58.5 29.5t81 12q69 0 122 -13v-109q-24 6 -74 6q-33 0 -56 -10t-34.5 -22t-17.5 -36t-6.5 -39t-0.5 -43v-8v-180h192v-84h-192v-1114h-150v1114h-167zM173 1774v179h184v-179h-184z" />
<glyph unicode="&#x1e40;" horiz-adv-x="1330" d="M146 0v1721h187l332 -1486q61 292 162 714.5t170 771.5h187v-1721h-135v1377l-318 -1377h-132l-318 1376v-1376h-135zM573 1867v179h184v-179h-184z" />
<glyph unicode="&#x1e41;" horiz-adv-x="1335" d="M120 0v1198h151v-111q117 138 266 138q61 0 118 -38t82 -98q59 67 129 101.5t128 34.5q92 0 160.5 -64t68.5 -160v-1001h-150v970q0 75 -33.5 109.5t-89.5 34.5q-93 0 -190 -97v-1017h-150v971q0 143 -127 143q-51 0 -107.5 -32t-105.5 -87v-995h-150zM579 1347v179h184 v-179h-184z" />
<glyph unicode="&#x1e56;" horiz-adv-x="1004" d="M146 0v1721h421q90 0 160 -24.5t116 -66.5t76 -102t42.5 -126.5t12.5 -143.5q0 -79 -10.5 -146t-39 -133t-73 -111.5t-117.5 -74t-168 -28.5h-268v-765h-152zM298 887l286 -1q128 -1 183 88.5t55 280.5q0 178 -59 261t-179 83h-286v-712zM468 1867v179h184v-179h-184z " />
<glyph unicode="&#x1e57;" horiz-adv-x="871" d="M120 -385v1583h150v-113q90 140 242 140q27 0 49 -4.5t49 -19t48 -39t42 -68t34.5 -102t22 -145.5t8.5 -195v-95q0 -155 -16.5 -266.5t-40.5 -171.5t-62 -94.5t-70 -43t-75 -8.5q-63 0 -123.5 35.5t-107.5 104.5v-498h-150zM270 203q107 -119 201 -119q22 0 36.5 4t33 18 t30 45.5t23 82t16.5 132.5t5 192v95q0 94 -4.5 167t-11.5 121t-19 81.5t-23 51.5t-28.5 27t-30 11t-32.5 2q-45 0 -98 -33.5t-98 -87.5v-790zM351 1347v179h184v-179h-184z" />
<glyph unicode="&#x1e60;" horiz-adv-x="948" d="M68 415l134 39q8 -72 28.5 -133t55.5 -113.5t92.5 -82.5t130.5 -30q117 0 181 65t64 184q0 99 -58.5 191t-172.5 212l-269 283q-88 93 -135 174t-47 170q0 169 111 270t285 101q169 0 272 -95.5t137 -277.5l3 -16l-128 -40l-2 14q-20 129 -92.5 211t-189.5 82 q-114 0 -181.5 -58t-67.5 -171q0 -68 36.5 -134t104.5 -140l253 -275q10 -11 50 -54.5t52.5 -57.5t46 -54t46 -60.5t35.5 -58t31.5 -65.5t16.5 -65t8 -73q0 -184 -113.5 -284t-293.5 -100q-92 0 -167 35.5t-126.5 97.5t-84 140t-46.5 169zM391 1867v179h184v-179h-184z" />
<glyph unicode="&#x1e61;" horiz-adv-x="749" d="M57 300l115 39q14 -44 34.5 -85t49.5 -82t68.5 -66t82.5 -25q79 0 118.5 48t39.5 130q0 115 -205 295l-87 76q-99 87 -149.5 155.5t-50.5 153.5q0 135 82 209.5t219 74.5q65 0 118 -25t89 -69.5t60.5 -96t39.5 -113.5l-133 -41q-9 56 -28.5 106t-60 90.5t-92.5 40.5 q-67 0 -106.5 -45.5t-39.5 -117.5q0 -60 38.5 -114t111.5 -116l95 -82q46 -40 70.5 -62.5t62 -64t56.5 -75t34.5 -80.5t16.5 -96q0 -134 -84.5 -211.5t-220.5 -77.5q-132 0 -220.5 92.5t-123.5 234.5zM289 1347v179h184v-179h-184z" />
<glyph unicode="&#x1e6a;" horiz-adv-x="753" d="M-36 1599v122h825v-122h-338v-1599h-152v1599h-335zM285 1867v179h184v-179h-184z" />
<glyph unicode="&#x1e6b;" horiz-adv-x="550" d="M4 1114v84h163v425h150v-425h192v-84h-192v-824q0 -43 1 -67.5t6.5 -53t16 -42.5t30 -23.5t48.5 -9.5q49 0 88 8v-103q-67 -17 -130 -17q-56 0 -96 17.5t-61.5 43.5t-34 69t-15.5 80.5t-3 90.5v831h-163zM165 1745v179h184v-179h-184z" />
<glyph unicode="&#x1e80;" horiz-adv-x="1416" d="M23 1721h142l235 -1472l222 1472h193l203 -1472l234 1472h141l-286 -1721h-175l-215 1520l-232 -1520h-174zM451 2306h162l123 -398h-56z" />
<glyph unicode="&#x1e81;" horiz-adv-x="1161" d="M42 1198h131l158 -1022l171 1022h160l184 -1022l144 1022h129l-196 -1198h-145l-193 988l-186 -988h-159zM324 1786h162l123 -398h-56z" />
<glyph unicode="&#x1e82;" horiz-adv-x="1416" d="M23 1721h142l235 -1472l222 1472h193l203 -1472l234 1472h141l-286 -1721h-175l-215 1520l-232 -1520h-174zM680 1908l123 398h162l-229 -398h-56z" />
<glyph unicode="&#x1e83;" horiz-adv-x="1161" d="M42 1198h131l158 -1022l171 1022h160l184 -1022l144 1022h129l-196 -1198h-145l-193 988l-186 -988h-159zM552 1388l123 398h162l-229 -398h-56z" />
<glyph unicode="&#x1e84;" horiz-adv-x="1416" d="M23 1721h142l235 -1472l222 1472h193l203 -1472l234 1472h141l-286 -1721h-175l-215 1520l-232 -1520h-174zM424 1908v179h184v-179h-184zM808 1908v179h184v-179h-184z" />
<glyph unicode="&#x1e85;" horiz-adv-x="1161" d="M42 1198h131l158 -1022l171 1022h160l184 -1022l144 1022h129l-196 -1198h-145l-193 988l-186 -988h-159zM297 1388v179h184v-179h-184zM681 1388v179h184v-179h-184z" />
<glyph unicode="&#x1ef2;" horiz-adv-x="888" d="M-2 1721h154q20 -72 58 -203t78 -266t77.5 -259.5t61.5 -204.5l24 -79q64 235 148 519.5t142 492.5h149l-364 -1187v-534h-152v534zM187 2306h162l123 -398h-56z" />
<glyph unicode="&#x1ef3;" horiz-adv-x="777" d="M37 1198h152l208 -1001l204 1001h152l-300 -1281q-30 -116 -119.5 -163.5t-253.5 -52.5h-3v123q120 8 175.5 40t55.5 90q0 73 -11 142zM138 1786h162l123 -398h-56z" />
<glyph unicode="&#x2000;" horiz-adv-x="1172" />
<glyph unicode="&#x2001;" horiz-adv-x="2344" />
<glyph unicode="&#x2002;" horiz-adv-x="1172" />
<glyph unicode="&#x2003;" horiz-adv-x="2344" />
<glyph unicode="&#x2004;" horiz-adv-x="781" />
<glyph unicode="&#x2005;" horiz-adv-x="586" />
<glyph unicode="&#x2006;" horiz-adv-x="390" />
<glyph unicode="&#x2007;" horiz-adv-x="390" />
<glyph unicode="&#x2008;" horiz-adv-x="293" />
<glyph unicode="&#x2009;" horiz-adv-x="468" />
<glyph unicode="&#x200a;" horiz-adv-x="130" />
<glyph unicode="&#x2010;" horiz-adv-x="532" d="M117 448v115h313v-115h-313z" />
<glyph unicode="&#x2011;" horiz-adv-x="532" d="M117 448v115h313v-115h-313z" />
<glyph unicode="&#x2012;" horiz-adv-x="532" d="M117 448v115h313v-115h-313z" />
<glyph unicode="&#x2013;" horiz-adv-x="793" d="M117 448v115h574v-115h-574z" />
<glyph unicode="&#x2014;" horiz-adv-x="1194" d="M117 448v115h974v-115h-974z" />
<glyph unicode="&#x2018;" horiz-adv-x="403" d="M111 1311q0 243 25 333.5t111 101.5l27 -55q-35 -11 -58.5 -38.5t-32.5 -62t-12 -56.5t-3 -44h128v-179h-185z" />
<glyph unicode="&#x2019;" horiz-adv-x="393" d="M100 1542v179h185q0 -243 -25 -333.5t-111 -101.5l-27 55q35 11 58.5 38.5t32.5 62t12 56.5t3 44h-128z" />
<glyph unicode="&#x201a;" horiz-adv-x="403" d="M123 -14h168q-12 -74 -24.5 -151t-25.5 -156h-68z" />
<glyph unicode="&#x201c;" horiz-adv-x="698" d="M111 1311q0 243 25 333.5t111 101.5l27 -55q-35 -11 -58.5 -38.5t-32.5 -62t-12 -56.5t-3 -44h128v-179h-185zM405 1311q0 243 25 333.5t111 101.5l27 -55q-35 -11 -58.5 -38.5t-32.5 -62t-12 -56.5t-3 -44h128v-179h-185z" />
<glyph unicode="&#x201d;" horiz-adv-x="686" d="M100 1542v179h185q0 -243 -25 -333.5t-111 -101.5l-27 55q35 11 58.5 38.5t32.5 62t12 56.5t3 44h-128zM394 1542v179h185q0 -243 -25 -333.5t-111 -101.5l-27 55q35 11 58.5 38.5t32.5 62t12 56.5t3 44h-128z" />
<glyph unicode="&#x201e;" horiz-adv-x="725" d="M123 -13h168q-12 -74 -24.5 -151t-25.5 -156h-67zM446 -13h168q-12 -74 -24.5 -151t-25.5 -156h-67z" />
<glyph unicode="&#x2020;" horiz-adv-x="590" d="M18 1034v83h226v342h118v-342h224v-83h-224v-1034h-118v1034h-226z" />
<glyph unicode="&#x2021;" horiz-adv-x="590" d="M18 448v89h226v577h-226v83h226v262h118v-262h224v-83h-224v-577h224v-89h-224v-448h-118v448h-226z" />
<glyph unicode="&#x2022;" horiz-adv-x="565" d="M104 767q0 81 50 131.5t132 50.5q85 0 134 -48t49 -134q0 -84 -49 -131.5t-134 -47.5q-83 0 -132.5 47.5t-49.5 131.5z" />
<glyph unicode="&#x202f;" horiz-adv-x="468" />
<glyph unicode="&#x2039;" horiz-adv-x="561" d="M78 576v128l388 452v-200l-276 -315l276 -317v-200z" />
<glyph unicode="&#x203a;" horiz-adv-x="561" d="M78 124v200l276 317l-276 315v200l388 -452v-128z" />
<glyph unicode="&#x2044;" horiz-adv-x="651" d="M-29 0l552 1721h145l-553 -1721h-144z" />
<glyph unicode="&#x205f;" horiz-adv-x="586" />
<glyph unicode="&#x2074;" horiz-adv-x="737" d="M39 866v95l301 761h210v-754h134v-102h-134v-277h-136v277h-375zM184 968h230l-1 638z" />
<glyph unicode="&#x20ac;" horiz-adv-x="1096" d="M41 695v89h122v132h-122v89h122v215q0 525 437 525q404 0 404 -525v-70h-145v104q0 83 -12.5 147t-41.5 115.5t-80.5 79t-124.5 27.5q-81 0 -138.5 -27.5t-88.5 -79t-44.5 -115.5t-13.5 -147v-249h268v-89h-268v-132h268v-89h-268v-230q0 -83 13.5 -147t44.5 -116 t88.5 -79.5t138.5 -27.5q73 0 124.5 27.5t80.5 79.5t41.5 116t12.5 147v118h145v-84q0 -91 -11 -166t-39.5 -143.5t-73.5 -115t-116 -74t-164 -27.5q-100 0 -176.5 27.5t-125.5 74t-79.5 115t-43 143.5t-12.5 166v196h-122z" />
<glyph unicode="&#x2122;" horiz-adv-x="1399" d="M57 1364v77h426v-77h-164v-678h-99v678h-163zM646 686v755h163l148 -539l163 539h150v-755h-89v724l-201 -724h-47l-200 714v-714h-87z" />
<glyph unicode="&#x220f;" horiz-adv-x="1188" d="M152 0v1715h888v-1715h-184v1600h-520v-1600h-184z" />
<glyph unicode="&#x2212;" horiz-adv-x="702" d="M106 461v115h504v-115h-504z" />
<glyph unicode="&#x222b;" horiz-adv-x="500" d="M-41 -272q24 -6 74 -6q33 0 56 10t34.5 22t17.5 36t6.5 39t0.5 43v8v1234h-138v84h138v169q0 41 2.5 72.5t15 74t34.5 70.5t64 48t101 20q69 0 122 -13v-109q-24 6 -74 6q-33 0 -56 -10t-34.5 -22t-17.5 -36t-6.5 -39t-0.5 -43v-8v-180h221v-84h-221v-1224 q0 -41 -2.5 -72t-15 -74t-34.5 -70.5t-64 -47.5t-101 -20q-69 0 -122 13v109z" />
<glyph unicode="&#xe000;" horiz-adv-x="1200" d="M0 0v1200h1200v-1200h-1200z" />
<glyph unicode="&#xfb00;" horiz-adv-x="1029" d="M10 1114v84h167v129v18v51t4 55t11.5 59.5t23.5 53t38.5 47t58.5 29.5t81 12q69 0 122 -13v-109q-24 6 -74 6q-33 0 -56 -10t-34.5 -22t-17.5 -36t-6.5 -39t-0.5 -43v-8v-180h347v129v18v51t4 55t11.5 59.5t23.5 53t38.5 47t58.5 29.5t81 12q69 0 122 -13v-109 q-24 6 -74 6q-33 0 -56 -10t-34.5 -22t-17.5 -36t-6.5 -39t-0.5 -43v-8v-180h192v-84h-192v-1114h-150v1114h-347v-1114h-150v1114h-167z" />
<glyph unicode="&#xfb01;" horiz-adv-x="942" d="M10 1114v84h167v129v18v51t4 55t11.5 59.5t23.5 53t38.5 47t58.5 29.5t81 12q69 0 122 -13v-109q-24 6 -74 6q-33 0 -56 -10t-34.5 -22t-17.5 -36t-6.5 -39t-0.5 -43v-8v-180h492v-1198h-150v1114h-342v-1114h-150v1114h-167zM669 1472v179h150v-179h-150z" />
<glyph unicode="&#xfb02;" horiz-adv-x="983" d="M10 1114v84h167v169q0 88 22 145.5t69.5 88t107.5 41.5t150 11q86 0 163.5 -12.5t112.5 -24.5l35 -13v-1603h-150v1532q-129 10 -172 10q-105 0 -146.5 -32.5t-41.5 -131.5v-180h192v-84h-192v-1114h-150v1114h-167z" />
<glyph unicode="&#xfb03;" horiz-adv-x="1439" d="M10 1114v84h167v129v18v51t4 55t11.5 59.5t23.5 53t38.5 47t58.5 29.5t81 12q69 0 122 -13v-109q-24 6 -74 6q-33 0 -56 -10t-34.5 -22t-17.5 -36t-6.5 -39t-0.5 -43v-8v-180h347v129v18v51t4 55t11.5 59.5t23.5 53t38.5 47t58.5 29.5t81 12q69 0 122 -13v-109 q-24 6 -74 6q-33 0 -56 -10t-34.5 -22t-17.5 -36t-6.5 -39t-0.5 -43v-8v-180h492v-1198h-150v1114h-342v-1114h-150v1114h-347v-1114h-150v1114h-167zM1166 1472v179h150v-179h-150z" />
<glyph unicode="&#xfb04;" horiz-adv-x="1480" d="M10 1114v84h167v129v18v51t4 55t11.5 59.5t23.5 53t38.5 47t58.5 29.5t81 12q69 0 122 -13v-109q-24 6 -74 6q-33 0 -56 -10t-34.5 -22t-17.5 -36t-6.5 -39t-0.5 -43v-8v-180h347v169q0 88 22 145.5t69.5 88t107.5 41.5t150 11q86 0 163.5 -12.5t112.5 -24.5l35 -13 v-1603h-150v1532q-129 10 -172 10q-105 0 -146.5 -32.5t-41.5 -131.5v-180h249v-84h-249v-1114h-150v1114h-347v-1114h-150v1114h-167z" />
<glyph horiz-adv-x="1362" d="M-70 1157l572 11l178 542l188 -542h572l-461 -349l170 -542l-469 327l-459 -327l168 542z" />
<glyph horiz-adv-x="1082" d="M16 1114v84h163v425h150v-425h338v425h150v-425h192v-84h-192v-824q0 -43 1 -67.5t6.5 -53t16 -42.5t30 -23.5t48.5 -9.5q49 0 88 8v-103q-67 -17 -130 -17q-56 0 -96 17.5t-61.5 43.5t-34 69t-15.5 80.5t-3 90.5v831h-338v-824q0 -43 1 -67.5t6.5 -53t16 -42.5t30 -23.5 t48.5 -9.5q49 0 88 8v-103q-67 -17 -130 -17q-56 0 -96 17.5t-61.5 43.5t-34 69t-15.5 80.5t-3 90.5v831h-163z" />
</font>
</defs>
</svg>
