<?xml version="1.0" standalone="no"?>
<!DOCTYPE svg PUBLIC "-//W3C//DTD SVG 1.1//EN" "http://www.w3.org/Graphics/SVG/1.1/DTD/svg11.dtd" >
<svg xmlns="http://www.w3.org/2000/svg">
<metadata></metadata>
<defs>
<font id="plateletmedium" horiz-adv-x="946" >
<font-face units-per-em="2048" ascent="1638" descent="-410" />
<missing-glyph horiz-adv-x="500" />
<glyph unicode="&#xfb01;" horiz-adv-x="1892" d="M123 856v45q0 45 45 45h45q45 0 45 45v49q0 66 24.5 127.5t68.5 107.5t106.5 72.5t138.5 24.5l733 -20q45 0 45 -45v-45q0 -45 -45 -45l-733 10q-43 0 -77 -15.5t-56.5 -42t-34.5 -60.5t-12 -69v-49q0 -45 45 -45h293q45 0 45 -45v-45q0 -45 -45 -45h-293q-45 0 -45 -45 v-721q0 -45 -45 -45h-68q-45 0 -45 45v721q0 45 -45 45h-45q-45 0 -45 45zM1217 311v590q0 45 45 45h67q45 0 45 -45v-590q0 -35 12.5 -68.5t36 -59t56 -42t75.5 -16.5q33 0 57.5 9t37.5 16q18 10 33.5 9t29.5 -18l37 -47q14 -18 9 -35.5t-21 -27.5q-35 -23 -82 -37 t-101 -14q-76 0 -138 26.5t-106 72.5t-68.5 106.5t-24.5 125.5z" />
<glyph unicode="&#xfb02;" horiz-adv-x="1892" d="M125 856v45q0 45 45 45h45q45 0 45 45v49q0 66 24.5 127.5t68.5 107.5t106.5 72.5t138.5 24.5l621 -18q90 -4 90 -92v-951q0 -35 12 -68.5t34.5 -59t56.5 -42t77 -16.5q47 0 74.5 16.5t50.5 34.5t39 20.5t37 -12.5l41 -28q16 -12 18 -31t-10 -33q-39 -47 -101.5 -79.5 t-148.5 -32.5q-76 0 -138.5 26.5t-106.5 72.5t-68.5 106.5t-24.5 125.5v863q0 45 -45 45l-508 8q-43 0 -77 -15.5t-56.5 -42t-34.5 -60.5t-12 -69v-49q0 -45 45 -45h293q45 0 45 -45v-45q0 -45 -45 -45h-293q-45 0 -45 -45v-721q0 -45 -45 -45h-68q-45 0 -45 45v721 q0 45 -45 45h-45q-45 0 -45 45z" />
<glyph horiz-adv-x="2048" />
<glyph horiz-adv-x="2048" />
<glyph unicode="&#xd;" horiz-adv-x="0" />
<glyph unicode=" " />
<glyph unicode="!" d="M395 45v45q0 45 45 45h66q45 0 45 -45v-45q0 -45 -45 -45h-66q-45 0 -45 45zM395 451v856q0 45 45 45h66q45 0 45 -45v-856q0 -45 -45 -45h-66q-45 0 -45 45z" />
<glyph unicode="&#x22;" d="M250 991v316q0 45 45 45h65q45 0 46 -45v-316q0 -45 -46 -45h-65q-45 0 -45 45zM541 991v316q0 45 45 45h65q45 0 45 -45v-316q0 -45 -45 -45h-65q-45 0 -45 45z" />
<glyph unicode="#" d="M135 856v45q0 45 45 45h45q45 0 45 45v45q0 45 -45 45h-45q-45 0 -45 45v45q0 45 45 46h45q45 0 45 45v45q0 45 45 45h45q45 0 46 -45v-45q0 -45 45 -45h45q45 0 45 45v45q0 45 45 45h45q45 0 45 -45v-45q0 -45 45 -45h45q45 0 45 -46v-45q0 -45 -45 -45h-45 q-45 0 -45 -45v-45q0 -45 45 -45h45q45 0 45 -45v-45q0 -45 -45 -45h-45q-45 0 -45 -45v-45q0 -45 -45 -45h-45q-45 0 -45 45v45q0 45 -45 45h-45q-45 0 -45 -45v-45q0 -45 -46 -45h-45q-45 0 -45 45v45q0 45 -45 45h-45q-45 0 -45 45zM406 991q0 -45 45 -45h45q45 0 45 45 v45q0 45 -45 45h-45q-45 0 -45 -45v-45z" />
<glyph unicode="$" d="M145 166q-23 37 13 63l47 33q35 23 59 -12q33 -45 85 -85t124 -40q49 0 83 14.5t55.5 37t31.5 52t10 58.5q0 53 -27.5 79.5t-62.5 41.5q-39 14 -90 18q-152 8 -233.5 81t-81.5 189q0 86 56 158t151 98q29 6 28 39v45q0 45 45 45h68q45 0 45 -45v-45q0 -29 29 -39 q39 -14 77.5 -36.5t71.5 -59.5q29 -35 -6 -61l-49 -35q-16 -10 -32.5 -8t-31.5 14q-59 57 -137 57q-47 0 -79 -13t-50 -33.5t-26.5 -42t-8.5 -38.5q0 -47 25.5 -71.5t56.5 -36.5q37 -14 82 -19q68 -4 129.5 -21.5t107.5 -51t73.5 -85.5t27.5 -124q0 -117 -62.5 -190.5 t-160.5 -102.5q-14 -4 -22.5 -15.5t-8.5 -23.5v-45q0 -45 -45 -45h-68q-45 0 -45 45v45q0 33 -30 39q-74 20 -132.5 69.5t-91.5 102.5z" />
<glyph unicode="%" d="M135 1020v151q0 39 14.5 76t41 64.5t64.5 44t83 16.5t83 -16.5t64.5 -44t41 -64.5t14.5 -76v-151q0 -41 -14.5 -77t-41 -63.5t-64.5 -44t-83 -16.5t-83 16.5t-64.5 44t-41 63.5t-14.5 77zM137 520q4 19 21 29l567 366q33 23 61 -14l17 -22q25 -41 -12 -64l-568 -366 q-35 -23 -61 14l-17 22q-12 16 -8 35zM254 1020q0 -35 19.5 -63.5t64.5 -28.5q47 0 65.5 28.5t18.5 63.5v151q0 35 -18.5 64t-65.5 29q-45 0 -64.5 -29t-19.5 -64v-151zM406 180v152q0 39 14 75.5t40.5 64.5t64.5 44t83 16t83 -16t64.5 -44t41 -64.5t14.5 -75.5v-152 q0 -41 -14.5 -76.5t-41 -63.5t-64.5 -44t-83 -16t-83 16t-64.5 44t-40.5 63.5t-14 76.5zM524 180q0 -35 19.5 -63.5t64.5 -28.5q47 0 65.5 28.5t18.5 63.5v152q0 35 -18.5 63.5t-65.5 28.5q-45 0 -64.5 -28.5t-19.5 -63.5v-152z" />
<glyph unicode="&#x26;" d="M135 270q0 45 10.5 78t23.5 55.5t28.5 36t25.5 19.5q23 16 0 33q-12 8 -26.5 21t-28.5 34.5t-23.5 53.5t-9.5 75q0 70 23.5 124t61.5 91t86 55.5t100 18.5q72 0 125 -29t85 -74q25 -35 -12 -61l-39 -29q-39 -29 -82 14q-33 33 -77 33q-47 0 -80 -40t-33 -103 q0 -61 45 -98t158 -37h270q45 0 45 -45v-45q0 -45 -45 -45h-45q-45 0 -45 -46v-90q0 -139 -77 -214.5t-193 -75.5q-51 0 -99.5 19t-86.5 56t-61.5 91.5t-23.5 123.5zM293 270q0 -72 34.5 -108.5t78.5 -36.5q47 0 79.5 37t32.5 108v90q0 45 -45 46h-67q-43 0 -78 -34 t-35 -102z" />
<glyph unicode="'" d="M395 991v316q0 45 45 45h66q45 0 45 -45v-316q0 -45 -45 -45h-66q-45 0 -45 45z" />
<glyph unicode="(" d="M313 41v999q0 66 24.5 126.5t69 106.5t106.5 72.5t138 26.5q45 0 45 -45v-55q0 -45 -45 -45q-43 0 -76.5 -16.5t-56 -42t-35 -59.5t-12.5 -69v-999q0 -35 12.5 -68.5t35 -59.5t56 -42t76.5 -16q45 0 45 -45v-56q0 -45 -45 -45q-76 0 -138 26.5t-106.5 73t-69 106.5 t-24.5 126z" />
<glyph unicode=")" d="M250 -190q0 45 45 45q43 0 77 16t56.5 42t34.5 59.5t12 68.5v999q0 35 -12 69t-34.5 59.5t-56.5 42t-77 16.5q-45 0 -45 45v55q0 45 45 45q76 0 138.5 -26.5t106.5 -72.5t68.5 -106.5t24.5 -126.5v-999q0 -66 -24.5 -126t-68.5 -106.5t-106.5 -73t-138.5 -26.5 q-45 0 -45 45v56z" />
<glyph unicode="*" d="M170 864q-23 39 16 62l109 63q41 25 0 51l-109 64q-39 23 -16 61l23 37q10 16 24 22.5t37 -5.5l106 -62q20 -10 33 -3t13 28v125q0 45 45 45h45q45 0 45 -45v-125q0 -20 12 -27.5t33 2.5l106 62q23 12 37 6t25 -23l22 -37q23 -39 -16 -61l-109 -64q-41 -27 0 -51l109 -63 q39 -23 16 -62l-22 -39q-23 -39 -62 -16l-106 61q-20 12 -32.5 4t-12.5 -28v-125q0 -45 -45 -45h-45q-45 0 -45 45v125q0 20 -12.5 28.5t-33.5 -4.5l-106 -61q-39 -23 -61 16z" />
<glyph unicode="+" d="M135 451v45q0 45 45 45h170q45 0 45 45v180q0 45 45 45h66q45 0 45 -45v-180q0 -45 45 -45h170q45 0 45 -45v-45q0 -45 -45 -45h-170q-45 0 -45 -46v-180q0 -45 -45 -45h-66q-45 0 -45 45v180q0 45 -45 46h-170q-45 0 -45 45z" />
<glyph unicode="," d="M219 -195q0 41 45 52q14 2 37 15t43.5 35.5t35.5 55.5t15 78v49q0 45 45 45h66q45 0 45 -45v-49q0 -68 -25.5 -127t-65.5 -103t-92.5 -71t-103.5 -29q-45 -4 -45 45v49z" />
<glyph unicode="-" d="M203 451v45q0 45 45 45h450q45 0 45 -45v-45q0 -45 -45 -45h-450q-45 0 -45 45z" />
<glyph unicode="." d="M395 45v45q0 45 45 45h66q45 0 45 -45v-45q0 -45 -45 -45h-66q-45 0 -45 45z" />
<glyph unicode="/" d="M139 -217l512 1524q14 45 58 45h55q27 0 39 -14.5t4 -39.5l-514 -1523q-16 -45 -57 -45h-56q-25 0 -37 15t-4 38z" />
<glyph unicode="0" d="M135 311v324q0 66 24.5 126t68.5 106t106.5 73t138.5 27t138.5 -27t106.5 -73t68.5 -106.5t24.5 -125.5v-324q0 -66 -24.5 -126t-68.5 -106t-106.5 -72.5t-138.5 -26.5t-138.5 26.5t-106.5 72.5t-68.5 106.5t-24.5 125.5zM293 311q0 -35 12 -68.5t34.5 -59t56.5 -42 t77 -16.5t77 16.5t56.5 42t34.5 59t12 68.5v324q0 35 -12 68.5t-34.5 59t-56.5 42t-77 16.5t-77 -16.5t-56.5 -42t-34.5 -59t-12 -68.5v-324z" />
<glyph unicode="1" d="M135 45v45q0 45 45 45h170q45 0 45 45v451q0 45 -45 45h-28q-31 0 -46.5 18.5t7.5 53.5l98 153q31 45 68 45h59q45 0 45 -45v-721q0 -45 45 -45h168q45 0 45 -45v-45q0 -45 -45 -45h-586q-45 0 -45 45z" />
<glyph unicode="2" d="M135 45q0 94 24.5 164t77 128t136.5 112.5t205 121.5q61 35 61 105q0 25 -10.5 51.5t-32 48t-52 35.5t-71.5 14q-66 0 -103.5 -34.5t-66.5 -83.5q-8 -14 -25.5 -20.5t-37.5 5.5l-47 29q-16 10 -20.5 27.5t5.5 35.5q43 86 120 134.5t175 48.5q72 0 130.5 -23.5t99 -63.5 t63 -92.5t22.5 -111.5q0 -86 -32.5 -139.5t-96.5 -87.5q-61 -35 -122.5 -71t-110.5 -73t-81 -73.5t-32 -69.5q0 -27 29 -27h424q45 0 45 -45v-45q0 -45 -45 -45h-586q-45 0 -45 45z" />
<glyph unicode="3" d="M170 -244q-18 35 18 62l48 32q35 23 61 -16q8 -12 20.5 -31.5t33 -38t50 -32t72.5 -13.5t77 16.5t56.5 42t34.5 59.5t12 69v205q0 35 -11 68.5t-35.5 59t-63.5 42t-92 16.5q-45 0 -45 45v68q0 45 45 45q109 0 155.5 50t46.5 136q0 78 -51 131t-129 53q-66 0 -105.5 -34.5 t-66.5 -83.5q-8 -14 -25.5 -20.5t-37.5 5.5l-48 29q-16 10 -20 27.5t6 35.5q43 86 119 134.5t178 48.5q76 0 138.5 -27t106.5 -72t68.5 -104t24.5 -123q0 -88 -28.5 -140t-69.5 -91q-35 -33 0 -62q41 -35 69.5 -96.5t28.5 -140.5v-205q0 -66 -24.5 -126.5t-68.5 -106.5 t-106.5 -72.5t-138.5 -26.5t-130 22.5t-89 52t-55.5 60.5t-28.5 47z" />
<glyph unicode="4" d="M135 45v68q0 35 10 65l254 723q14 45 62 45h57q25 0 36 -15.5t3 -35.5l-254 -715q-6 -18 2 -31.5t31 -13.5h149q45 0 45 45v45q0 41 21 82l31 62q18 37 49 37h12q45 0 45 -46v-180q0 -45 45 -45h33q45 0 45 -45v-45q0 -45 -45 -45h-33q-45 0 -45 -45v-315q0 -45 -45 -46 h-68q-45 0 -45 46v315q0 45 -45 45h-305q-45 0 -45 45z" />
<glyph unicode="5" d="M135 313v543q0 90 90 90h473q45 0 45 -45v-45q0 -45 -45 -45h-360q-45 0 -45 -45v-219q0 -12 9 -18.5t24 -0.5q78 33 147 33q76 0 138.5 -26.5t106.5 -72.5t68.5 -106.5t24.5 -126.5v-323q0 -66 -24.5 -126.5t-68.5 -106.5t-106.5 -72.5t-138.5 -26.5t-130 22.5t-89 52 t-55.5 60.5t-28.5 47q-18 35 18 62l48 32q35 23 61 -16q8 -12 20.5 -31.5t33 -38t50 -32t72.5 -13.5t77 16.5t56.5 42t34.5 59.5t12 69v323q0 35 -12 69t-34.5 59.5t-56.5 42t-77 16.5q-78 0 -123 -46t-61 -100q-14 -45 -56 -34l-61 16q-37 10 -37 61z" />
<glyph unicode="6" d="M135 311v203q0 70 11.5 142.5t30 141t45 132t57.5 117.5q53 92 119.5 166.5t117.5 111.5q16 10 35.5 18.5t46.5 8.5h47q33 0 40 -26t-15 -44q-68 -59 -121 -116.5t-96 -116.5q-29 -37 -55.5 -89.5t-37.5 -93.5q-4 -16 4.5 -26.5t26.5 -3.5q35 10 82 10q76 0 138.5 -26.5 t106.5 -73t68.5 -106.5t24.5 -126v-203q0 -66 -24.5 -126t-68.5 -106t-106.5 -72.5t-138.5 -26.5t-138.5 26.5t-106.5 72.5t-68.5 106.5t-24.5 125.5zM293 311q0 -35 12 -68.5t34.5 -59t56.5 -42t77 -16.5t77 16.5t56.5 42t34.5 59t12 68.5v203q0 35 -12 68.5t-34.5 59.5 t-56.5 42t-77 16t-77 -16t-56.5 -42t-34.5 -59.5t-12 -68.5v-203z" />
<glyph unicode="7" d="M135 856v45q0 45 45 45h541q90 0 90 -90q0 -27 -9 -50.5t-18 -39.5q-14 -27 -24 -46.5t-21.5 -43t-26 -54t-34.5 -81.5q-43 -100 -75 -201.5t-54 -204.5q-23 -113 -34 -209t-15 -194q-2 -29 -2 -46.5v-27.5v-18q0 -45 -45 -46h-68q-27 0 -37 14.5t-8 37.5v14q0 10 1 26.5 t3 45.5q4 98 15.5 196.5t33.5 206.5q20 102 53 204.5t76 201.5q45 102 76 163.5t35 69.5q10 18 2 27.5t-25 9.5h-430q-45 0 -45 45z" />
<glyph unicode="8" d="M135 311v203q0 86 27.5 141.5t62.5 87.5q27 25 29 42.5t-16 39.5q-25 31 -45.5 75t-20.5 104v73q0 59 23.5 112.5t64.5 94.5t96.5 64.5t116.5 23.5t116.5 -23.5t96.5 -64.5t64.5 -94t23.5 -113v-73q0 -59 -20.5 -103.5t-44.5 -75.5q-18 -23 -16.5 -40t28.5 -42 q35 -33 62.5 -88t27.5 -141v-203q0 -66 -24.5 -126t-68.5 -106t-106.5 -72.5t-138.5 -26.5t-138.5 26.5t-106.5 72.5t-68.5 106.5t-24.5 125.5zM293 311q0 -35 12 -68.5t34.5 -59t56.5 -42t77 -16.5t77 16.5t56.5 42t34.5 59t12 68.5v203q0 35 -12 68.5t-34.5 59.5t-56.5 42 t-77 16t-77 -16t-56.5 -42t-34.5 -59.5t-12 -68.5v-203zM330 1004q0 -55 36.5 -102.5t106.5 -47.5t106.5 47t36.5 103v73q0 55 -36.5 102.5t-106.5 47.5t-106.5 -47t-36.5 -103v-73z" />
<glyph unicode="9" d="M135 432v203q0 66 24.5 126t68.5 106t106.5 73t138.5 27t138.5 -27t106.5 -73t68.5 -106.5t24.5 -125.5v-203q0 -70 -11.5 -142.5t-29.5 -141t-45 -133t-57 -115.5q-53 -92 -120 -167t-118 -112q-16 -10 -35.5 -18.5t-46.5 -8.5h-47q-33 0 -40 26t15 44 q68 59 121.5 116.5t96.5 117.5q29 37 55 89t37 93q4 16 -4.5 26.5t-26.5 4.5q-35 -10 -82 -11q-76 0 -138.5 27t-106.5 73t-68.5 106.5t-24.5 125.5zM293 432q0 -35 12 -68.5t34.5 -59t56.5 -42t77 -16.5t77 16.5t56.5 42t34.5 59t12 68.5v203q0 35 -12 68.5t-34.5 59 t-56.5 42t-77 16.5t-77 -16.5t-56.5 -42t-34.5 -59t-12 -68.5v-203z" />
<glyph unicode=":" d="M395 45v45q0 45 45 45h66q45 0 45 -45v-45q0 -45 -45 -45h-66q-45 0 -45 45zM395 856v45q0 45 45 45h66q45 0 45 -45v-45q0 -45 -45 -45h-66q-45 0 -45 45z" />
<glyph unicode=";" d="M219 -195q0 41 45 52q14 2 37 15t43.5 35.5t35.5 55.5t15 78v49q0 45 45 45h66q45 0 45 -45v-49q0 -68 -25.5 -127t-65.5 -103t-92.5 -71t-103.5 -29q-45 -4 -45 45v49zM395 856v45q0 45 45 45h66q45 0 45 -45v-45q0 -45 -45 -45h-66q-45 0 -45 45z" />
<glyph unicode="&#x3c;" d="M135 473q0 33 23.5 53.5t54.5 34.5l543 246q20 10 37.5 -3t17.5 -38v-53q0 -49 -45 -70l-334 -147q-18 -8 -18 -23q0 -14 18 -22l334 -148q45 -20 45 -70v-53q0 -25 -17.5 -38t-37.5 -3l-543 246q-31 14 -54.5 34.5t-23.5 53.5z" />
<glyph unicode="=" d="M135 315v45q0 45 45 46h586q45 0 45 -46v-45q0 -45 -45 -45h-586q-45 0 -45 45zM135 586v45q0 45 45 45h586q45 0 45 -45v-45q0 -45 -45 -45h-586q-45 0 -45 45z" />
<glyph unicode="&#x3e;" d="M135 180v53q0 49 45 70l334 148q18 8 18 22t-18 23l-334 147q-45 20 -45 70v53q0 25 17.5 38t37.5 3l543 -246q31 -14 54.5 -34.5t23.5 -53.5t-23.5 -53.5t-54.5 -34.5l-543 -246q-20 -10 -37.5 3.5t-17.5 37.5z" />
<glyph unicode="?" d="M157 1160q-3 18 7 34q102 178 295 178q76 0 138 -26.5t106.5 -72.5t69 -106.5t24.5 -126.5q0 -121 -64.5 -203.5t-163.5 -115.5q-33 -12 -32 -47v-223q0 -45 -45 -45h-68q-45 0 -45 45v309q0 78 90 94q78 14 124 66.5t46 119.5q0 35 -12.5 69t-35 59.5t-56 42t-76.5 16.5 q-59 0 -102.5 -30t-71.5 -83q-10 -16 -28.5 -22.5t-37.5 8.5l-43 30q-16 12 -19 30zM379 45v45q0 45 45 45h68q45 0 45 -45v-45q0 -45 -45 -45h-68q-45 0 -45 45z" />
<glyph unicode="@" d="M135 311v324q0 61 24.5 120.5t68.5 106.5t106.5 76t138.5 29t138.5 -29t106.5 -76t68.5 -106.5t24.5 -120.5v-334q0 -53 -28.5 -86t-84.5 -33q-18 0 -37.5 8.5t-29.5 18.5q-14 10 -22.5 10t-22.5 -10q-16 -12 -45 -22.5t-68 -10.5q-45 0 -83 16.5t-64.5 44t-41 63.5 t-14.5 77v192q0 39 14.5 76t41 64.5t64.5 44t83 16.5t83 -16.5t64.5 -44t41 -64.5t14.5 -76v-239q0 -29 22 -29q23 0 23 29v305q0 49 -19.5 92t-53.5 76t-79 52t-96 19t-96 -19t-78 -52t-52.5 -76t-19.5 -92v-324q0 -49 19.5 -92t52.5 -75.5t78 -52t96 -19.5t89 16t67 35 q14 10 31.5 10t29.5 -14t11 -31.5t-11 -30.5q-6 -6 -22.5 -19t-43 -25.5t-64.5 -22.5t-87 -10q-76 0 -138.5 28.5t-106.5 75.5t-68.5 106.5t-24.5 120.5zM401 377q0 -35 20.5 -55.5t51.5 -20.5t51.5 20.5t20.5 55.5v192q0 35 -20.5 55.5t-51.5 20.5t-51.5 -20.5t-20.5 -55.5 v-192z" />
<glyph unicode="A" d="M135 45v590q0 66 24.5 126t68.5 106t106.5 73t138.5 27t138.5 -27t106.5 -73t68.5 -106.5t24.5 -125.5v-590q0 -45 -45 -45h-68q-45 0 -45 45v315q0 45 -45 46h-270q-45 0 -45 -46v-315q0 -45 -45 -45h-68q-45 0 -45 45zM293 586q0 -45 45 -45h270q45 0 45 45v49 q0 35 -12 68.5t-34.5 59t-56.5 42t-77 16.5t-77 -16.5t-56.5 -42t-34.5 -59t-12 -68.5v-49z" />
<glyph unicode="B" d="M135 311v590q0 45 45 45h53q23 0 33 -18t29 -8q27 16 73 31.5t105 15.5q154 0 246 -76t92 -215q0 -47 -10 -79t-23.5 -53.5t-29 -33.5t-25.5 -18q-27 -16 0 -33q10 -6 25.5 -19.5t29 -36t23.5 -55.5t10 -78q0 -139 -92 -214.5t-246 -75.5q-76 0 -138.5 26.5t-106.5 72.5 t-68.5 106.5t-24.5 125.5zM293 311q0 -35 12 -68.5t34.5 -59t56.5 -42t77 -16.5q76 0 128 35.5t52 109.5q0 43 -20.5 70t-51 41t-66.5 19.5t-64 5.5q-45 0 -45 45v45q0 45 45 45q29 0 64.5 5t66 19.5t51 41t20.5 69.5q0 74 -52 109.5t-130 35.5q-43 0 -76 -16.5t-55.5 -42 t-34.5 -59t-12 -68.5v-324z" />
<glyph unicode="C" d="M156 311v324q0 66 24.5 126t68.5 106t106.5 73t138.5 27t130 -22.5t89 -52.5t54 -59.5t26 -44.5q6 -14 6 -31.5t-19 -29.5l-49 -35q-16 -11 -29 -11q-18 0 -32 21q-6 10 -18.5 31t-33 40.5t-51 33.5t-73.5 14t-77 -16.5t-56.5 -42t-35 -59t-12.5 -68.5v-324 q0 -35 12.5 -68.5t35 -59t56.5 -42t77 -16.5t72.5 13.5t50 31.5t33 37.5t20.5 32.5q17 25 37 25q12 0 24 -9l47 -33q25 -17 25 -39q0 -10 -6 -22q-8 -16 -28.5 -47t-55.5 -60.5t-89.5 -52t-129.5 -22.5q-76 0 -138.5 26.5t-106.5 72.5t-68.5 106.5t-24.5 125.5z" />
<glyph unicode="D" d="M135 90v766q0 90 90 90h248q76 0 138.5 -23.5t106.5 -65.5t68.5 -99.5t24.5 -122.5v-324q0 -66 -24.5 -123t-68.5 -99t-106.5 -65.5t-138.5 -23.5h-248q-90 0 -90 90zM293 180q0 -45 45 -45h135q86 0 133 53.5t47 122.5v324q0 70 -47 123t-133 53h-135q-45 0 -45 -45 v-586z" />
<glyph unicode="E" d="M152 311v324q0 66 24.5 126t68.5 106t106.5 73t137.5 27q76 0 130.5 -22.5t89 -52.5t54 -59.5t25.5 -44.5q7 -15 7 -32t-19 -29l-49 -35q-16 -11 -29 -11q-18 0 -32 21q-6 10 -18.5 31t-33 40.5t-51.5 33.5t-74 14t-76.5 -16.5t-56 -42t-35 -59t-12.5 -68.5v-49 q0 -45 45 -45h209q45 0 45 -45v-45q0 -45 -45 -45h-209q-45 0 -45 -46v-49q0 -35 12.5 -68.5t35 -59t56 -42t76.5 -16.5t73 13.5t50.5 31.5t32.5 37.5t21 32.5q17 25 37 25q12 0 24 -9l47 -33q25 -17 25 -39q0 -10 -6 -22q-8 -16 -29 -47t-55.5 -60.5t-89 -52t-130.5 -22.5 t-138 26.5t-106 72.5t-68.5 106.5t-24.5 125.5z" />
<glyph unicode="F" d="M195 45v590q0 66 24.5 126t68.5 106t106.5 73t137.5 27q94 0 171 -32t116 -61q17 -10 21 -28q1 -5 1 -10q0 -12 -7 -25l-25 -43q-10 -18 -28.5 -22.5t-35.5 6.5q-41 25 -94 47t-119 22q-43 0 -76.5 -16.5t-56 -42t-35 -59t-12.5 -68.5v-49q0 -45 45 -45h295q45 0 45 -45 v-45q0 -45 -45 -45h-295q-45 0 -45 -46v-315q0 -45 -45 -45h-67q-45 0 -45 45z" />
<glyph unicode="G" d="M135 311v324q0 66 24.5 126t68.5 106t106.5 73t138.5 27t130 -22.5t89 -52.5t54.5 -59.5t25.5 -44.5q6 -14 6 -31.5t-18 -29.5l-49 -35q-16 -11 -29 -11q-19 0 -33 21q-6 10 -18.5 31t-32.5 40.5t-51 33.5t-74 14t-77 -16.5t-56.5 -42t-34.5 -59t-12 -68.5v-324 q0 -35 12 -68.5t34.5 -59t56.5 -42t77 -16.5t77 16.5t56.5 42t34.5 59t12 68.5v49q0 45 -45 46h-90q-45 0 -45 45v45q0 45 45 45h248q45 0 45 -45v-185q0 -66 -24.5 -126t-68.5 -106t-106.5 -72.5t-138.5 -26.5t-138.5 26.5t-106.5 72.5t-68.5 106.5t-24.5 125.5z" />
<glyph unicode="H" d="M135 45v856q0 45 45 45h68q45 0 45 -45v-315q0 -45 45 -45h270q45 0 45 45v315q0 45 45 45h68q45 0 45 -45v-856q0 -45 -45 -45h-68q-45 0 -45 45v315q0 45 -45 46h-270q-45 0 -45 -46v-315q0 -45 -45 -45h-68q-45 0 -45 45z" />
<glyph unicode="I" d="M135 45v45q0 45 45 45h170q45 0 45 45v586q0 45 -45 45h-102q-45 0 -45 45v45q0 45 45 45h450q45 0 45 -45v-45q0 -45 -45 -45h-102q-45 0 -45 -45v-586q0 -45 45 -45h170q45 0 45 -45v-45q0 -45 -45 -45h-586q-45 0 -45 45z" />
<glyph unicode="J" d="M76 -306q-1 4 -1 10q0 12 7 26l24 43q10 18 29 22t35 -6q41 -25 94 -47.5t119 -22.5q43 0 77 16.5t56.5 42t34.5 59.5t12 69v860q0 45 -45 45h-141q-45 0 -45 45v45q0 45 45 45h254q90 0 90 -90v-950q0 -66 -24.5 -126.5t-68.5 -106.5t-106.5 -72.5t-138.5 -26.5 q-94 0 -171 32t-116 60q-16 10 -20 28z" />
<glyph unicode="K" d="M135 45v856q0 45 45 45h68q45 0 45 -45v-307q0 -57 63 -57q33 0 50.5 14t33.5 43l172 309q23 43 68 43h74q25 0 34 -16.5t-4 -38.5l-180 -307q-10 -18 -10 -32q0 -20 22 -30q35 -14 70 -41.5t62.5 -65.5t45 -87t17.5 -109v-174q0 -45 -45 -45h-68q-45 0 -45 45v174 q0 35 -12 69t-34.5 59.5t-56.5 42t-77 16.5t-77 -16.5t-56.5 -42t-34.5 -59.5t-12 -69v-174q0 -45 -45 -45h-68q-45 0 -45 45z" />
<glyph unicode="L" d="M211 90v811q0 45 45 45h68q45 0 45 -45v-721q0 -45 45 -45h352q45 0 45 -45v-45q0 -45 -45 -45h-465q-90 0 -90 90z" />
<glyph unicode="M" d="M135 45v856q0 45 45 45h80q23 0 37 -13t22 -32l136 -330q8 -20 18 -20t19 20l135 330q8 18 22.5 31.5t36.5 13.5h80q45 0 45 -45v-856q0 -45 -45 -45h-57q-45 0 -45 45v496q0 12 -11.5 14t-17.5 -14l-94 -213q-10 -25 -27.5 -41.5t-40.5 -16.5t-40 15.5t-27 42.5l-95 213 q-8 16 -18 14t-10 -14v-496q0 -45 -45 -45h-58q-45 0 -45 45z" />
<glyph unicode="N" d="M135 45v856q0 45 45 45h78q23 0 36 -13t23 -32l318 -559q10 -16 19.5 -14t9.5 14v559q0 45 45 45h57q45 0 45 -45v-856q0 -45 -45 -45h-78q-23 0 -36 13.5t-23 31.5l-318 565q-8 16 -18 14.5t-10 -14.5v-565q0 -45 -45 -45h-58q-45 0 -45 45z" />
<glyph unicode="O" d="M135 311v324q0 66 24.5 126t68.5 106t106.5 73t138.5 27t138.5 -27t106.5 -73t68.5 -106.5t24.5 -125.5v-324q0 -66 -24.5 -126t-68.5 -106t-106.5 -72.5t-138.5 -26.5t-138.5 26.5t-106.5 72.5t-68.5 106.5t-24.5 125.5zM293 311q0 -35 12 -68.5t34.5 -59t56.5 -42 t77 -16.5t77 16.5t56.5 42t34.5 59t12 68.5v324q0 35 -12 68.5t-34.5 59t-56.5 42t-77 16.5t-77 -16.5t-56.5 -42t-34.5 -59t-12 -68.5v-324z" />
<glyph unicode="P" d="M135 45v590q0 66 24.5 126t68.5 106t106.5 73t138.5 27t138.5 -27t106.5 -73t68.5 -106t24.5 -126t-24.5 -126t-68.5 -106.5t-106.5 -73t-138.5 -26.5q-70 0 -147 33q-14 6 -23.5 0t-9.5 -19v-272q0 -45 -45 -45h-68q-45 0 -45 45zM293 635q0 -35 12 -69t34.5 -59.5 t56.5 -41.5t77 -16t77 16t56.5 41.5t34.5 59.5t12 69t-12 68.5t-34.5 59t-56.5 42t-77 16.5t-77 -16.5t-56.5 -42t-34.5 -59t-12 -68.5z" />
<glyph unicode="Q" d="M135 432v203q0 66 24.5 126t68.5 106t106.5 73t138.5 27t138.5 -27t106.5 -73t68.5 -106.5t24.5 -125.5v-203q0 -82 -33 -145.5t-80 -106.5q-23 -18 0 -35q14 -10 33 -15t35 -5q45 0 45 -45v-55q0 -45 -45 -45q-72 0 -118 22.5t-87 69.5q-10 12 -30.5 20t-57.5 8 q-76 0 -138.5 27t-106.5 73t-68.5 106.5t-24.5 125.5zM293 432q0 -35 12 -68.5t34.5 -59t56.5 -42t77 -16.5q23 0 23 22q0 23 -21.5 39.5t-46.5 20.5q-45 6 -45 47v53q0 45 45 45q57 0 107.5 -26.5t78.5 -75.5q8 -12 16.5 -12.5t12.5 10.5q10 25 10 63v203q0 35 -12 68.5 t-34.5 59t-56.5 42t-77 16.5t-77 -16.5t-56.5 -42t-34.5 -59t-12 -68.5v-203z" />
<glyph unicode="R" d="M135 45v590q0 66 24.5 126t68.5 106t106.5 73t138.5 27q72 0 134.5 -19.5t107.5 -57.5t70.5 -92.5t25.5 -121.5q0 -43 -10 -75t-25.5 -53.5t-31 -34.5t-25.5 -21q-27 -20 0 -43q35 -29 63.5 -81.5t28.5 -148.5v-174q0 -45 -45 -45h-68q-45 0 -45 45v174q0 35 -12 69 t-34.5 59.5t-56.5 42t-77 16.5h-135q-45 0 -45 -46v-315q0 -45 -45 -45h-68q-45 0 -45 45zM293 586q0 -45 45 -45h135q20 0 51 5t59.5 19.5t49 41t20.5 69.5q0 74 -54 109.5t-126 35.5q-43 0 -77 -16.5t-56.5 -42t-34.5 -59t-12 -68.5v-49z" />
<glyph unicode="S" d="M145 166q-9 14 -9 27q0 20 22 36l47 33q14 9 26 9q18 0 33 -21q33 -45 85 -85t124 -40q49 0 83 14.5t55.5 37t31.5 52t10 58.5q0 53 -27.5 79.5t-62.5 41.5q-39 14 -90 18q-152 8 -233.5 81t-81.5 189q0 49 19.5 97.5t59 87.5t98 62.5t138.5 23.5q88 0 151.5 -33 t104.5 -78q14 -16 14 -30q0 -17 -20 -31l-49 -35q-16 -10 -32.5 -8t-31.5 14q-59 57 -137 57q-47 0 -79 -13t-50 -33.5t-26.5 -42t-8.5 -38.5q0 -47 25.5 -71.5t56.5 -36.5q37 -14 82 -19q68 -4 129.5 -21.5t107.5 -51t73.5 -85.5t27.5 -124q0 -66 -22.5 -122t-66.5 -97 t-106.5 -64.5t-142.5 -23.5q-66 0 -119 18t-93 46t-68.5 60.5t-47.5 61.5z" />
<glyph unicode="T" d="M135 856v45q0 45 45 45h586q45 0 45 -45v-45q0 -45 -45 -45h-170q-45 0 -45 -45v-721q0 -45 -45 -45h-66q-45 0 -45 45v721q0 45 -45 45h-170q-45 0 -45 45z" />
<glyph unicode="U" d="M135 311v590q0 45 45 45h68q45 0 45 -45v-590q0 -35 12 -68.5t34.5 -59t56.5 -42t77 -16.5t77 16.5t56.5 42t34.5 59t12 68.5v590q0 45 45 45h68q45 0 45 -45v-590q0 -66 -24.5 -126t-68.5 -106t-106.5 -72.5t-138.5 -26.5t-138.5 26.5t-106.5 72.5t-68.5 106.5 t-24.5 125.5z" />
<glyph unicode="V" d="M141 899q-1 4 -1 8q0 11 8 23q12 16 36 16h68q39 0 53 -45l150 -520q8 -27 18 -27t19 27l149 520q14 45 53 45h68q23 0 35 -16q9 -12 9 -23q0 -4 -1 -8l-254 -842q-10 -31 -27.5 -54t-50.5 -23t-50 23.5t-28 53.5z" />
<glyph unicode="W" d="M135 129v772q0 45 45 45h58q45 0 45 -45v-600q0 -12 10 -14t18 14l82 162q14 29 31.5 53.5t48.5 24.5t48.5 -24.5t31.5 -53.5l82 -162q8 -16 18.5 -14t10.5 14v600q0 45 45 45h57q45 0 45 -45v-772q0 -82 -33 -115.5t-73 -33.5q-25 0 -44.5 6t-38 23.5t-37 48t-38.5 77.5 l-53 117q-12 23 -21 22q-10 0 -20 -22l-54 -117q-23 -49 -41 -78.5t-36.5 -47t-37 -23.5t-42.5 -6q-39 0 -73 33.5t-34 115.5z" />
<glyph unicode="X" d="M140 16q-4 7 -4 16q0 12 9 27l224 381q10 16 10 33t-10 35l-226 381q-5 10 -5 20q0 9 4 17q8 20 34 20h70q23 0 39 -14t26 -31l138 -237q12 -23 24 -23t25 23l137 237q10 16 26.5 30.5t38.5 14.5h72q25 0 33 -20q4 -9 4 -17q0 -10 -6 -20l-225 -381q-10 -18 -10 -35 t10 -33l225 -381q9 -16 9 -28q0 -8 -4 -15q-11 -16 -36 -16h-65q-29 0 -43.5 10t-24.5 27l-141 246q-12 23 -25 22q-12 0 -24 -22l-142 -246q-10 -16 -24.5 -26.5t-42.5 -10.5h-64q-25 0 -36 16z" />
<glyph unicode="Y" d="M142 926q8 20 34 20h70q23 0 39 -13t26 -32l138 -237q12 -23 24 -23t25 23l137 237q10 18 26.5 31.5t38.5 13.5h72q25 0 33 -20q4 -10 4 -18q0 -10 -6 -19l-225 -381q-27 -47 -27 -102v-361q0 -45 -45 -45h-66q-45 0 -45 45v361q0 55 -26 102l-226 381q-5 9 -5 19 q0 8 4 18z" />
<glyph unicode="Z" d="M137 194q4 54 43 103l373 481q10 12 5 22.5t-21 10.5h-295q-45 0 -45 45v45q0 45 45 45h438q90 0 90 -90q0 -29 -11 -51.5t-22 -38.5l-418 -545q-15 -20 -16 -38q0 -11 7 -21q16 -26 63 -27h393q45 0 45 -45v-45q0 -45 -45 -45h-457q-53 0 -94 27.5t-61 70.5 q-17 36 -18 79q0 8 1 17z" />
<glyph unicode="[" d="M291 -180v1442q0 90 90 90h231q45 0 45 -45v-45q0 -45 -45 -45h-118q-45 0 -45 -46v-1261q0 -45 45 -45h118q45 0 45 -45v-45q0 -45 -45 -45h-231q-90 0 -90 90z" />
<glyph unicode="\" d="M139 1298q-8 25 4.5 39.5t38.5 14.5h56q43 0 57 -45l512 -1524q8 -23 -4 -38t-37 -15h-55q-41 0 -58 45z" />
<glyph unicode="]" d="M289 -180q0 45 45 45h119q45 0 45 45v1261q0 45 -45 46h-119q-45 0 -45 45v45q0 45 45 45h231q90 0 90 -90v-1442q0 -90 -90 -90h-231q-45 0 -45 45v45z" />
<glyph unicode="^" d="M139 752l246 542q14 31 34.5 54.5t53.5 23.5t53.5 -23.5t34.5 -54.5l246 -542q10 -20 -3 -38t-38 -18h-53q-49 0 -70 45l-147 334q-8 18 -23 19q-14 0 -22 -19l-148 -334q-20 -45 -70 -45h-53q-25 0 -38 17.5t-3 38.5z" />
<glyph unicode="_" d="M-2 -135h950v-135h-950v135z" />
<glyph unicode="`" d="M314.5 1327.5q11.5 24.5 39.5 24.5h82q63 0 96 -54l91 -147q14 -25 8 -43t-26.5 -24.5t-50.5 4t-62 40.5l-162 152q-27 23 -15.5 47.5z" />
<glyph unicode="a" d="M135 311q0 66 24.5 126.5t68.5 106.5t106.5 72.5t138.5 26.5q82 0 152 -33q12 -6 20 1t8 24q0 35 -12 68.5t-34.5 59t-56.5 42t-77 16.5q-53 0 -96 -13t-74 -30q-20 -10 -33.5 -4t-23.5 25l-27 47q-10 20 -1 36.5t24 24.5q49 29 106.5 44.5t124.5 15.5q76 0 138.5 -27 t106.5 -73t68.5 -106.5t24.5 -125.5v-590q0 -45 -45 -45h-53q-23 0 -33 18q-12 20 -29 9q-29 -16 -72.5 -31.5t-105.5 -15.5q-76 0 -138.5 26.5t-106.5 72.5t-68.5 106.5t-24.5 125.5zM293 311q0 -35 12 -68.5t34.5 -59t56.5 -42t77 -16.5t77 16.5t56.5 42t34.5 59t12 68.5 t-12 69t-34.5 59.5t-56.5 42t-77 16.5t-77 -16.5t-56.5 -42t-34.5 -59.5t-12 -69z" />
<glyph unicode="b" d="M135 311v996q0 45 45 45h68q45 0 45 -45v-355q0 -12 9 -18t24 0q78 33 147 33q154 0 246 -76t92 -215q0 -41 -10 -72t-23.5 -53.5t-29 -36.5t-25.5 -22q-23 -16 0 -33q10 -8 25.5 -23.5t29 -39t23.5 -54.5t10 -72q0 -139 -92 -214.5t-246 -75.5q-76 0 -138.5 26.5 t-106.5 72.5t-68.5 106.5t-24.5 125.5zM293 311q0 -35 12 -68.5t34.5 -59t56.5 -42t77 -16.5q76 0 128 35.5t52 109.5q0 43 -21.5 70t-52 41t-66.5 19.5t-62 5.5q-45 0 -45 45v45q0 45 45 45q27 0 62.5 5t66 19.5t52 41t21.5 69.5q0 74 -52 109.5t-128 35.5q-43 0 -77 -16.5 t-56.5 -42t-34.5 -59t-12 -68.5v-324z" />
<glyph unicode="c" d="M156 311v324q0 66 24.5 126t68.5 106t106.5 73t138.5 27t130 -22.5t89 -52.5t54 -59.5t26 -44.5q6 -14 6 -31.5t-19 -29.5l-49 -35q-16 -11 -29 -11q-18 0 -32 21q-6 10 -18.5 31t-33 40.5t-51 33.5t-73.5 14t-77 -16.5t-56.5 -42t-35 -59t-12.5 -68.5v-324 q0 -35 12.5 -68.5t35 -59t56.5 -42t77 -16.5t72.5 13.5t50 31.5t33 37.5t20.5 32.5q17 25 37 25q12 0 24 -9l47 -33q25 -17 25 -39q0 -10 -6 -22q-8 -16 -28.5 -47t-55.5 -60.5t-89.5 -52t-129.5 -22.5q-76 0 -138.5 26.5t-106.5 72.5t-68.5 106.5t-24.5 125.5z" />
<glyph unicode="d" d="M135 311v324q0 66 24.5 126t68.5 106t106.5 73t138.5 27q70 0 148 -33q14 -6 23 0t9 18v355q0 45 45 45h68q45 0 45 -45v-1262q0 -45 -45 -45h-53q-23 0 -33 18q-12 20 -29 9q-29 -16 -72.5 -31.5t-105.5 -15.5q-76 0 -138.5 26.5t-106.5 72.5t-68.5 106.5t-24.5 125.5z M293 311q0 -35 12 -68.5t34.5 -59t56.5 -42t77 -16.5t77 16.5t56.5 42t34.5 59t12 68.5v324q0 35 -12 68.5t-34.5 59t-56.5 42t-77 16.5t-77 -16.5t-56.5 -42t-34.5 -59t-12 -68.5v-324z" />
<glyph unicode="e" d="M135 311v324q0 66 24.5 126t68.5 106t106.5 73t138.5 27t138.5 -27t106.5 -73t68.5 -106.5t24.5 -125.5v-139q0 -90 -90 -90h-383q-45 0 -45 -46v-49q0 -35 12 -68.5t34.5 -59t56.5 -42t77 -16.5q39 0 72 12.5t57.5 30.5t44 38.5t31.5 39.5q10 16 27.5 17t33.5 -9l45 -33 q18 -14 18.5 -32.5t-7.5 -30.5q-18 -31 -47 -61.5t-68 -57.5t-91 -43t-116 -16q-76 0 -138.5 26.5t-106.5 72.5t-68.5 106.5t-24.5 125.5zM293 586q0 -45 45 -45h270q45 0 45 45v49q0 35 -12 68.5t-34.5 59t-56.5 42t-77 16.5t-77 -16.5t-56.5 -42t-34.5 -59t-12 -68.5v-49z " />
<glyph unicode="f" d="M125 856v45q0 45 45 45h45q45 0 45 45v49q0 66 24.5 126.5t68.5 106.5t106.5 72.5t138.5 26.5q94 0 171 -31.5t116 -60.5q16 -10 20 -28q1 -4 1 -10q0 -12 -7 -25l-25 -43q-10 -18 -28.5 -22.5t-34.5 5.5q-41 25 -94 47.5t-119 22.5q-43 0 -77 -16.5t-56.5 -42 t-34.5 -59.5t-12 -69v-49q0 -45 45 -45h293q45 0 45 -45v-45q0 -45 -45 -45h-293q-45 0 -45 -45v-721q0 -45 -45 -45h-68q-45 0 -45 45v721q0 45 -45 45h-45q-45 0 -45 45z" />
<glyph unicode="g" d="M135 635q0 66 24.5 126t68.5 106t106.5 73t138.5 27q25 0 41 -2t28.5 -5.5t22.5 -5.5t25 -2q14 0 32.5 10.5t40 21.5t47 21.5t56.5 10.5q45 0 45 -45v-62q0 -23 -9 -31t-22 -12q-27 -8 -27 -28q0 -11 9 -27q16 -29 32.5 -73t16.5 -103q0 -66 -23.5 -125t-66.5 -104.5 t-102.5 -73t-129.5 -29.5q-45 0 -45 -45v-78q0 -45 45 -45q70 -2 129.5 -20.5t102.5 -54t66.5 -85.5t23.5 -116t-27.5 -119t-76 -90t-113 -56.5t-139.5 -19.5q-104 0 -179 32t-110 58q-18 14 -22.5 30.5t3.5 31.5l27 47q12 23 28.5 25.5t33.5 -7.5q37 -29 91 -50.5 t126 -21.5q37 0 72.5 7.5t64 25t46 44t17.5 65.5q0 37 -17.5 63.5t-46 44t-64.5 24.5t-72 7h-119q-45 0 -45 45v260q0 45 -29 70q-47 41 -86 102.5t-39 157.5zM293 635q0 -35 12 -69t34.5 -59.5t56.5 -41.5t77 -16t77 16t56.5 41.5t34.5 59.5t12 69t-12 68.5t-34.5 59 t-56.5 42t-77 16.5t-77 -16.5t-56.5 -42t-34.5 -59t-12 -68.5z" />
<glyph unicode="h" d="M135 45v1262q0 45 45 45h68q45 0 45 -45v-355q0 -12 9 -18t24 0q78 33 147 33q76 0 138.5 -27t106.5 -73t68.5 -106.5t24.5 -125.5v-590q0 -45 -45 -45h-68q-45 0 -45 45v590q0 35 -12 68.5t-34.5 59t-56.5 42t-77 16.5t-77 -16.5t-56.5 -42t-34.5 -59t-12 -68.5v-590 q0 -45 -45 -45h-68q-45 0 -45 45z" />
<glyph unicode="i" d="M270 311v590q0 45 45 45h68q45 0 45 -45v-590q0 -35 12.5 -68.5t35 -59t56 -42t76.5 -16.5q33 0 57.5 9t36.5 16q18 10 34 9t30 -18l37 -47q10 -13 10 -26q0 -6 -1 -10q-5 -18 -21 -27q-35 -23 -82 -37t-101 -14q-76 0 -138 26.5t-106.5 72.5t-69 106.5t-24.5 125.5z M270 1262v45q0 45 45 45h68q45 0 45 -45v-45q0 -45 -45 -45h-68q-45 0 -45 45z" />
<glyph unicode="j" d="M54 -306q-2 5 -2 11q0 12 7 25l25 43q10 18 28.5 22t34.5 -6q41 -25 94.5 -47.5t118.5 -22.5q43 0 77 16.5t56.5 42t35 59.5t12.5 69v995q0 45 45 45h67q45 0 45 -45v-995q0 -66 -24.5 -126.5t-68.5 -106.5t-106.5 -72.5t-138.5 -26.5q-94 0 -170.5 32t-115.5 60 q-16 10 -20 28zM541 1262v45q0 45 45 45h67q45 0 45 -45v-45q0 -45 -45 -45h-67q-45 0 -45 45z" />
<glyph unicode="k" d="M135 45v1262q0 45 45 45h68q45 0 45 -45v-713q0 -57 63 -57q33 0 50.5 14t33.5 43l172 309q23 43 68 43h74q25 0 34 -16.5t-4 -38.5l-180 -307q-10 -18 -10 -32q0 -20 22 -30q35 -14 70 -41.5t62.5 -65.5t45 -87t17.5 -109v-174q0 -45 -45 -45h-68q-45 0 -45 45v174 q0 35 -12 69t-34.5 59.5t-56.5 42t-77 16.5t-77 -16.5t-56.5 -42t-34.5 -59.5t-12 -69v-174q0 -45 -45 -45h-68q-45 0 -45 45z" />
<glyph unicode="l" d="M225 311v996q0 45 45 45h68q45 0 45 -45v-996q0 -35 12.5 -68.5t35 -59t56 -42t76.5 -16.5q47 0 75 16.5t50 34.5q23 18 39 20.5t37 -12.5l41 -28q16 -12 18 -31v-5q0 -16 -10 -28q-39 -47 -101.5 -79.5t-148.5 -32.5q-76 0 -138.5 26.5t-106.5 72.5t-68.5 106.5 t-24.5 125.5z" />
<glyph unicode="m" d="M135 45v719q0 92 49 147.5t154 55.5q33 0 61.5 -8.5t53.5 -22.5q14 -8 20 -8t21 8q25 14 53 22.5t61 8.5q104 0 153.5 -55.5t49.5 -147.5v-719q0 -45 -45 -45h-57q-45 0 -45 45v719q0 27 -14.5 45t-45.5 18t-45 -18t-14 -45v-584q0 -45 -45 -45h-54q-45 0 -45 45v584 q0 27 -14 45t-45 18t-45 -18t-14 -45v-719q0 -45 -45 -45h-58q-45 0 -45 45z" />
<glyph unicode="n" d="M135 45v856q0 45 45 45h53q23 0 33 -18q12 -20 29 -8q29 16 73 31.5t105 15.5q76 0 138.5 -27t106.5 -73t68.5 -106.5t24.5 -125.5v-590q0 -45 -45 -45h-68q-45 0 -45 45v590q0 35 -12 68.5t-34.5 59t-56.5 42t-77 16.5t-77 -16.5t-56.5 -42t-34.5 -59t-12 -68.5v-590 q0 -45 -45 -45h-68q-45 0 -45 45z" />
<glyph unicode="o" d="M135 311v324q0 66 24.5 126t68.5 106t106.5 73t138.5 27t138.5 -27t106.5 -73t68.5 -106.5t24.5 -125.5v-324q0 -66 -24.5 -126t-68.5 -106t-106.5 -72.5t-138.5 -26.5t-138.5 26.5t-106.5 72.5t-68.5 106.5t-24.5 125.5zM293 311q0 -35 12 -68.5t34.5 -59t56.5 -42 t77 -16.5t77 16.5t56.5 42t34.5 59t12 68.5v324q0 35 -12 68.5t-34.5 59t-56.5 42t-77 16.5t-77 -16.5t-56.5 -42t-34.5 -59t-12 -68.5v-324z" />
<glyph unicode="p" d="M135 -360v995q0 66 24.5 126t68.5 106t106.5 73t138.5 27t138.5 -27t106.5 -73t68.5 -106.5t24.5 -125.5v-324q0 -66 -24.5 -126t-68.5 -106t-106.5 -72.5t-138.5 -26.5q-70 0 -147 32q-14 6 -23.5 0t-9.5 -18v-354q0 -45 -45 -46h-68q-45 0 -45 46zM293 311 q0 -35 12 -68.5t34.5 -59t56.5 -42t77 -16.5t77 16.5t56.5 42t34.5 59t12 68.5v324q0 35 -12 68.5t-34.5 59t-56.5 42t-77 16.5t-77 -16.5t-56.5 -42t-34.5 -59t-12 -68.5v-324z" />
<glyph unicode="q" d="M135 311v324q0 66 24.5 126t68.5 106t106.5 73t138.5 27t138.5 -27t106.5 -73t68.5 -106.5t24.5 -125.5v-324q0 -104 -57.5 -189t-157.5 -132q-45 -20 -45 -62v-24q0 -45 15.5 -78t37 -55.5t43 -34.5t35.5 -15q23 -4 34 -13t11 -32v-59q0 -43 -38 -43h-7 q-53 2 -104.5 28.5t-91.5 70.5t-65.5 103.5t-25.5 127.5v24q0 41 -45 62q-100 47 -157.5 132t-57.5 189zM293 311q0 -35 12 -68.5t34.5 -59t56.5 -42t77 -16.5t77 16.5t56.5 42t34.5 59t12 68.5v324q0 35 -12 68.5t-34.5 59t-56.5 42t-77 16.5t-77 -16.5t-56.5 -42 t-34.5 -59t-12 -68.5v-324z" />
<glyph unicode="r" d="M193 45v590q0 66 24.5 126t68.5 106t106.5 73t137.5 27q94 0 171 -32t116 -61q17 -10 21 -28q1 -5 1 -10q0 -13 -8 -25l-24 -43q-10 -18 -28.5 -22.5t-35.5 6.5q-41 25 -94 47t-119 22q-43 0 -76.5 -16.5t-56 -42t-35 -59t-12.5 -68.5v-590q0 -45 -45 -45h-67 q-45 0 -45 45z" />
<glyph unicode="s" d="M145 166q-9 14 -9 27q0 20 22 36l47 33q14 9 26 9q18 0 33 -21q33 -45 85 -85t124 -40q49 0 83 14.5t55.5 37t31.5 52t10 58.5q0 53 -27.5 79.5t-62.5 41.5q-39 14 -90 18q-152 8 -233.5 81t-81.5 189q0 49 19.5 97.5t59 87.5t98 62.5t138.5 23.5q88 0 151.5 -33 t104.5 -78q14 -16 14 -30q0 -17 -20 -31l-49 -35q-16 -10 -32.5 -8t-31.5 14q-59 57 -137 57q-47 0 -79 -13t-50 -33.5t-26.5 -42t-8.5 -38.5q0 -47 25.5 -71.5t56.5 -36.5q37 -14 82 -19q68 -4 129.5 -21.5t107.5 -51t73.5 -85.5t27.5 -124q0 -66 -22.5 -122t-66.5 -97 t-106.5 -64.5t-142.5 -23.5q-66 0 -119 18t-93 46t-68.5 60.5t-47.5 61.5z" />
<glyph unicode="t" d="M106 856v45q0 45 46 45h45q45 0 45 45v180q0 45 45 46h67q45 0 45 -46v-180q0 -45 45 -45h226q45 0 45 -45v-45q0 -45 -45 -45h-226q-45 0 -45 -45v-455q0 -35 12.5 -68.5t35 -59t56.5 -42t77 -16.5q47 0 74.5 16.5t50.5 34.5t39 20.5t36 -12.5l41 -28q16 -12 18 -31v-5 q0 -16 -10 -28q-39 -47 -101 -79.5t-148 -32.5q-76 0 -138.5 26.5t-106.5 72.5t-68.5 106.5t-24.5 125.5v455q0 45 -45 45h-45q-45 0 -46 45z" />
<glyph unicode="u" d="M135 311v590q0 45 45 45h68q45 0 45 -45v-590q0 -35 12 -68.5t34.5 -59t56.5 -42t77 -16.5t77 16.5t56.5 42t34.5 59t12 68.5v590q0 45 45 45h68q45 0 45 -45v-856q0 -45 -45 -45h-53q-23 0 -33 18q-12 20 -29 9q-29 -16 -72.5 -31.5t-105.5 -15.5q-76 0 -138.5 26.5 t-106.5 72.5t-68.5 106.5t-24.5 125.5z" />
<glyph unicode="v" d="M141 899q-1 4 -1 8q0 11 8 23q12 16 36 16h68q39 0 53 -45l150 -520q8 -27 18 -27t19 27l149 520q14 45 53 45h68q23 0 35 -16q9 -12 9 -23q0 -4 -1 -8l-254 -842q-10 -31 -27.5 -54t-50.5 -23t-50 23.5t-28 53.5z" />
<glyph unicode="w" d="M135 182v719q0 45 45 45h58q45 0 45 -45v-719q0 -27 14 -45t45 -18t45 18.5t14 44.5v314q0 45 45 45h54q45 0 45 -45v-314q0 -27 14 -45t45 -18t45.5 18.5t14.5 44.5v719q0 45 45 45h57q45 0 45 -45v-719q0 -92 -49 -147t-154 -55q-33 0 -61.5 8t-52.5 22q-14 8 -20.5 8 t-20.5 -8q-25 -14 -53.5 -22t-61.5 -8q-104 0 -153.5 55t-49.5 147z" />
<glyph unicode="x" d="M135 45v174q0 98 49 177t133 120q22 11 22 30q0 13 -9 29l-187 314q-10 16 -1.5 36.5t34.5 20.5h70q23 0 39 -14t26 -31l138 -237q12 -23 24 -23t25 23l137 237q10 16 26.5 30.5t38.5 14.5h72q25 0 33 -20.5t-2 -36.5l-187 -314q-10 -16 -10 -29q0 -19 23 -30 q84 -41 133 -120t49 -177v-174q0 -45 -45 -45h-68q-45 0 -45 45v174q0 35 -12 69t-34.5 59.5t-56.5 42t-77 16.5t-77 -16.5t-56.5 -42t-34.5 -59.5t-12 -69v-174q0 -45 -45 -45h-68q-45 0 -45 45z" />
<glyph unicode="y" d="M135 311v590q0 45 45 45h68q45 0 45 -45v-590q0 -35 12 -68.5t34.5 -59t56.5 -42t77 -16.5t77 16.5t56.5 42t34.5 59t12 68.5v590q0 45 45 45h68q45 0 45 -45v-995q0 -66 -24.5 -126.5t-68.5 -106.5t-106.5 -72.5t-138.5 -26.5q-94 0 -171 32t-116 60q-16 10 -20 27.5 t6 36.5l25 43q10 18 28.5 22t34.5 -6q41 -25 94.5 -47.5t118.5 -22.5q43 0 77 16.5t56.5 42t34.5 59.5t12 69v88q0 12 -9 18t-23 0q-76 -32 -144 -32h-4q-76 0 -138.5 26.5t-106.5 72.5t-68.5 106.5t-24.5 125.5z" />
<glyph unicode="z" d="M137 194q4 54 43 103l373 481q10 12 5 22.5t-21 10.5h-295q-45 0 -45 45v45q0 45 45 45h438q90 0 90 -90q0 -29 -11 -51.5t-22 -38.5l-418 -545q-15 -20 -16 -38q0 -11 7 -21q16 -26 63 -27h393q45 0 45 -45v-45q0 -45 -45 -45h-457q-53 0 -94 27.5t-61 70.5 q-17 36 -18 79q0 8 1 17z" />
<glyph unicode="{" d="M229 518v45q0 45 45 45h45q45 0 46 45v387q0 66 24.5 126.5t68.5 106.5t106.5 72.5t137.5 26.5q45 0 46 -45v-55q0 -45 -46 -45q-43 0 -76.5 -16.5t-56 -42t-35 -59.5t-12.5 -69v-999q0 -35 12.5 -68.5t35 -59.5t56 -42t76.5 -16q45 0 46 -45v-56q0 -45 -46 -45 q-76 0 -138 26.5t-106 73t-68.5 106.5t-24.5 126v387q0 45 -46 45h-45q-45 0 -45 45z" />
<glyph unicode="|" d="M395 -360v1667q0 45 45 45h66q45 0 45 -45v-1667q0 -45 -45 -46h-66q-45 0 -45 46z" />
<glyph unicode="}" d="M199 -190q0 45 45 45q43 0 76.5 16t56 42t35 59.5t12.5 68.5v999q0 35 -12.5 69t-35 59.5t-56 42t-76.5 16.5q-45 0 -45 45v55q0 45 45 45q76 0 138 -26.5t106 -72.5t69 -106.5t25 -126.5v-387q0 -45 45 -45h45q45 0 45 -45v-45q0 -45 -45 -45h-45q-45 0 -45 -45v-387 q0 -66 -25 -126t-69 -106.5t-106.5 -73t-137.5 -26.5q-45 0 -45 45v56z" />
<glyph unicode="~" d="M135 399v39q0 23 9.5 38.5t23.5 23.5q23 14 71 27.5t99 13.5q25 0 60.5 -6.5t74.5 -14.5t75 -14t60 -6q33 0 66 9t80 32q23 10 40 2t17 -31v-53q0 -23 -8 -33t-25 -20q-37 -20 -78 -30.5t-92 -10.5q-25 0 -60.5 6t-74.5 14t-75 14.5t-60 6.5q-66 0 -150 -41 q-18 -10 -35.5 -1t-17.5 35z" />
<glyph unicode="&#xa0;" />
<glyph unicode="&#xa1;" d="M395 -360v856q0 45 45 45h66q45 0 45 -45v-856q0 -45 -45 -46h-66q-45 0 -45 46zM395 856v45q0 45 45 45h66q45 0 45 -45v-45q0 -45 -45 -45h-66q-45 0 -45 45z" />
<glyph unicode="&#xa2;" d="M156 311v324q0 115 67.5 199t165.5 116q29 10 29 41v45q0 45 45 45h67q45 0 45 -45v-45q0 -31 29 -41q70 -25 115 -66.5t74 -95.5q6 -12 6 -29.5t-19 -31.5l-49 -35q-37 -27 -61 10q-6 10 -18.5 31t-33 40.5t-51 33.5t-73.5 14t-77 -16.5t-56.5 -42t-35 -59t-12.5 -68.5 v-324q0 -35 12.5 -68.5t35 -59t56.5 -42t77 -16.5t72.5 13.5t50 31.5t33 37.5t20.5 32.5q27 39 61 16l47 -33q37 -26 19 -61q-31 -53 -75 -95t-116 -71q-12 -4 -21.5 -15.5t-9.5 -25.5v-45q0 -45 -45 -45h-67q-45 0 -45 45v45q0 31 -31 41q-98 35 -164.5 118t-66.5 197z" />
<glyph unicode="&#xa3;" d="M135 45v45q0 45 45 45h35q45 0 45 45v180q0 45 -45 46h-35q-45 0 -45 45v45q0 45 45 45h35q45 0 45 45v90q0 51 20.5 102t59.5 93t94 69t125 27q72 0 131.5 -31t100.5 -80q12 -14 11 -31.5t-20 -31.5l-41 -31q-18 -14 -34.5 -11t-28.5 17q-49 55 -119 55q-51 0 -96 -39 t-45 -108v-90q0 -45 45 -45h100q45 0 45 -45v-45q0 -45 -45 -45h-100q-45 0 -45 -46v-180q0 -45 45 -45h303q45 0 45 -45v-45q0 -45 -45 -45h-586q-45 0 -45 45z" />
<glyph unicode="&#xa4;" horiz-adv-x="0" />
<glyph unicode="&#xa5;" d="M135 315v45q0 45 45 46h170q25 0 35 10t10 22q0 16 -5 29.5t-21 40.5l-226 381q-10 16 -1.5 36.5t34.5 20.5h70q23 0 39 -13t26 -32l138 -237q12 -23 24 -23t25 23l137 237q10 18 26.5 31.5t38.5 13.5h72q25 0 33 -20.5t-2 -36.5l-225 -381q-16 -27 -21.5 -40t-5.5 -30 q0 -12 10 -22t35 -10h170q45 0 45 -46v-45q0 -45 -45 -45h-170q-45 0 -45 -45v-180q0 -45 -45 -45h-66q-45 0 -45 45v180q0 45 -45 45h-170q-45 0 -45 45z" />
<glyph unicode="&#xa6;" d="M395 283q0 45 45 45h66q45 0 45 -45v-643q0 -45 -45 -46h-66q-45 0 -45 46v643zM395 664v643q0 45 45 45h66q45 0 45 -45v-643q0 -45 -45 -46h-66q-45 0 -45 46z" />
<glyph unicode="&#xa7;" d="M145 -104q-23 37 13 63l47 33q35 23 59 -12q33 -45 85 -85t124 -40q49 0 83 14t55.5 36.5t31.5 52.5t10 58q0 53 -27.5 80t-62.5 41q-39 14 -90 19q-154 8 -234.5 82.5t-80.5 210.5q0 66 26.5 114.5t69.5 81.5q27 18 0 39q-45 33 -70.5 74t-25.5 112q0 49 19.5 97.5 t59 87.5t98 62.5t138.5 23.5q88 0 151.5 -33t104.5 -78q31 -35 -6 -61l-49 -35q-16 -10 -32.5 -8t-31.5 14q-59 57 -137 57q-47 0 -79 -13t-50 -33.5t-26.5 -42t-8.5 -38.5q0 -35 17.5 -57t42 -37.5t53.5 -23t51 -9.5q63 -4 123.5 -20t109 -51t77 -89.5t28.5 -133.5 q0 -63 -24.5 -112.5t-67.5 -84.5q-27 -20 0 -39q43 -35 67.5 -76t24.5 -121q0 -66 -22.5 -122t-66.5 -97t-106.5 -64.5t-142.5 -23.5q-66 0 -119 18.5t-93 46t-68.5 60.5t-47.5 62zM309 449q0 -72 45 -111t119 -39q86 0 133 40t47 110q0 68 -48 109.5t-132 41.5 q-74 0 -119 -42t-45 -109z" />
<glyph unicode="&#xa8;" d="M250 1126v45q0 45 45 46h65q45 0 46 -46v-45q0 -45 -46 -45h-65q-45 0 -45 45zM541 1126v45q0 45 45 46h65q45 0 45 -46v-45q0 -45 -45 -45h-65q-45 0 -45 45z" />
<glyph unicode="&#xa9;" d="M135 311v324q0 66 24.5 126t68.5 106t106.5 73t138.5 27t138.5 -27t106.5 -73t68.5 -106.5t24.5 -125.5v-324q0 -66 -24.5 -126t-68.5 -106t-106.5 -72.5t-138.5 -26.5t-138.5 26.5t-106.5 72.5t-68.5 106.5t-24.5 125.5zM281 377q0 -80 55 -140.5t147 -60.5 q53 0 96 24.5t72 67.5q8 14 8 34t-16 30q-18 12 -35.5 6t-27.5 -21q-16 -23 -39 -38t-58 -15q-53 0 -80.5 36t-27.5 77v192q0 41 27.5 77t80.5 36q35 0 56.5 -15.5t38.5 -37.5q10 -16 28.5 -20.5t34.5 5.5t16 30t-6 32q-23 41 -66.5 67.5t-101.5 26.5q-92 0 -147 -60.5 t-55 -140.5v-192z" />
<glyph unicode="&#xaa;" d="M395 293q0 45 45 45h66q45 0 45 -45v-653q0 -45 -45 -46h-66q-45 0 -45 46v653zM395 653v654q0 45 45 45h66q45 0 45 -45v-654q0 -45 -45 -45h-66q-45 0 -45 45z" />
<glyph unicode="&#xab;" d="M225 473q0 76 52.5 128t128.5 52q45 0 45 -45v-16q0 -41 -45 -45q-31 -4 -53.5 -23.5t-22.5 -50.5t22.5 -50.5t53.5 -23.5q45 -4 45 -45v-16q0 -45 -45 -45q-76 0 -128.5 52t-52.5 128zM496 473q0 76 52 128t128 52q45 0 45 -45v-16q0 -41 -45 -45q-31 -4 -53.5 -23.5 t-22.5 -50.5t22.5 -50.5t53.5 -23.5q45 -4 45 -45v-16q0 -45 -45 -45q-76 0 -128 52t-52 128z" />
<glyph unicode="&#xac;" horiz-adv-x="0" />
<glyph unicode="&#xad;" d="M203 451v45q0 45 45 45h450q45 0 45 -45v-45q0 -45 -45 -45h-450q-45 0 -45 45z" />
<glyph unicode="&#xae;" d="M135 311v324q0 66 24.5 126t68.5 106t106.5 73t138.5 27t138.5 -27t106.5 -73t68.5 -106.5t24.5 -125.5v-324q0 -66 -24.5 -126t-68.5 -106t-106.5 -72.5t-138.5 -26.5t-138.5 26.5t-106.5 72.5t-68.5 106.5t-24.5 125.5zM270 252q0 -45 47 -45t48 45v332q0 53 29.5 83.5 t76.5 30.5q45 0 78 -21.5t33 -64.5q0 -45 -36 -63.5t-73 -18.5q-41 0 -41 -41t41 -40q43 0 76 -29t33 -82v-86q0 -45 47 -45t47 45v86q0 61 -16.5 91t-36.5 46q-14 14 0 27q12 10 32.5 34.5t20.5 75.5q0 82 -58.5 128t-144.5 46q-92 0 -147.5 -57t-55.5 -145v-332z" />
<glyph unicode="&#xaf;" d="M270 1126v45q0 45 45 46h316q45 0 45 -46v-45q0 -45 -45 -45h-316q-45 0 -45 45z" />
<glyph unicode="&#xb0;" d="M293 1192q0 76 52 128t128 52t128 -52t52 -128t-52 -128t-128 -52t-128 52t-52 128zM397 1192q0 -31 22.5 -52.5t53.5 -21.5t53.5 21.5t22.5 52.5t-22.5 53.5t-53.5 22.5t-53.5 -22.5t-22.5 -53.5z" />
<glyph unicode="&#xb1;" d="M135 45v45q0 45 45 45h586q45 0 45 -45v-45q0 -45 -45 -45h-586q-45 0 -45 45zM135 586v45q0 45 45 45h170q45 0 45 45v180q0 45 45 45h66q45 0 45 -45v-180q0 -45 45 -45h170q45 0 45 -45v-45q0 -45 -45 -45h-170q-45 0 -45 -45v-181q0 -45 -45 -45h-66q-45 0 -45 45 v181q0 45 -45 45h-170q-45 0 -45 45z" />
<glyph unicode="&#xb2;" d="M270 856q0 92 47.5 144.5t149.5 89.5q45 16 63.5 35.5t18.5 43.5q0 37 -21.5 58.5t-56.5 21.5q-23 0 -41 -14t-35 -37q-10 -16 -27.5 -21.5t-35.5 5.5l-21 12q-18 10 -19 28.5t7 32.5q29 47 74 75t98 28q88 0 141.5 -51.5t53.5 -137.5q0 -72 -39 -114.5t-92 -61.5 q-74 -27 -93.5 -39t-19.5 -20q0 -14 22 -14h187q45 0 45 -46v-18q0 -45 -45 -45h-316q-45 0 -45 45z" />
<glyph unicode="&#xb3;" d="M286 937.5q3 18.5 23 29.5l19 10q31 16 57 -16q16 -23 35.5 -36.5t46.5 -13.5q37 0 58.5 16.5t21.5 43.5q0 61 -80 61q-45 0 -45 45v13q0 45 45 45q35 0 54.5 14t19.5 43q0 25 -20.5 41t-53.5 16q-29 0 -47.5 -11t-34.5 -36q-10 -14 -28.5 -18t-34.5 6l-15 8 q-16 10 -19 28.5t7 35.5q55 96 172 96q82 0 134 -45t52 -117q0 -55 -43 -100q-12 -12 0 -21q23 -18 37.5 -44.5t14.5 -59.5q0 -68 -47.5 -117t-147.5 -49q-61 0 -104.5 27.5t-69.5 70.5q-10 16 -7 34.5z" />
<glyph unicode="&#xb4;" d="M314.5 1108q-7.5 18 9.5 43l90 147q33 53 96 54h82q29 0 40 -24.5t-16 -47.5l-161 -152q-33 -31 -63 -41t-50 -3.5t-27.5 24.5z" />
<glyph unicode="&#xb6;" d="M135 1014q0 70 26.5 131t73 107t107.5 73t131 27h293q45 0 45 -45v-45q0 -45 -45 -45h-45q-45 0 -45 -46v-1486q0 -90 -90 -91h-226q-90 0 -90 91v993q0 35 -13 62.5t-36 50.5q-35 41 -60.5 96t-25.5 127zM406 -225q0 -45 45 -45h45q45 0 45 45v1396q0 45 -45 46h-24.5 t-20.5 -3q-18 -4 -31.5 -13t-13.5 -32v-1394z" />
<glyph unicode="&#xb7;" d="M395 451v45q0 45 45 45h66q45 0 45 -45v-45q0 -45 -45 -45h-66q-45 0 -45 45z" />
<glyph unicode="&#xb8;" d="M302 -242.5q1 17.5 17 27.5l17 12q16 12 33.5 9t29.5 -21q20 -31 50 -31q23 0 36 13.5t13 33.5t-13.5 33.5t-35.5 18.5q-55 12 -56 61v82q0 45 45 45h25q45 0 45 -45v-27q0 -20 16 -28q41 -20 63.5 -53.5t22.5 -86.5q0 -61 -45 -109t-116 -48q-45 0 -81 21.5t-59 60.5 q-8 14 -7 31.5z" />
<glyph unicode="&#xb9;" d="M270 856v18q0 45 45 46h54q45 0 45 45v178q0 45 -41 45q-23 0 -31 21.5t16 56.5l37 49q29 37 64 37h28q45 0 45 -45v-342q0 -45 46 -45h53q45 0 45 -46v-18q0 -45 -45 -45h-316q-45 0 -45 45z" />
<glyph unicode="&#xba;" d="M135 451v45q0 45 45 45h586q45 0 45 -45v-45q0 -45 -45 -45h-586q-45 0 -45 45z" />
<glyph unicode="&#xbb;" d="M225 338v16q0 41 45 45q31 4 53.5 23.5t22.5 50.5t-22.5 50.5t-53.5 23.5q-45 4 -45 45v16q0 45 45 45q76 0 128.5 -52t52.5 -128t-52.5 -128t-128.5 -52q-45 0 -45 45zM496 338v16q0 41 45 45q31 4 53 23.5t22 50.5t-22.5 50.5t-52.5 23.5q-45 4 -45 45v16q0 45 45 45 q76 0 128 -52t52 -128t-52.5 -128t-127.5 -52q-45 0 -45 45z" />
<glyph unicode="&#xbc;" d="M135 856v18q0 45 45 46h53q45 0 46 45v178q0 45 -41 45q-23 0 -31 21.5t16 56.5l37 49q29 37 64 37h28q45 0 45 -45v-342q0 -45 45 -45h54q45 0 45 -46v-18q0 -45 -45 -45h-316q-45 0 -45 45zM137 485.5q4 18.5 21 28.5l567 367q33 23 61 -15l17 -22q25 -41 -12 -64 l-568 -366q-35 -23 -61 14l-17 23q-12 16 -8 34.5zM412.5 151q-19.5 42 11.5 119l90 228q8 18 21.5 30.5t33.5 12.5h33q23 0 32 -15.5t1 -33.5l-92 -226q-8 -20 1 -35.5t44 -15.5q45 0 45 47q0 16 7 33.5t17 28.5q20 23 31.5 29.5t22.5 6.5q16 0 23 -9t7 -36v-53 q0 -27 9.5 -36t25.5 -9q35 0 35 -47v-14q0 -47 -35 -47q-16 0 -25.5 -9.5t-9.5 -36.5v-18q0 -45 -45 -45h-18q-45 0 -45 45v18q0 45 -45 46h-101q-55 0 -74.5 42z" />
<glyph unicode="&#xbd;" d="M135 856v18q0 45 45 46h53q45 0 46 45v178q0 45 -41 45q-23 0 -31 21.5t16 56.5l37 49q29 37 64 37h28q45 0 45 -45v-342q0 -45 45 -45h54q45 0 45 -46v-18q0 -45 -45 -45h-316q-45 0 -45 45zM137 491.5q4 18.5 21 28.5l567 367q33 23 61 -15l17 -22q25 -41 -12 -64 l-568 -366q-35 -23 -61 14l-17 23q-12 16 -8 34.5zM406 45q0 92 47 144.5t149 89.5q45 16 63.5 35.5t18.5 43.5q0 37 -21.5 58.5t-56.5 21.5q-23 0 -41 -14t-35 -37q-10 -16 -27.5 -21.5t-35.5 5.5l-21 12q-18 10 -19 28.5t7 32.5q29 47 74 75t98 28q88 0 141.5 -51.5 t53.5 -137.5q0 -72 -39 -114.5t-92 -61.5q-74 -27 -93.5 -39t-19.5 -20q0 -14 23 -14h186q45 0 45 -46v-18q0 -45 -45 -45h-315q-45 0 -45 45z" />
<glyph unicode="&#xbe;" d="M136 937.5q3 18.5 24 29.5l18 10q31 16 58 -16q16 -23 35.5 -36.5t45.5 -13.5q37 0 58.5 16.5t21.5 43.5q0 61 -80 61q-45 0 -45 45v13q0 45 45 45q35 0 54.5 14t19.5 43q0 25 -20.5 41t-53.5 16q-29 0 -47 -11t-34 -36q-10 -14 -29 -18t-35 6l-14 8q-16 10 -19.5 28.5 t6.5 35.5q55 96 172 96q82 0 134.5 -45t52.5 -117q0 -55 -43 -100q-12 -12 0 -21q23 -18 37 -44.5t14 -59.5q0 -68 -47 -117t-148 -49q-61 0 -104 27.5t-70 70.5q-10 16 -7 34.5zM137 505.5q4 18.5 21 29.5l567 366q33 23 61 -14l17 -23q25 -41 -12 -63l-568 -367 q-35 -23 -61 15l-17 22q-12 16 -8 34.5zM412.5 151q-19.5 42 11.5 119l90 228q8 18 21.5 30.5t33.5 12.5h33q23 0 32 -15.5t1 -33.5l-92 -226q-8 -20 1 -35.5t44 -15.5q45 0 45 47q0 16 7 33.5t17 28.5q20 23 31.5 29.5t22.5 6.5q16 0 23 -9t7 -36v-53q0 -27 9.5 -36 t25.5 -9q35 0 35 -47v-14q0 -47 -35 -47q-16 0 -25.5 -9.5t-9.5 -36.5v-18q0 -45 -45 -45h-18q-45 0 -45 45v18q0 45 -45 46h-101q-55 0 -74.5 42z" />
<glyph unicode="&#xbf;" d="M150 -94q0 121 64.5 204t162.5 115q33 12 33 47v224q0 45 45 45h67q45 0 45 -45v-310q0 -78 -90 -94q-78 -14 -124 -66.5t-46 -119.5q0 -35 12.5 -69t35 -59.5t56 -42t76.5 -16.5q59 0 102.5 30t72.5 83q10 16 28.5 22.5t36.5 -8.5l43 -30q16 -12 19 -30t-7 -34 q-102 -178 -295 -178q-76 0 -138 26.5t-106 72.5t-68.5 106.5t-24.5 126.5zM410 856v45q0 45 45 45h67q45 0 45 -45v-45q0 -45 -45 -45h-67q-45 0 -45 45z" />
<glyph unicode="&#xc0;" d="M135 45v590q0 66 24.5 126t68.5 106t106.5 73t138.5 27t138.5 -27t106.5 -73t68.5 -106.5t24.5 -125.5v-590q0 -45 -45 -45h-68q-45 0 -45 45v315q0 45 -45 46h-270q-45 0 -45 -46v-315q0 -45 -45 -45h-68q-45 0 -45 45zM234.5 1327.5q11.5 24.5 39.5 24.5h82 q63 0 96 -54l91 -147q14 -25 8 -43t-26.5 -24.5t-50.5 4t-62 40.5l-162 152q-27 23 -15.5 47.5zM293 586q0 -45 45 -45h270q45 0 45 45v49q0 35 -12 68.5t-34.5 59t-56.5 42t-77 16.5t-77 -16.5t-56.5 -42t-34.5 -59t-12 -68.5v-49z" />
<glyph unicode="&#xc1;" d="M135 45v590q0 66 24.5 126t68.5 106t106.5 73t138.5 27t138.5 -27t106.5 -73t68.5 -106.5t24.5 -125.5v-590q0 -45 -45 -45h-68q-45 0 -45 45v315q0 45 -45 46h-270q-45 0 -45 -46v-315q0 -45 -45 -45h-68q-45 0 -45 45zM293 586q0 -45 45 -45h270q45 0 45 45v49 q0 35 -12 68.5t-34.5 59t-56.5 42t-77 16.5t-77 -16.5t-56.5 -42t-34.5 -59t-12 -68.5v-49zM382.5 1108q-7.5 18 9.5 43l90 147q33 53 96 54h82q29 0 40 -24.5t-16 -47.5l-161 -152q-33 -31 -63 -41t-50 -3.5t-27.5 24.5z" />
<glyph unicode="&#xc2;" d="M135 45v590q0 66 24.5 126t68.5 106t106.5 73t138.5 27t138.5 -27t106.5 -73t68.5 -106.5t24.5 -125.5v-590q0 -45 -45 -45h-68q-45 0 -45 45v315q0 45 -45 46h-270q-45 0 -45 -46v-315q0 -45 -45 -45h-68q-45 0 -45 45zM293 586q0 -45 45 -45h270q45 0 45 45v49 q0 35 -12 68.5t-34.5 59t-56.5 42t-77 16.5t-77 -16.5t-56.5 -42t-34.5 -59t-12 -68.5v-49zM293 1126q0 76 52 128.5t128 52.5t128 -52.5t52 -128.5q0 -45 -45 -45h-16q-41 0 -45 45q-4 31 -23.5 53.5t-50.5 22.5t-50.5 -22.5t-23.5 -53.5q-4 -45 -45 -45h-16q-45 0 -45 45z " />
<glyph unicode="&#xc3;" d="M135 45v590q0 66 24.5 126t68.5 106t106.5 73t138.5 27t138.5 -27t106.5 -73t68.5 -106.5t24.5 -125.5v-590q0 -45 -45 -45h-68q-45 0 -45 45v315q0 45 -45 46h-270q-45 0 -45 -46v-315q0 -45 -45 -45h-68q-45 0 -45 45zM270 1116v39q0 23 9.5 38t23.5 24q23 14 51.5 21 t51.5 7q39 0 66.5 -14t68.5 -14q16 0 36.5 8t40.5 20t39 3t19 -31v-54q0 -23 -8.5 -33t-24.5 -20q-20 -12 -47 -20.5t-55 -8.5q-20 0 -36 4.5t-31 10.5t-31.5 10t-36.5 4q-31 0 -82 -29q-18 -10 -36 -0.5t-18 35.5zM293 586q0 -45 45 -45h270q45 0 45 45v49q0 35 -12 68.5 t-34.5 59t-56.5 42t-77 16.5t-77 -16.5t-56.5 -42t-34.5 -59t-12 -68.5v-49z" />
<glyph unicode="&#xc4;" d="M135 45v590q0 66 24.5 126t68.5 106t106.5 73t138.5 27t138.5 -27t106.5 -73t68.5 -106.5t24.5 -125.5v-590q0 -45 -45 -45h-68q-45 0 -45 45v315q0 45 -45 46h-270q-45 0 -45 -46v-315q0 -45 -45 -45h-68q-45 0 -45 45zM250 1126v45q0 45 45 46h65q45 0 46 -46v-45 q0 -45 -46 -45h-65q-45 0 -45 45zM293 586q0 -45 45 -45h270q45 0 45 45v49q0 35 -12 68.5t-34.5 59t-56.5 42t-77 16.5t-77 -16.5t-56.5 -42t-34.5 -59t-12 -68.5v-49zM541 1126v45q0 45 45 46h65q45 0 45 -46v-45q0 -45 -45 -45h-65q-45 0 -45 45z" />
<glyph unicode="&#xc5;" d="M135 45v590q0 66 24.5 126t68.5 106t106.5 73t138.5 27t138.5 -27t106.5 -73t68.5 -106.5t24.5 -125.5v-590q0 -45 -45 -45h-68q-45 0 -45 45v315q0 45 -45 46h-270q-45 0 -45 -46v-315q0 -45 -45 -45h-68q-45 0 -45 45zM293 586q0 -45 45 -45h270q45 0 45 45v49 q0 35 -12 68.5t-34.5 59t-56.5 42t-77 16.5t-77 -16.5t-56.5 -42t-34.5 -59t-12 -68.5v-49zM293 1239q0 76 52 128t128 52t128 -52t52 -128t-52 -128t-128 -52t-128 52t-52 128zM397 1239q0 -31 22.5 -52.5t53.5 -21.5t53.5 21.5t22.5 52.5t-22.5 53.5t-53.5 22.5 t-53.5 -22.5t-22.5 -53.5z" />
<glyph unicode="&#xc6;" horiz-adv-x="1892" d="M135 45v590q0 66 24.5 126t68.5 106t106.5 73t138.5 27t138.5 -27t106.5 -73t68.5 -106.5t24.5 -125.5v-49q0 -45 45 -45h180q45 0 45 45v49q0 66 24.5 126t69 106t106.5 73t138 27t138.5 -27t106.5 -73t68.5 -106.5t24.5 -125.5q0 -45 -45 -45h-67q-45 0 -46 45 q0 35 -12 68.5t-34.5 59t-56.5 42t-77 16.5t-76.5 -16.5t-56 -42t-35 -59t-12.5 -68.5v-49q0 -45 45 -45h158q45 0 45 -45v-45q0 -45 -45 -45h-158q-45 0 -45 -46v-49q0 -35 12.5 -68.5t35 -59t56 -42t76.5 -16.5t77 16.5t56.5 42t34.5 59t12 68.5q0 45 46 45h67 q45 0 45 -45q0 -66 -24.5 -126t-68.5 -106t-106.5 -72.5t-138.5 -26.5t-138 26.5t-106.5 72.5t-69 106.5t-24.5 125.5v49q0 45 -45 46h-180q-45 0 -45 -46v-315q0 -45 -45 -45h-68q-45 0 -45 45v315q0 45 -45 46h-270q-45 0 -45 -46v-315q0 -45 -45 -45h-68q-45 0 -45 45z M293 586q0 -45 45 -45h270q45 0 45 45v49q0 35 -12 68.5t-34.5 59t-56.5 42t-77 16.5t-77 -16.5t-56.5 -42t-34.5 -59t-12 -68.5v-49z" />
<glyph unicode="&#xc7;" d="M156 311v324q0 66 24.5 126t68.5 106t106.5 73t138.5 27t130 -22.5t89 -52.5t54 -59.5t26 -44.5q6 -14 6 -31.5t-19 -29.5l-49 -35q-37 -27 -61 10q-6 10 -18.5 31t-33 40.5t-51 33.5t-73.5 14t-77 -16.5t-56.5 -42t-35 -59t-12.5 -68.5v-324q0 -35 12.5 -68.5t35 -59 t56.5 -42t77 -16.5t72.5 13.5t50 31.5t33 37.5t20.5 32.5q27 39 61 16l47 -33q20 -14 23.5 -29.5t-4.5 -31.5q-37 -70 -92.5 -115t-139.5 -61q-25 -4 -24 -23q0 -14 16 -22q41 -20 63.5 -53t22.5 -87q0 -61 -45 -109t-117 -48q-45 0 -80.5 21.5t-58.5 60.5q-8 14 -7 31.5 t17 27.5l17 12q16 12 33.5 9t29.5 -21q20 -31 49 -31q23 0 36 13.5t13 33.5t-13 33.5t-36 18.5q-55 12 -55 61v25q0 43 -45 57q-43 14 -84 42t-71.5 68.5t-50 92t-19.5 112.5z" />
<glyph unicode="&#xc8;" d="M152 311v324q0 66 24.5 126t68.5 106t106.5 73t137.5 27q76 0 130.5 -22.5t89 -52.5t54 -59.5t25.5 -44.5q6 -14 6.5 -31.5t-18.5 -29.5l-49 -35q-37 -27 -61 10q-6 10 -18.5 31t-33 40.5t-51.5 33.5t-74 14t-76.5 -16.5t-56 -42t-35 -59t-12.5 -68.5v-49q0 -45 45 -45 h209q45 0 45 -45v-45q0 -45 -45 -45h-209q-45 0 -45 -46v-49q0 -35 12.5 -68.5t35 -59t56 -42t76.5 -16.5t73 13.5t50.5 31.5t32.5 37.5t21 32.5q27 39 61 16l47 -33q37 -26 19 -61q-8 -16 -29 -47t-55.5 -60.5t-89 -52t-130.5 -22.5t-138 26.5t-106 72.5t-68.5 106.5 t-24.5 125.5zM234.5 1327.5q11.5 24.5 39.5 24.5h82q63 0 96 -54l91 -147q14 -25 8 -43t-26.5 -24.5t-50.5 4t-62 40.5l-162 152q-27 23 -15.5 47.5z" />
<glyph unicode="&#xc9;" d="M150 311v324q0 66 24.5 126t68.5 106t106.5 73t137.5 27q76 0 130.5 -22.5t89 -52.5t54 -59.5t25.5 -44.5q6 -14 6.5 -31.5t-18.5 -29.5l-49 -35q-37 -27 -61 10q-6 10 -18.5 31t-33 40.5t-51.5 33.5t-74 14t-76.5 -16.5t-56 -42t-35 -59t-12.5 -68.5v-49q0 -45 45 -45 h209q45 0 45 -45v-45q0 -45 -45 -45h-209q-45 0 -45 -46v-49q0 -35 12.5 -68.5t35 -59t56 -42t76.5 -16.5t73 13.5t50.5 31.5t32.5 37.5t21 32.5q27 39 61 16l47 -33q37 -26 19 -61q-8 -16 -29 -47t-55.5 -60.5t-89 -52t-130.5 -22.5t-138 26.5t-106 72.5t-68.5 106.5 t-24.5 125.5zM343 1108q-7 18 9 43l90 147q33 53 97 54h82q29 0 40 -24.5t-16 -47.5l-162 -152q-33 -31 -62.5 -41t-50 -3.5t-27.5 24.5z" />
<glyph unicode="&#xca;" d="M152 311v324q0 66 24.5 126t68.5 106t106.5 73t137.5 27q76 0 130.5 -22.5t89 -52.5t54 -59.5t25.5 -44.5q6 -14 6.5 -31.5t-18.5 -29.5l-49 -35q-37 -27 -61 10q-6 10 -18.5 31t-33 40.5t-51.5 33.5t-74 14t-76.5 -16.5t-56 -42t-35 -59t-12.5 -68.5v-49q0 -45 45 -45 h209q45 0 45 -45v-45q0 -45 -45 -45h-209q-45 0 -45 -46v-49q0 -35 12.5 -68.5t35 -59t56 -42t76.5 -16.5t73 13.5t50.5 31.5t32.5 37.5t21 32.5q27 39 61 16l47 -33q37 -26 19 -61q-8 -16 -29 -47t-55.5 -60.5t-89 -52t-130.5 -22.5t-138 26.5t-106 72.5t-68.5 106.5 t-24.5 125.5zM293 1126q0 76 52 128.5t128 52.5t128 -52.5t52 -128.5q0 -45 -45 -45h-16q-41 0 -45 45q-4 31 -23.5 53.5t-50.5 22.5t-50.5 -22.5t-23.5 -53.5q-4 -45 -45 -45h-16q-45 0 -45 45z" />
<glyph unicode="&#xcb;" d="M152 311v324q0 66 24.5 126t68.5 106t106.5 73t137.5 27q76 0 130.5 -22.5t89 -52.5t54 -59.5t25.5 -44.5q6 -14 6.5 -31.5t-18.5 -29.5l-49 -35q-37 -27 -61 10q-6 10 -18.5 31t-33 40.5t-51.5 33.5t-74 14t-76.5 -16.5t-56 -42t-35 -59t-12.5 -68.5v-49q0 -45 45 -45 h209q45 0 45 -45v-45q0 -45 -45 -45h-209q-45 0 -45 -46v-49q0 -35 12.5 -68.5t35 -59t56 -42t76.5 -16.5t73 13.5t50.5 31.5t32.5 37.5t21 32.5q27 39 61 16l47 -33q37 -26 19 -61q-8 -16 -29 -47t-55.5 -60.5t-89 -52t-130.5 -22.5t-138 26.5t-106 72.5t-68.5 106.5 t-24.5 125.5zM250 1126v45q0 45 45 46h65q45 0 46 -46v-45q0 -45 -46 -45h-65q-45 0 -45 45zM541 1126v45q0 45 45 46h65q45 0 45 -46v-45q0 -45 -45 -45h-65q-45 0 -45 45z" />
<glyph unicode="&#xcc;" d="M135 45v45q0 45 45 45h170q45 0 45 45v586q0 45 -45 45h-102q-45 0 -45 45v45q0 45 45 45h450q45 0 45 -45v-45q0 -45 -45 -45h-102q-45 0 -45 -45v-586q0 -45 45 -45h170q45 0 45 -45v-45q0 -45 -45 -45h-586q-45 0 -45 45zM226.5 1327.5q11.5 24.5 39.5 24.5h82 q63 0 96 -54l91 -147q14 -25 8 -43t-26.5 -24.5t-50.5 4t-62 40.5l-162 152q-27 23 -15.5 47.5z" />
<glyph unicode="&#xcd;" d="M135 45v45q0 45 45 45h170q45 0 45 45v586q0 45 -45 45h-102q-45 0 -45 45v45q0 45 45 45h450q45 0 45 -45v-45q0 -45 -45 -45h-102q-45 0 -45 -45v-586q0 -45 45 -45h170q45 0 45 -45v-45q0 -45 -45 -45h-586q-45 0 -45 45zM396.5 1108q-7.5 18 9.5 43l90 147 q33 53 96 54h82q29 0 40 -24.5t-16 -47.5l-161 -152q-33 -31 -63 -41t-50 -3.5t-27.5 24.5z" />
<glyph unicode="&#xce;" d="M135 45v45q0 45 45 45h170q45 0 45 45v586q0 45 -45 45h-102q-45 0 -45 45v45q0 45 45 45h450q45 0 45 -45v-45q0 -45 -45 -45h-102q-45 0 -45 -45v-586q0 -45 45 -45h170q45 0 45 -45v-45q0 -45 -45 -45h-586q-45 0 -45 45zM293 1126q0 76 52 128.5t128 52.5t128 -52.5 t52 -128.5q0 -45 -45 -45h-16q-41 0 -45 45q-4 31 -23.5 53.5t-50.5 22.5t-50.5 -22.5t-23.5 -53.5q-4 -45 -45 -45h-16q-45 0 -45 45z" />
<glyph unicode="&#xcf;" d="M135 45v45q0 45 45 45h170q45 0 45 45v586q0 45 -45 45h-102q-45 0 -45 45v45q0 45 45 45h450q45 0 45 -45v-45q0 -45 -45 -45h-102q-45 0 -45 -45v-586q0 -45 45 -45h170q45 0 45 -45v-45q0 -45 -45 -45h-586q-45 0 -45 45zM250 1126v45q0 45 45 46h65q45 0 46 -46v-45 q0 -45 -46 -45h-65q-45 0 -45 45zM541 1126v45q0 45 45 46h65q45 0 45 -46v-45q0 -45 -45 -45h-65q-45 0 -45 45z" />
<glyph unicode="&#xd0;" d="M45 451v45q0 45 45 45t45 45v270q0 90 90 90h248q76 0 138.5 -23.5t106.5 -65.5t68.5 -99.5t24.5 -122.5v-324q0 -66 -24.5 -123t-68.5 -99t-106.5 -65.5t-138.5 -23.5h-248q-90 0 -90 90v270q0 45 -45 46q-45 0 -45 45zM293 180q0 -45 45 -45h135q86 0 133 53.5 t47 122.5v324q0 70 -47 123t-133 53h-135q-45 0 -45 -45v-180q0 -45 45 -45h90q45 0 45 -45v-45q0 -45 -45 -45h-90q-45 0 -45 -46v-180z" />
<glyph unicode="&#xd1;" d="M135 45v856q0 45 45 45h78q23 0 36 -13t23 -32l318 -559q10 -16 19.5 -14t9.5 14v559q0 45 45 45h57q45 0 45 -45v-856q0 -45 -45 -45h-78q-23 0 -36 13.5t-23 31.5l-318 565q-8 16 -18 14.5t-10 -14.5v-565q0 -45 -45 -45h-58q-45 0 -45 45zM270 1116v39q0 23 9.5 38 t23.5 24q23 14 51.5 21t51.5 7q39 0 66.5 -14t68.5 -14q16 0 36.5 8t40.5 20t39 3t19 -31v-54q0 -23 -8.5 -33t-24.5 -20q-20 -12 -47 -20.5t-55 -8.5q-20 0 -36 4.5t-31 10.5t-31.5 10t-36.5 4q-31 0 -82 -29q-18 -10 -36 -0.5t-18 35.5z" />
<glyph unicode="&#xd2;" d="M135 311v324q0 66 24.5 126t68.5 106t106.5 73t138.5 27t138.5 -27t106.5 -73t68.5 -106.5t24.5 -125.5v-324q0 -66 -24.5 -126t-68.5 -106t-106.5 -72.5t-138.5 -26.5t-138.5 26.5t-106.5 72.5t-68.5 106.5t-24.5 125.5zM240.5 1327.5q11.5 24.5 39.5 24.5h82 q63 0 96 -54l91 -147q14 -25 8 -43t-26.5 -24.5t-50.5 4t-62 40.5l-162 152q-27 23 -15.5 47.5zM293 311q0 -35 12 -68.5t34.5 -59t56.5 -42t77 -16.5t77 16.5t56.5 42t34.5 59t12 68.5v324q0 35 -12 68.5t-34.5 59t-56.5 42t-77 16.5t-77 -16.5t-56.5 -42t-34.5 -59 t-12 -68.5v-324z" />
<glyph unicode="&#xd3;" d="M135 311v324q0 66 24.5 126t68.5 106t106.5 73t138.5 27t138.5 -27t106.5 -73t68.5 -106.5t24.5 -125.5v-324q0 -66 -24.5 -126t-68.5 -106t-106.5 -72.5t-138.5 -26.5t-138.5 26.5t-106.5 72.5t-68.5 106.5t-24.5 125.5zM293 311q0 -35 12 -68.5t34.5 -59t56.5 -42 t77 -16.5t77 16.5t56.5 42t34.5 59t12 68.5v324q0 35 -12 68.5t-34.5 59t-56.5 42t-77 16.5t-77 -16.5t-56.5 -42t-34.5 -59t-12 -68.5v-324zM384.5 1108q-7.5 18 9.5 43l90 147q33 53 96 54h82q29 0 40 -24.5t-16 -47.5l-161 -152q-33 -31 -63 -41t-50 -3.5t-27.5 24.5z " />
<glyph unicode="&#xd4;" d="M135 311v324q0 66 24.5 126t68.5 106t106.5 73t138.5 27t138.5 -27t106.5 -73t68.5 -106.5t24.5 -125.5v-324q0 -66 -24.5 -126t-68.5 -106t-106.5 -72.5t-138.5 -26.5t-138.5 26.5t-106.5 72.5t-68.5 106.5t-24.5 125.5zM293 311q0 -35 12 -68.5t34.5 -59t56.5 -42 t77 -16.5t77 16.5t56.5 42t34.5 59t12 68.5v324q0 35 -12 68.5t-34.5 59t-56.5 42t-77 16.5t-77 -16.5t-56.5 -42t-34.5 -59t-12 -68.5v-324zM293 1126q0 76 52 128.5t128 52.5t128 -52.5t52 -128.5q0 -45 -45 -45h-16q-41 0 -45 45q-4 31 -23.5 53.5t-50.5 22.5 t-50.5 -22.5t-23.5 -53.5q-4 -45 -45 -45h-16q-45 0 -45 45z" />
<glyph unicode="&#xd5;" d="M135 311v324q0 66 24.5 126t68.5 106t106.5 73t138.5 27t138.5 -27t106.5 -73t68.5 -106.5t24.5 -125.5v-324q0 -66 -24.5 -126t-68.5 -106t-106.5 -72.5t-138.5 -26.5t-138.5 26.5t-106.5 72.5t-68.5 106.5t-24.5 125.5zM270 1116v39q0 23 9.5 38t23.5 24q23 14 51.5 21 t51.5 7q39 0 66.5 -14t68.5 -14q16 0 36.5 8t40.5 20t39 3t19 -31v-54q0 -23 -8.5 -33t-24.5 -20q-20 -12 -47 -20.5t-55 -8.5q-20 0 -36 4.5t-31 10.5t-31.5 10t-36.5 4q-31 0 -82 -29q-18 -10 -36 -0.5t-18 35.5zM293 311q0 -35 12 -68.5t34.5 -59t56.5 -42t77 -16.5 t77 16.5t56.5 42t34.5 59t12 68.5v324q0 35 -12 68.5t-34.5 59t-56.5 42t-77 16.5t-77 -16.5t-56.5 -42t-34.5 -59t-12 -68.5v-324z" />
<glyph unicode="&#xd6;" d="M135 311v324q0 66 24.5 126t68.5 106t106.5 73t138.5 27t138.5 -27t106.5 -73t68.5 -106.5t24.5 -125.5v-324q0 -66 -24.5 -126t-68.5 -106t-106.5 -72.5t-138.5 -26.5t-138.5 26.5t-106.5 72.5t-68.5 106.5t-24.5 125.5zM250 1126v45q0 45 45 46h65q45 0 46 -46v-45 q0 -45 -46 -45h-65q-45 0 -45 45zM293 311q0 -35 12 -68.5t34.5 -59t56.5 -42t77 -16.5t77 16.5t56.5 42t34.5 59t12 68.5v324q0 35 -12 68.5t-34.5 59t-56.5 42t-77 16.5t-77 -16.5t-56.5 -42t-34.5 -59t-12 -68.5v-324zM541 1126v45q0 45 45 46h65q45 0 45 -46v-45 q0 -45 -45 -45h-65q-45 0 -45 45z" />
<glyph unicode="&#xd7;" d="M211 625q-33 31 0 63l47 47q31 31 64 0l127 -127q31 -33 63 0l121 119q31 31 63 0l31 -31q31 -33 0 -63l-119 -121q-33 -33 0 -63l127 -127q31 -33 0 -64l-47 -47q-33 -33 -63 0l-127 127q-33 31 -64 0l-121 -119q-33 -33 -63 0l-31 31q-33 31 0 63l119 121q31 31 0 64z " />
<glyph unicode="&#xd8;" d="M135 311v324q0 66 24.5 126t68.5 106t106.5 73t138.5 27t138.5 -27t106.5 -73t68.5 -106.5t24.5 -125.5v-324q0 -66 -24.5 -126t-68.5 -106t-106.5 -72.5t-138.5 -26.5t-138.5 26.5t-106.5 72.5t-68.5 106.5t-24.5 125.5zM293 422q0 -14 12 -17.5t23 7.5l262 290 q18 20 17 42t-15 34q-47 43 -119 43q-43 0 -75.5 -16.5t-56.5 -42t-36 -59t-12 -68.5v-213zM339 204q1 -22 15 -34q23 -20 52.5 -32.5t66.5 -12.5q43 0 77 16.5t56.5 42t34.5 59t12 68.5v215q0 14 -12 17.5t-23 -6.5l-262 -291q-18 -20 -17 -42z" />
<glyph unicode="&#xd9;" d="M135 311v590q0 45 45 45h68q45 0 45 -45v-590q0 -35 12 -68.5t34.5 -59t56.5 -42t77 -16.5t77 16.5t56.5 42t34.5 59t12 68.5v590q0 45 45 45h68q45 0 45 -45v-590q0 -66 -24.5 -126t-68.5 -106t-106.5 -72.5t-138.5 -26.5t-138.5 26.5t-106.5 72.5t-68.5 106.5 t-24.5 125.5zM255.5 1327.5q11.5 24.5 39.5 24.5h82q63 0 96 -54l91 -147q14 -25 8 -43t-26.5 -24.5t-50.5 4t-62 40.5l-162 152q-27 23 -15.5 47.5z" />
<glyph unicode="&#xda;" d="M135 311v590q0 45 45 45h68q45 0 45 -45v-590q0 -35 12 -68.5t34.5 -59t56.5 -42t77 -16.5t77 16.5t56.5 42t34.5 59t12 68.5v590q0 45 45 45h68q45 0 45 -45v-590q0 -66 -24.5 -126t-68.5 -106t-106.5 -72.5t-138.5 -26.5t-138.5 26.5t-106.5 72.5t-68.5 106.5 t-24.5 125.5zM367.5 1108q-7.5 18 9.5 43l90 147q33 53 96 54h82q29 0 40 -24.5t-16 -47.5l-161 -152q-33 -31 -63 -41t-50 -3.5t-27.5 24.5z" />
<glyph unicode="&#xdb;" d="M135 311v590q0 45 45 45h68q45 0 45 -45v-590q0 -35 12 -68.5t34.5 -59t56.5 -42t77 -16.5t77 16.5t56.5 42t34.5 59t12 68.5v590q0 45 45 45h68q45 0 45 -45v-590q0 -66 -24.5 -126t-68.5 -106t-106.5 -72.5t-138.5 -26.5t-138.5 26.5t-106.5 72.5t-68.5 106.5 t-24.5 125.5zM293 1126q0 76 52 128.5t128 52.5t128 -52.5t52 -128.5q0 -45 -45 -45h-16q-41 0 -45 45q-4 31 -23.5 53.5t-50.5 22.5t-50.5 -22.5t-23.5 -53.5q-4 -45 -45 -45h-16q-45 0 -45 45z" />
<glyph unicode="&#xdc;" d="M135 311v590q0 45 45 45h68q45 0 45 -45v-590q0 -35 12 -68.5t34.5 -59t56.5 -42t77 -16.5t77 16.5t56.5 42t34.5 59t12 68.5v590q0 45 45 45h68q45 0 45 -45v-590q0 -66 -24.5 -126t-68.5 -106t-106.5 -72.5t-138.5 -26.5t-138.5 26.5t-106.5 72.5t-68.5 106.5 t-24.5 125.5zM250 1126v45q0 45 45 46h65q45 0 46 -46v-45q0 -45 -46 -45h-65q-45 0 -45 45zM541 1126v45q0 45 45 46h65q45 0 45 -46v-45q0 -45 -45 -45h-65q-45 0 -45 45z" />
<glyph unicode="&#xdd;" d="M141.5 925.5q8.5 20.5 34.5 20.5h70q23 0 39 -13t26 -32l138 -237q12 -23 24 -23t25 23l137 237q10 18 26.5 31.5t38.5 13.5h72q25 0 33 -20.5t-2 -36.5l-225 -381q-27 -47 -27 -102v-361q0 -45 -45 -45h-66q-45 0 -45 45v361q0 55 -26 102l-226 381q-10 16 -1.5 36.5z M363.5 1108q-7.5 18 9.5 43l90 147q33 53 96 54h82q29 0 40 -24.5t-16 -47.5l-161 -152q-33 -31 -63 -41t-50 -3.5t-27.5 24.5z" />
<glyph unicode="&#xde;" d="M135 45v1262q0 45 45 45h68q45 0 45 -45v-355q0 -12 9 -18t24 0q78 33 147 33q76 0 138.5 -27t106.5 -73t68.5 -106t24.5 -126t-24.5 -126t-68.5 -106.5t-106.5 -73t-138.5 -26.5q-70 0 -147 33q-14 6 -23.5 0t-9.5 -19v-272q0 -45 -45 -45h-68q-45 0 -45 45zM293 635 q0 -35 12 -69t34.5 -59.5t56.5 -41.5t77 -16t77 16t56.5 41.5t34.5 59.5t12 69t-12 68.5t-34.5 59t-56.5 42t-77 16.5t-77 -16.5t-56.5 -42t-34.5 -59t-12 -68.5z" />
<glyph unicode="&#xdf;" d="M135 -360v995q0 66 24.5 126t68.5 106t106.5 73t138.5 27q154 0 241 -80t87 -211q0 -84 -28 -126t-50 -63q-20 -20 0 -32q12 -8 26.5 -21.5t29 -35t23.5 -53.5t9 -75q0 -141 -97.5 -221t-262.5 -69q-45 4 -45 45v59q0 23 11 35t34 10q96 -8 149 31t53 110q0 43 -21.5 70 t-52 41t-66.5 19.5t-62 5.5q-45 0 -45 45v45q0 45 45 45q27 0 60.5 5t62 19.5t49 41t20.5 69.5q0 74 -47 109.5t-123 35.5q-43 0 -77 -16.5t-56.5 -42t-34.5 -59t-12 -68.5v-995q0 -45 -45 -46h-68q-45 0 -45 46z" />
<glyph unicode="&#xe0;" horiz-adv-x="948" d="M135 311q0 66 24.5 126.5t68.5 106.5t106.5 72.5t138.5 26.5q82 0 152 -33q12 -6 20 1t8 24q0 35 -12 68.5t-34.5 59t-56.5 42t-77 16.5q-53 0 -96 -13t-74 -30q-20 -10 -33.5 -4t-23.5 25l-27 47q-10 20 -1 36.5t24 24.5q49 29 106.5 44.5t124.5 15.5q76 0 138.5 -27 t106.5 -73t68.5 -106.5t24.5 -125.5v-590q0 -45 -45 -45h-53q-23 0 -33 18q-12 20 -29 9q-29 -16 -72.5 -31.5t-105.5 -15.5q-76 0 -138.5 26.5t-106.5 72.5t-68.5 106.5t-24.5 125.5zM273.5 1327.5q11.5 24.5 39.5 24.5h82q63 0 96 -54l91 -147q14 -25 8 -43t-26.5 -24.5 t-50.5 4t-62 40.5l-162 152q-27 23 -15.5 47.5zM293 311q0 -35 12 -68.5t34.5 -59t56.5 -42t77 -16.5t77 16.5t56.5 42t34.5 59t12 68.5t-12 69t-34.5 59.5t-56.5 42t-77 16.5t-77 -16.5t-56.5 -42t-34.5 -59.5t-12 -69z" />
<glyph unicode="&#xe1;" d="M135 311q0 66 24.5 126.5t68.5 106.5t106.5 72.5t138.5 26.5q82 0 152 -33q12 -6 20 1t8 24q0 35 -12 68.5t-34.5 59t-56.5 42t-77 16.5q-53 0 -96 -13t-74 -30q-20 -10 -33.5 -4t-23.5 25l-27 47q-10 20 -1 36.5t24 24.5q49 29 106.5 44.5t124.5 15.5q76 0 138.5 -27 t106.5 -73t68.5 -106.5t24.5 -125.5v-590q0 -45 -45 -45h-53q-23 0 -33 18q-12 20 -29 9q-29 -16 -72.5 -31.5t-105.5 -15.5q-76 0 -138.5 26.5t-106.5 72.5t-68.5 106.5t-24.5 125.5zM293 311q0 -35 12 -68.5t34.5 -59t56.5 -42t77 -16.5t77 16.5t56.5 42t34.5 59t12 68.5 t-12 69t-34.5 59.5t-56.5 42t-77 16.5t-77 -16.5t-56.5 -42t-34.5 -59.5t-12 -69zM392.5 1108q-7.5 18 9.5 43l90 147q33 53 96 54h82q29 0 40 -24.5t-16 -47.5l-161 -152q-33 -31 -63 -41t-50 -3.5t-27.5 24.5z" />
<glyph unicode="&#xe2;" d="M135 311q0 66 24.5 126.5t68.5 106.5t106.5 72.5t138.5 26.5q82 0 152 -33q12 -6 20 1t8 24q0 35 -12 68.5t-34.5 59t-56.5 42t-77 16.5q-53 0 -96 -13t-74 -30q-20 -10 -33.5 -4t-23.5 25l-27 47q-10 20 -1 36.5t24 24.5q49 29 106.5 44.5t124.5 15.5q76 0 138.5 -27 t106.5 -73t68.5 -106.5t24.5 -125.5v-590q0 -45 -45 -45h-53q-23 0 -33 18q-12 20 -29 9q-29 -16 -72.5 -31.5t-105.5 -15.5q-76 0 -138.5 26.5t-106.5 72.5t-68.5 106.5t-24.5 125.5zM293 311q0 -35 12 -68.5t34.5 -59t56.5 -42t77 -16.5t77 16.5t56.5 42t34.5 59t12 68.5 t-12 69t-34.5 59.5t-56.5 42t-77 16.5t-77 -16.5t-56.5 -42t-34.5 -59.5t-12 -69zM293 1126q0 76 52 128.5t128 52.5t128 -52.5t52 -128.5q0 -45 -45 -45h-16q-41 0 -45 45q-4 31 -23.5 53.5t-50.5 22.5t-50.5 -22.5t-23.5 -53.5q-4 -45 -45 -45h-16q-45 0 -45 45z" />
<glyph unicode="&#xe3;" d="M135 311q0 66 24.5 126.5t68.5 106.5t106.5 72.5t138.5 26.5q82 0 152 -33q12 -6 20 1t8 24q0 35 -12 68.5t-34.5 59t-56.5 42t-77 16.5q-53 0 -96 -13t-74 -30q-20 -10 -33.5 -4t-23.5 25l-27 47q-10 20 -1 36.5t24 24.5q49 29 106.5 44.5t124.5 15.5q76 0 138.5 -27 t106.5 -73t68.5 -106.5t24.5 -125.5v-590q0 -45 -45 -45h-53q-23 0 -33 18q-12 20 -29 9q-29 -16 -72.5 -31.5t-105.5 -15.5q-76 0 -138.5 26.5t-106.5 72.5t-68.5 106.5t-24.5 125.5zM270 1116v39q0 23 9.5 38t23.5 24q23 14 51.5 21t51.5 7q39 0 66.5 -14t68.5 -14 q16 0 36.5 8t40.5 20t39 3t19 -31v-54q0 -23 -8.5 -33t-24.5 -20q-20 -12 -47 -20.5t-55 -8.5q-20 0 -36 4.5t-31 10.5t-31.5 10t-36.5 4q-31 0 -82 -29q-18 -10 -36 -0.5t-18 35.5zM293 311q0 -35 12 -68.5t34.5 -59t56.5 -42t77 -16.5t77 16.5t56.5 42t34.5 59t12 68.5 t-12 69t-34.5 59.5t-56.5 42t-77 16.5t-77 -16.5t-56.5 -42t-34.5 -59.5t-12 -69z" />
<glyph unicode="&#xe4;" d="M135 311q0 66 24.5 126.5t68.5 106.5t106.5 72.5t138.5 26.5q82 0 152 -33q12 -6 20 1t8 24q0 35 -12 68.5t-34.5 59t-56.5 42t-77 16.5q-53 0 -96 -13t-74 -30q-20 -10 -33.5 -4t-23.5 25l-27 47q-10 20 -1 36.5t24 24.5q49 29 106.5 44.5t124.5 15.5q76 0 138.5 -27 t106.5 -73t68.5 -106.5t24.5 -125.5v-590q0 -45 -45 -45h-53q-23 0 -33 18q-12 20 -29 9q-29 -16 -72.5 -31.5t-105.5 -15.5q-76 0 -138.5 26.5t-106.5 72.5t-68.5 106.5t-24.5 125.5zM250 1126v45q0 45 45 46h65q45 0 46 -46v-45q0 -45 -46 -45h-65q-45 0 -45 45zM293 311 q0 -35 12 -68.5t34.5 -59t56.5 -42t77 -16.5t77 16.5t56.5 42t34.5 59t12 68.5t-12 69t-34.5 59.5t-56.5 42t-77 16.5t-77 -16.5t-56.5 -42t-34.5 -59.5t-12 -69zM541 1126v45q0 45 45 46h65q45 0 45 -46v-45q0 -45 -45 -45h-65q-45 0 -45 45z" />
<glyph unicode="&#xe5;" d="M135 311q0 66 24.5 126.5t68.5 106.5t106.5 72.5t138.5 26.5q82 0 152 -33q12 -6 20 1t8 24q0 35 -12 68.5t-34.5 59t-56.5 42t-77 16.5q-53 0 -96 -13t-74 -30q-20 -10 -33.5 -4t-23.5 25l-27 47q-10 20 -1 36.5t24 24.5q49 29 106.5 44.5t124.5 15.5q76 0 138.5 -27 t106.5 -73t68.5 -106.5t24.5 -125.5v-590q0 -45 -45 -45h-53q-23 0 -33 18q-12 20 -29 9q-29 -16 -72.5 -31.5t-105.5 -15.5q-76 0 -138.5 26.5t-106.5 72.5t-68.5 106.5t-24.5 125.5zM293 311q0 -35 12 -68.5t34.5 -59t56.5 -42t77 -16.5t77 16.5t56.5 42t34.5 59t12 68.5 t-12 69t-34.5 59.5t-56.5 42t-77 16.5t-77 -16.5t-56.5 -42t-34.5 -59.5t-12 -69zM293 1239q0 76 52 128t128 52t128 -52t52 -128t-52 -128t-128 -52t-128 52t-52 128zM397 1239q0 -31 22.5 -52.5t53.5 -21.5t53.5 21.5t22.5 52.5t-22.5 53.5t-53.5 22.5t-53.5 -22.5 t-22.5 -53.5z" />
<glyph unicode="&#xe6;" horiz-adv-x="1892" d="M135 270q0 72 27.5 123t74 84t108 48.5t128.5 15.5h135q45 0 45 45v49q0 35 -12 68.5t-34.5 59t-56.5 42t-77 16.5t-77 -16.5t-56.5 -42t-34.5 -59t-12 -68.5q0 -45 -45 -45h-68q-45 0 -45 45q0 66 24.5 126t68.5 106t106.5 73t138.5 27t138.5 -27t106.5 -73t68.5 -106.5 t24.5 -125.5v-49q0 -45 45 -45h180q45 0 45 45v49q0 66 24.5 126t69 106t106.5 73t138 27q72 0 133.5 -18.5t107.5 -55.5t71.5 -91t25.5 -126t-27.5 -123t-73.5 -84t-107.5 -48t-129.5 -15h-135q-45 0 -45 -46v-49q0 -35 12.5 -68.5t35 -59t56 -42t76.5 -16.5t77 16.5 t56.5 42t34.5 59t12 68.5q0 45 46 45h67q45 0 45 -45q0 -66 -24.5 -126t-68.5 -106t-106.5 -72.5t-138.5 -26.5t-138 26.5t-106.5 72.5t-69 106.5t-24.5 125.5v49q0 45 -45 46h-180q-45 0 -45 -46v-49q0 -66 -24.5 -126t-68.5 -106t-106.5 -72.5t-138.5 -26.5q-72 0 -133 18 t-107.5 55t-72 91.5t-25.5 125.5zM289 270q0 -66 49 -105.5t135 -39.5q43 0 77 16.5t56.5 42t34.5 59t12 68.5v49q0 45 -45 46h-135q-76 0 -130 -35t-54 -101zM1239 586q0 -45 45 -45h135q76 0 130.5 34.5t54.5 100.5t-49.5 105.5t-135.5 39.5q-43 0 -76.5 -16.5t-56 -42 t-35 -59t-12.5 -68.5v-49z" />
<glyph unicode="&#xe7;" d="M156 311v324q0 66 24.5 126t68.5 106t106.5 73t138.5 27t130 -22.5t89 -52.5t54 -59.5t26 -44.5q6 -14 6 -31.5t-19 -29.5l-49 -35q-37 -27 -61 10q-6 10 -18.5 31t-33 40.5t-51 33.5t-73.5 14t-77 -16.5t-56.5 -42t-35 -59t-12.5 -68.5v-324q0 -35 12.5 -68.5t35 -59 t56.5 -42t77 -16.5t72.5 13.5t50 31.5t33 37.5t20.5 32.5q27 39 61 16l47 -33q20 -14 23.5 -29.5t-4.5 -31.5q-37 -70 -92.5 -115t-139.5 -61q-25 -4 -24 -23q0 -14 16 -22q41 -20 63.5 -53t22.5 -87q0 -61 -45 -109t-117 -48q-45 0 -80.5 21.5t-58.5 60.5q-8 14 -7 31.5 t17 27.5l17 12q16 12 33.5 9t29.5 -21q20 -31 49 -31q23 0 36 13.5t13 33.5t-13 33.5t-36 18.5q-55 12 -55 61v25q0 43 -45 57q-43 14 -84 42t-71.5 68.5t-50 92t-19.5 112.5z" />
<glyph unicode="&#xe8;" d="M135 311v324q0 66 24.5 126t68.5 106t106.5 73t138.5 27t138.5 -27t106.5 -73t68.5 -106.5t24.5 -125.5v-139q0 -90 -90 -90h-383q-45 0 -45 -46v-49q0 -35 12 -68.5t34.5 -59t56.5 -42t77 -16.5q39 0 72 12.5t57.5 30.5t44 38.5t31.5 39.5q10 16 27.5 17t33.5 -9l45 -33 q18 -14 18.5 -32.5t-7.5 -30.5q-18 -31 -47 -61.5t-68 -57.5t-91 -43t-116 -16q-76 0 -138.5 26.5t-106.5 72.5t-68.5 106.5t-24.5 125.5zM244.5 1327.5q11.5 24.5 39.5 24.5h82q63 0 96 -54l91 -147q14 -25 8 -43t-26.5 -24.5t-50.5 4t-62 40.5l-162 152q-27 23 -15.5 47.5 zM293 586q0 -45 45 -45h270q45 0 45 45v49q0 35 -12 68.5t-34.5 59t-56.5 42t-77 16.5t-77 -16.5t-56.5 -42t-34.5 -59t-12 -68.5v-49z" />
<glyph unicode="&#xe9;" d="M135 311v324q0 66 24.5 126t68.5 106t106.5 73t138.5 27t138.5 -27t106.5 -73t68.5 -106.5t24.5 -125.5v-139q0 -90 -90 -90h-383q-45 0 -45 -46v-49q0 -35 12 -68.5t34.5 -59t56.5 -42t77 -16.5q39 0 72 12.5t57.5 30.5t44 38.5t31.5 39.5q10 16 27.5 17t33.5 -9l45 -33 q18 -14 18.5 -32.5t-7.5 -30.5q-18 -31 -47 -61.5t-68 -57.5t-91 -43t-116 -16q-76 0 -138.5 26.5t-106.5 72.5t-68.5 106.5t-24.5 125.5zM293 586q0 -45 45 -45h270q45 0 45 45v49q0 35 -12 68.5t-34.5 59t-56.5 42t-77 16.5t-77 -16.5t-56.5 -42t-34.5 -59t-12 -68.5v-49z M373.5 1108q-7.5 18 9.5 43l90 147q33 53 96 54h82q29 0 40 -24.5t-16 -47.5l-161 -152q-33 -31 -63 -41t-50 -3.5t-27.5 24.5z" />
<glyph unicode="&#xea;" d="M135 311v324q0 66 24.5 126t68.5 106t106.5 73t138.5 27t138.5 -27t106.5 -73t68.5 -106.5t24.5 -125.5v-139q0 -90 -90 -90h-383q-45 0 -45 -46v-49q0 -35 12 -68.5t34.5 -59t56.5 -42t77 -16.5q39 0 72 12.5t57.5 30.5t44 38.5t31.5 39.5q10 16 27.5 17t33.5 -9l45 -33 q18 -14 18.5 -32.5t-7.5 -30.5q-18 -31 -47 -61.5t-68 -57.5t-91 -43t-116 -16q-76 0 -138.5 26.5t-106.5 72.5t-68.5 106.5t-24.5 125.5zM293 586q0 -45 45 -45h270q45 0 45 45v49q0 35 -12 68.5t-34.5 59t-56.5 42t-77 16.5t-77 -16.5t-56.5 -42t-34.5 -59t-12 -68.5v-49z M293 1126q0 76 52 128.5t128 52.5t128 -52.5t52 -128.5q0 -45 -45 -45h-16q-41 0 -45 45q-4 31 -23.5 53.5t-50.5 22.5t-50.5 -22.5t-23.5 -53.5q-4 -45 -45 -45h-16q-45 0 -45 45z" />
<glyph unicode="&#xeb;" d="M135 311v324q0 66 24.5 126t68.5 106t106.5 73t138.5 27t138.5 -27t106.5 -73t68.5 -106.5t24.5 -125.5v-139q0 -90 -90 -90h-383q-45 0 -45 -46v-49q0 -35 12 -68.5t34.5 -59t56.5 -42t77 -16.5q39 0 72 12.5t57.5 30.5t44 38.5t31.5 39.5q10 16 27.5 17t33.5 -9l45 -33 q18 -14 18.5 -32.5t-7.5 -30.5q-18 -31 -47 -61.5t-68 -57.5t-91 -43t-116 -16q-76 0 -138.5 26.5t-106.5 72.5t-68.5 106.5t-24.5 125.5zM250 1126v45q0 45 45 46h65q45 0 46 -46v-45q0 -45 -46 -45h-65q-45 0 -45 45zM293 586q0 -45 45 -45h270q45 0 45 45v49 q0 35 -12 68.5t-34.5 59t-56.5 42t-77 16.5t-77 -16.5t-56.5 -42t-34.5 -59t-12 -68.5v-49zM541 1126v45q0 45 45 46h65q45 0 45 -46v-45q0 -45 -45 -45h-65q-45 0 -45 45z" />
<glyph unicode="&#xec;" d="M270 311v590q0 45 45 45h68q45 0 45 -45v-590q0 -35 12.5 -68.5t35 -59t56 -42t76.5 -16.5q33 0 57.5 9t36.5 16q18 10 34 9t30 -18l37 -47q14 -18 9 -35.5t-21 -27.5q-35 -23 -82 -37t-101 -14q-76 0 -138 26.5t-106.5 72.5t-69 106.5t-24.5 125.5zM273.5 1327.5 q11.5 24.5 39.5 24.5h82q63 0 96 -54l91 -147q14 -25 8 -43t-26.5 -24.5t-50.5 4t-62 40.5l-162 152q-27 23 -15.5 47.5z" />
<glyph unicode="&#xed;" d="M270 311v590q0 45 45 45h68q45 0 45 -45v-590q0 -35 12.5 -68.5t35 -59t56 -42t76.5 -16.5q33 0 57.5 9t36.5 16q18 10 34 9t30 -18l37 -47q14 -18 9 -35.5t-21 -27.5q-35 -23 -82 -37t-101 -14q-76 0 -138 26.5t-106.5 72.5t-69 106.5t-24.5 125.5zM291.5 1108 q-7.5 18 9.5 43l90 147q33 53 96 54h82q29 0 40 -24.5t-16 -47.5l-161 -152q-33 -31 -63 -41t-50 -3.5t-27.5 24.5z" />
<glyph unicode="&#xee;" d="M270 311v590q0 45 45 45h68q45 0 45 -45v-590q0 -35 12.5 -68.5t35 -59t56 -42t76.5 -16.5q33 0 57.5 9t36.5 16q18 10 34 9t30 -18l37 -47q14 -18 9 -35.5t-21 -27.5q-35 -23 -82 -37t-101 -14q-76 0 -138 26.5t-106.5 72.5t-69 106.5t-24.5 125.5zM273 1126 q0 76 52 128.5t128 52.5t128 -52.5t52 -128.5q0 -45 -45 -45h-16q-41 0 -45 45q-4 31 -23.5 53.5t-50.5 22.5t-50.5 -22.5t-23.5 -53.5q-4 -45 -45 -45h-16q-45 0 -45 45z" />
<glyph unicode="&#xef;" d="M270 311v590q0 45 45 45h68q45 0 45 -45v-590q0 -35 12.5 -68.5t35 -59t56 -42t76.5 -16.5q33 0 57.5 9t36.5 16q18 10 34 9t30 -18l37 -47q14 -18 9 -35.5t-21 -27.5q-35 -23 -82 -37t-101 -14q-76 0 -138 26.5t-106.5 72.5t-69 106.5t-24.5 125.5zM270 1126v45 q0 45 45 46h65q45 0 46 -46v-45q0 -45 -46 -45h-65q-45 0 -45 45zM561 1126v45q0 45 45 46h65q45 0 45 -46v-45q0 -45 -45 -45h-65q-45 0 -45 45z" />
<glyph unicode="&#xf0;" d="M135 311v324q0 66 24.5 126t68.5 106t106.5 73t138.5 27q16 0 35.5 -3t34.5 -8q39 -10 39 35q0 25 -21.5 59.5t-54.5 63.5q-25 20 -39 -2l-23 -35q-10 -16 -29.5 -21t-35.5 5l-39 20q-16 10 -21.5 26.5t7.5 35.5l20 31q8 12 2 20t-20 12q-18 4 -48 7.5t-59 3.5 q-45 0 -45 45v45q0 45 45 45q49 0 94 -6.5t99 -20.5q27 -6 43 18l14 21q25 35 61 12l39 -22q16 -10 21.5 -26.5t-8.5 -35.5l-11 -14q-14 -20 5 -37q72 -59 116.5 -130t71.5 -148.5t36 -160.5t9 -167v-324q0 -66 -24.5 -126t-68.5 -106t-106.5 -72.5t-138.5 -26.5 t-138.5 26.5t-106.5 72.5t-68.5 106.5t-24.5 125.5zM293 311q0 -35 12 -68.5t34.5 -59t56.5 -42t77 -16.5t77 16.5t56.5 42t34.5 59t12 68.5v324q0 35 -12 68.5t-34.5 59t-56.5 42t-77 16.5t-77 -16.5t-56.5 -42t-34.5 -59t-12 -68.5v-324z" />
<glyph unicode="&#xf1;" d="M135 45v856q0 45 45 45h53q23 0 33 -18q12 -20 29 -8q29 16 73 31.5t105 15.5q76 0 138.5 -27t106.5 -73t68.5 -106.5t24.5 -125.5v-590q0 -45 -45 -45h-68q-45 0 -45 45v590q0 35 -12 68.5t-34.5 59t-56.5 42t-77 16.5t-77 -16.5t-56.5 -42t-34.5 -59t-12 -68.5v-590 q0 -45 -45 -45h-68q-45 0 -45 45zM270 1116v39q0 23 9.5 38t23.5 24q23 14 51.5 21t51.5 7q39 0 66.5 -14t68.5 -14q16 0 36.5 8t40.5 20t39 3t19 -31v-54q0 -23 -8.5 -33t-24.5 -20q-20 -12 -47 -20.5t-55 -8.5q-20 0 -36 4.5t-31 10.5t-31.5 10t-36.5 4q-31 0 -82 -29 q-18 -10 -36 -0.5t-18 35.5z" />
<glyph unicode="&#xf2;" d="M135 311v324q0 66 24.5 126t68.5 106t106.5 73t138.5 27t138.5 -27t106.5 -73t68.5 -106.5t24.5 -125.5v-324q0 -66 -24.5 -126t-68.5 -106t-106.5 -72.5t-138.5 -26.5t-138.5 26.5t-106.5 72.5t-68.5 106.5t-24.5 125.5zM240.5 1327.5q11.5 24.5 39.5 24.5h82 q63 0 96 -54l91 -147q14 -25 8 -43t-26.5 -24.5t-50.5 4t-62 40.5l-162 152q-27 23 -15.5 47.5zM293 311q0 -35 12 -68.5t34.5 -59t56.5 -42t77 -16.5t77 16.5t56.5 42t34.5 59t12 68.5v324q0 35 -12 68.5t-34.5 59t-56.5 42t-77 16.5t-77 -16.5t-56.5 -42t-34.5 -59 t-12 -68.5v-324z" />
<glyph unicode="&#xf3;" d="M135 311v324q0 66 24.5 126t68.5 106t106.5 73t138.5 27t138.5 -27t106.5 -73t68.5 -106.5t24.5 -125.5v-324q0 -66 -24.5 -126t-68.5 -106t-106.5 -72.5t-138.5 -26.5t-138.5 26.5t-106.5 72.5t-68.5 106.5t-24.5 125.5zM293 311q0 -35 12 -68.5t34.5 -59t56.5 -42 t77 -16.5t77 16.5t56.5 42t34.5 59t12 68.5v324q0 35 -12 68.5t-34.5 59t-56.5 42t-77 16.5t-77 -16.5t-56.5 -42t-34.5 -59t-12 -68.5v-324zM384.5 1108q-7.5 18 9.5 43l90 147q33 53 96 54h82q29 0 40 -24.5t-16 -47.5l-161 -152q-33 -31 -63 -41t-50 -3.5t-27.5 24.5z " />
<glyph unicode="&#xf4;" d="M135 311v324q0 66 24.5 126t68.5 106t106.5 73t138.5 27t138.5 -27t106.5 -73t68.5 -106.5t24.5 -125.5v-324q0 -66 -24.5 -126t-68.5 -106t-106.5 -72.5t-138.5 -26.5t-138.5 26.5t-106.5 72.5t-68.5 106.5t-24.5 125.5zM293 311q0 -35 12 -68.5t34.5 -59t56.5 -42 t77 -16.5t77 16.5t56.5 42t34.5 59t12 68.5v324q0 35 -12 68.5t-34.5 59t-56.5 42t-77 16.5t-77 -16.5t-56.5 -42t-34.5 -59t-12 -68.5v-324zM293 1126q0 76 52 128.5t128 52.5t128 -52.5t52 -128.5q0 -45 -45 -45h-16q-41 0 -45 45q-4 31 -23.5 53.5t-50.5 22.5 t-50.5 -22.5t-23.5 -53.5q-4 -45 -45 -45h-16q-45 0 -45 45z" />
<glyph unicode="&#xf5;" d="M135 311v324q0 66 24.5 126t68.5 106t106.5 73t138.5 27t138.5 -27t106.5 -73t68.5 -106.5t24.5 -125.5v-324q0 -66 -24.5 -126t-68.5 -106t-106.5 -72.5t-138.5 -26.5t-138.5 26.5t-106.5 72.5t-68.5 106.5t-24.5 125.5zM270 1116v39q0 23 9.5 38t23.5 24q23 14 51.5 21 t51.5 7q39 0 66.5 -14t68.5 -14q16 0 36.5 8t40.5 20t39 3t19 -31v-54q0 -23 -8.5 -33t-24.5 -20q-20 -12 -47 -20.5t-55 -8.5q-20 0 -36 4.5t-31 10.5t-31.5 10t-36.5 4q-31 0 -82 -29q-18 -10 -36 -0.5t-18 35.5zM293 311q0 -35 12 -68.5t34.5 -59t56.5 -42t77 -16.5 t77 16.5t56.5 42t34.5 59t12 68.5v324q0 35 -12 68.5t-34.5 59t-56.5 42t-77 16.5t-77 -16.5t-56.5 -42t-34.5 -59t-12 -68.5v-324z" />
<glyph unicode="&#xf6;" d="M135 311v324q0 66 24.5 126t68.5 106t106.5 73t138.5 27t138.5 -27t106.5 -73t68.5 -106.5t24.5 -125.5v-324q0 -66 -24.5 -126t-68.5 -106t-106.5 -72.5t-138.5 -26.5t-138.5 26.5t-106.5 72.5t-68.5 106.5t-24.5 125.5zM250 1126v45q0 45 45 46h65q45 0 46 -46v-45 q0 -45 -46 -45h-65q-45 0 -45 45zM293 311q0 -35 12 -68.5t34.5 -59t56.5 -42t77 -16.5t77 16.5t56.5 42t34.5 59t12 68.5v324q0 35 -12 68.5t-34.5 59t-56.5 42t-77 16.5t-77 -16.5t-56.5 -42t-34.5 -59t-12 -68.5v-324zM541 1126v45q0 45 45 46h65q45 0 45 -46v-45 q0 -45 -45 -45h-65q-45 0 -45 45z" />
<glyph unicode="&#xf7;" d="M135 451v45q0 45 45 45h586q45 0 45 -45v-45q0 -45 -45 -45h-586q-45 0 -45 45zM395 180v45q0 45 45 45h66q45 0 45 -45v-45q0 -45 -45 -45h-66q-45 0 -45 45zM395 721v45q0 45 45 45h66q45 0 45 -45v-45q0 -45 -45 -45h-66q-45 0 -45 45z" />
<glyph unicode="&#xf8;" d="M135 311v324q0 66 24.5 126t68.5 106t106.5 73t138.5 27t138.5 -27t106.5 -73t68.5 -106.5t24.5 -125.5v-324q0 -66 -24.5 -126t-68.5 -106t-106.5 -72.5t-138.5 -26.5t-138.5 26.5t-106.5 72.5t-68.5 106.5t-24.5 125.5zM293 422q0 -14 12 -17.5t23 7.5l262 290 q18 20 17 42t-15 34q-47 43 -119 43q-43 0 -75.5 -16.5t-56.5 -42t-36 -59t-12 -68.5v-213zM339 204q1 -22 15 -34q23 -20 52.5 -32.5t66.5 -12.5q43 0 77 16.5t56.5 42t34.5 59t12 68.5v215q0 14 -12 17.5t-23 -6.5l-262 -291q-18 -20 -17 -42z" />
<glyph unicode="&#xf9;" d="M135 311v590q0 45 45 45h68q45 0 45 -45v-590q0 -35 12 -68.5t34.5 -59t56.5 -42t77 -16.5t77 16.5t56.5 42t34.5 59t12 68.5v590q0 45 45 45h68q45 0 45 -45v-856q0 -45 -45 -45h-53q-23 0 -33 18q-12 20 -29 9q-29 -16 -72.5 -31.5t-105.5 -15.5q-76 0 -138.5 26.5 t-106.5 72.5t-68.5 106.5t-24.5 125.5zM255.5 1327.5q11.5 24.5 39.5 24.5h82q63 0 96 -54l91 -147q14 -25 8 -43t-26.5 -24.5t-50.5 4t-62 40.5l-162 152q-27 23 -15.5 47.5z" />
<glyph unicode="&#xfa;" d="M135 311v590q0 45 45 45h68q45 0 45 -45v-590q0 -35 12 -68.5t34.5 -59t56.5 -42t77 -16.5t77 16.5t56.5 42t34.5 59t12 68.5v590q0 45 45 45h68q45 0 45 -45v-856q0 -45 -45 -45h-53q-23 0 -33 18q-12 20 -29 9q-29 -16 -72.5 -31.5t-105.5 -15.5q-76 0 -138.5 26.5 t-106.5 72.5t-68.5 106.5t-24.5 125.5zM367.5 1108q-7.5 18 9.5 43l90 147q33 53 96 54h82q29 0 40 -24.5t-16 -47.5l-161 -152q-33 -31 -63 -41t-50 -3.5t-27.5 24.5z" />
<glyph unicode="&#xfb;" d="M135 311v590q0 45 45 45h68q45 0 45 -45v-590q0 -35 12 -68.5t34.5 -59t56.5 -42t77 -16.5t77 16.5t56.5 42t34.5 59t12 68.5v590q0 45 45 45h68q45 0 45 -45v-856q0 -45 -45 -45h-53q-23 0 -33 18q-12 20 -29 9q-29 -16 -72.5 -31.5t-105.5 -15.5q-76 0 -138.5 26.5 t-106.5 72.5t-68.5 106.5t-24.5 125.5zM293 1126q0 76 52 128.5t128 52.5t128 -52.5t52 -128.5q0 -45 -45 -45h-16q-41 0 -45 45q-4 31 -23.5 53.5t-50.5 22.5t-50.5 -22.5t-23.5 -53.5q-4 -45 -45 -45h-16q-45 0 -45 45z" />
<glyph unicode="&#xfc;" d="M135 311v590q0 45 45 45h68q45 0 45 -45v-590q0 -35 12 -68.5t34.5 -59t56.5 -42t77 -16.5t77 16.5t56.5 42t34.5 59t12 68.5v590q0 45 45 45h68q45 0 45 -45v-856q0 -45 -45 -45h-53q-23 0 -33 18q-12 20 -29 9q-29 -16 -72.5 -31.5t-105.5 -15.5q-76 0 -138.5 26.5 t-106.5 72.5t-68.5 106.5t-24.5 125.5zM250 1126v45q0 45 45 46h65q45 0 46 -46v-45q0 -45 -46 -45h-65q-45 0 -45 45zM541 1126v45q0 45 45 46h65q45 0 45 -46v-45q0 -45 -45 -45h-65q-45 0 -45 45z" />
<glyph unicode="&#xfd;" d="M135 311v590q0 45 45 45h68q45 0 45 -45v-590q0 -35 12 -68.5t34.5 -59t56.5 -42t77 -16.5t77 16.5t56.5 42t34.5 59t12 68.5v590q0 45 45 45h68q45 0 45 -45v-995q0 -66 -24.5 -126.5t-68.5 -106.5t-106.5 -72.5t-138.5 -26.5q-94 0 -171 32t-116 60q-16 10 -20 27.5 t6 36.5l25 43q10 18 28.5 22t34.5 -6q41 -25 94.5 -47.5t118.5 -22.5q43 0 77 16.5t56.5 42t34.5 59.5t12 69v88q0 12 -9 18t-23 0q-78 -33 -148 -32q-76 0 -138.5 26.5t-106.5 72.5t-68.5 106.5t-24.5 125.5zM355.5 1108q-7.5 18 9.5 43l90 147q33 53 96 54h82 q29 0 40 -24.5t-16 -47.5l-161 -152q-33 -31 -63 -41t-50 -3.5t-27.5 24.5z" />
<glyph unicode="&#xfe;" d="M135 -360v1667q0 45 45 45h68q45 0 45 -45v-355q0 -12 9 -18t24 0q78 33 147 33q76 0 138.5 -27t106.5 -73t68.5 -106.5t24.5 -125.5v-324q0 -66 -24.5 -126t-68.5 -106t-106.5 -72.5t-138.5 -26.5q-70 0 -147 32q-14 6 -23.5 0t-9.5 -18v-354q0 -45 -45 -46h-68 q-45 0 -45 46zM293 311q0 -35 12 -68.5t34.5 -59t56.5 -42t77 -16.5t77 16.5t56.5 42t34.5 59t12 68.5v324q0 35 -12 68.5t-34.5 59t-56.5 42t-77 16.5t-77 -16.5t-56.5 -42t-34.5 -59t-12 -68.5v-324z" />
<glyph unicode="&#xff;" d="M135 311v590q0 45 45 45h68q45 0 45 -45v-590q0 -35 12 -68.5t34.5 -59t56.5 -42t77 -16.5t77 16.5t56.5 42t34.5 59t12 68.5v590q0 45 45 45h68q45 0 45 -45v-995q0 -66 -24.5 -126.5t-68.5 -106.5t-106.5 -72.5t-138.5 -26.5q-94 0 -171 32t-116 60q-16 10 -20 27.5 t6 36.5l25 43q10 18 28.5 22t34.5 -6q41 -25 94.5 -47.5t118.5 -22.5q43 0 77 16.5t56.5 42t34.5 59.5t12 69v88q0 12 -9 18t-23 0q-78 -33 -148 -32q-76 0 -138.5 26.5t-106.5 72.5t-68.5 106.5t-24.5 125.5zM250 1126v45q0 45 45 46h65q45 0 46 -46v-45q0 -45 -46 -45h-65 q-45 0 -45 45zM541 1126v45q0 45 45 46h65q45 0 45 -46v-45q0 -45 -45 -45h-65q-45 0 -45 45z" />
<glyph unicode="&#x152;" horiz-adv-x="1892" d="M135 311v324q0 66 24.5 126t68.5 106t106.5 73t138.5 27t138.5 -27t106.5 -73t68.5 -106.5t24.5 -125.5v-49q0 -45 45 -45h180q45 0 45 45v49q0 66 24.5 126t69 106t106.5 73t138 27t138.5 -27t106.5 -73t68.5 -106.5t24.5 -125.5q0 -45 -45 -45h-67q-45 0 -46 45 q0 35 -12 68.5t-34.5 59t-56.5 42t-77 16.5t-76.5 -16.5t-56 -42t-35 -59t-12.5 -68.5v-49q0 -45 45 -45h158q45 0 45 -45v-45q0 -45 -45 -45h-158q-45 0 -45 -46v-49q0 -35 12.5 -68.5t35 -59t56 -42t76.5 -16.5t77 16.5t56.5 42t34.5 59t12 68.5q0 45 46 45h67 q45 0 45 -45q0 -66 -24.5 -126t-68.5 -106t-106.5 -72.5t-138.5 -26.5t-138 26.5t-106.5 72.5t-69 106.5t-24.5 125.5v49q0 45 -45 46h-180q-45 0 -45 -46v-49q0 -66 -24.5 -126t-68.5 -106t-106.5 -72.5t-138.5 -26.5t-138.5 26.5t-106.5 72.5t-68.5 106.5t-24.5 125.5z M293 311q0 -35 12 -68.5t34.5 -59t56.5 -42t77 -16.5t77 16.5t56.5 42t34.5 59t12 68.5v324q0 35 -12 68.5t-34.5 59t-56.5 42t-77 16.5t-77 -16.5t-56.5 -42t-34.5 -59t-12 -68.5v-324z" />
<glyph unicode="&#x153;" horiz-adv-x="1892" d="M135 311v324q0 66 24.5 126t68.5 106t106.5 73t138.5 27t138.5 -27t106.5 -73t68.5 -106.5t24.5 -125.5v-49q0 -45 45 -45h180q45 0 45 45v49q0 66 24.5 126t69 106t106.5 73t138 27q72 0 133.5 -18.5t107.5 -55.5t71.5 -91t25.5 -126t-27.5 -123t-73.5 -84t-107.5 -48 t-129.5 -15h-135q-45 0 -45 -46v-49q0 -35 12.5 -68.5t35 -59t56 -42t76.5 -16.5t77 16.5t56.5 42t34.5 59t12 68.5q0 45 46 45h67q45 0 45 -45q0 -66 -24.5 -126t-68.5 -106t-106.5 -72.5t-138.5 -26.5t-138 26.5t-106.5 72.5t-69 106.5t-24.5 125.5v49q0 45 -45 46h-180 q-45 0 -45 -46v-49q0 -66 -24.5 -126t-68.5 -106t-106.5 -72.5t-138.5 -26.5t-138.5 26.5t-106.5 72.5t-68.5 106.5t-24.5 125.5zM293 311q0 -35 12 -68.5t34.5 -59t56.5 -42t77 -16.5t77 16.5t56.5 42t34.5 59t12 68.5v324q0 35 -12 68.5t-34.5 59t-56.5 42t-77 16.5 t-77 -16.5t-56.5 -42t-34.5 -59t-12 -68.5v-324zM1239 586q0 -45 45 -45h135q76 0 130.5 34.5t54.5 100.5t-49.5 105.5t-135.5 39.5q-43 0 -76.5 -16.5t-56 -42t-35 -59t-12.5 -68.5v-49z" />
<glyph unicode="&#x178;" d="M141.5 925.5q8.5 20.5 34.5 20.5h70q23 0 39 -13t26 -32l138 -237q12 -23 24 -23t25 23l137 237q10 18 26.5 31.5t38.5 13.5h72q25 0 33 -20.5t-2 -36.5l-225 -381q-27 -47 -27 -102v-361q0 -45 -45 -45h-66q-45 0 -45 45v361q0 55 -26 102l-226 381q-10 16 -1.5 36.5z M250 1126v45q0 45 45 46h65q45 0 46 -46v-45q0 -45 -46 -45h-65q-45 0 -45 45zM541 1126v45q0 45 45 46h65q45 0 45 -46v-45q0 -45 -45 -45h-65q-45 0 -45 45z" />
<glyph unicode="&#x2c6;" d="M293 1126q0 76 52 128.5t128 52.5t128 -52.5t52 -128.5q0 -45 -45 -45h-16q-41 0 -45 45q-4 31 -23.5 53.5t-50.5 22.5t-50.5 -22.5t-23.5 -53.5q-4 -45 -45 -45h-16q-45 0 -45 45z" />
<glyph unicode="&#x2dc;" d="M270 1116v39q0 23 9.5 38t23.5 24q23 14 51.5 21t51.5 7q39 0 66.5 -14t68.5 -14q16 0 36.5 8t40.5 20t39 3t19 -31v-54q0 -23 -8.5 -33t-24.5 -20q-20 -12 -47 -20.5t-55 -8.5q-20 0 -36 4.5t-31 10.5t-31.5 10t-36.5 4q-31 0 -82 -29q-18 -10 -36 -0.5t-18 35.5z" />
<glyph unicode="&#x2000;" horiz-adv-x="709" />
<glyph unicode="&#x2001;" horiz-adv-x="1419" />
<glyph unicode="&#x2002;" horiz-adv-x="709" />
<glyph unicode="&#x2003;" horiz-adv-x="1419" />
<glyph unicode="&#x2004;" horiz-adv-x="473" />
<glyph unicode="&#x2005;" horiz-adv-x="354" />
<glyph unicode="&#x2006;" horiz-adv-x="236" />
<glyph unicode="&#x2007;" horiz-adv-x="236" />
<glyph unicode="&#x2008;" horiz-adv-x="177" />
<glyph unicode="&#x2009;" horiz-adv-x="283" />
<glyph unicode="&#x200a;" horiz-adv-x="78" />
<glyph unicode="&#x2010;" d="M203 451v45q0 45 45 45h450q45 0 45 -45v-45q0 -45 -45 -45h-450q-45 0 -45 45z" />
<glyph unicode="&#x2011;" d="M203 451v45q0 45 45 45h450q45 0 45 -45v-45q0 -45 -45 -45h-450q-45 0 -45 45z" />
<glyph unicode="&#x2012;" d="M203 451v45q0 45 45 45h450q45 0 45 -45v-45q0 -45 -45 -45h-450q-45 0 -45 45z" />
<glyph unicode="&#x2013;" d="M135 451v45q0 45 45 45h586q45 0 45 -45v-45q0 -45 -45 -45h-586q-45 0 -45 45z" />
<glyph unicode="&#x2014;" horiz-adv-x="1892" d="M135 451v45q0 45 45 45h1532q45 0 45 -45v-45q0 -45 -45 -45h-1532q-45 0 -45 45z" />
<glyph unicode="&#x2018;" d="M309 991v51q0 68 25.5 127.5t65.5 103.5t91.5 70.5t104.5 28.5q45 4 45 -45v-49q0 -41 -45 -51q-14 -4 -36.5 -16.5t-43 -35t-36 -55.5t-15.5 -78v-51q0 -45 -45 -45h-66q-45 0 -45 45z" />
<glyph unicode="&#x2019;" d="M307 971v49q0 41 45 51q14 2 37 15.5t43.5 36t35.5 55t15 77.5v52q0 45 45 45h66q45 0 45 -45v-52q0 -68 -25.5 -127t-65.5 -103t-92.5 -70.5t-103.5 -28.5q-45 -4 -45 45z" />
<glyph unicode="&#x201a;" d="M219 -195q0 41 45 52q14 2 37 15t43.5 35.5t35.5 55.5t15 78v49q0 45 45 45h66q45 0 45 -45v-49q0 -68 -25.5 -127t-65.5 -103t-92.5 -71t-103.5 -29q-45 -4 -45 45v49z" />
<glyph unicode="&#x201c;" d="M135 991v51q0 68 25.5 127.5t65.5 103.5t91.5 70.5t104.5 28.5q45 4 45 -45v-49q0 -41 -45 -51q-14 -4 -37 -16.5t-43 -35t-35.5 -55.5t-15.5 -78v-51q0 -45 -45 -45h-66q-45 0 -45 45zM479 991v51q0 68 25.5 127.5t65.5 103.5t91.5 70.5t104.5 28.5q45 4 45 -45v-49 q0 -41 -45 -51q-14 -4 -36.5 -16.5t-43 -35t-36 -55.5t-15.5 -78v-51q0 -45 -45 -45h-66q-45 0 -45 45z" />
<glyph unicode="&#x201d;" d="M156 971v49q0 41 45 51q14 2 36.5 15.5t43 36t36 55t15.5 77.5v52q0 45 45 45h65q45 0 45 -45v-52q0 -68 -25.5 -127t-65.5 -103t-92 -70.5t-103 -28.5q-45 -4 -45 45zM500 971v49q0 41 45 51q14 2 36.5 15.5t43 36t36 55t15.5 77.5v52q0 45 45 45h65q45 0 45 -45v-52 q0 -68 -25.5 -127t-65.5 -103t-92 -70.5t-103 -28.5q-45 -4 -45 45z" />
<glyph unicode="&#x201e;" d="M135 -195q0 41 45 52q14 2 37 15t43.5 35.5t35.5 55.5t15 78v49q0 45 45 45h66q45 0 45 -45v-49q0 -68 -25.5 -127t-65.5 -103t-92.5 -71t-103.5 -29q-45 -4 -45 45v49zM479 -195q0 41 45 52q14 2 37 15t43.5 35.5t35.5 55.5t15 78v49q0 45 45 45h66q45 0 45 -45v-49 q0 -68 -25.5 -127t-65.5 -103t-92.5 -71t-103.5 -29q-45 -4 -45 45v49z" />
<glyph unicode="&#x2022;" d="M135 473q0 70 26.5 131.5t73 107.5t107.5 72.5t131 26.5t131.5 -26.5t107.5 -72.5t72.5 -107.5t26.5 -131.5t-26.5 -131t-72.5 -107.5t-107.5 -73t-131.5 -26.5t-131 26.5t-107.5 73t-73 107.5t-26.5 131z" />
<glyph unicode="&#x2026;" horiz-adv-x="1892" d="M135 45v45q0 45 45 45h66q45 0 45 -45v-45q0 -45 -45 -45h-66q-45 0 -45 45zM623 45v45q0 45 45 45h65q45 0 45 -45v-45q0 -45 -45 -45h-65q-45 0 -45 45zM1112 45v45q0 45 45 45h66q45 0 45 -45v-45q0 -45 -45 -45h-66q-45 0 -45 45zM1602 45v45q0 45 45 45h65 q45 0 45 -45v-45q0 -45 -45 -45h-65q-45 0 -45 45z" />
<glyph unicode="&#x202f;" horiz-adv-x="283" />
<glyph unicode="&#x2039;" d="M360 473q0 76 52.5 128t128.5 52q45 0 45 -45v-16q0 -41 -45 -45q-31 -4 -53.5 -23.5t-22.5 -50.5t22.5 -50.5t53.5 -23.5q45 -4 45 -45v-16q0 -45 -45 -45q-76 0 -128.5 52t-52.5 128z" />
<glyph unicode="&#x203a;" d="M360 338v16q0 41 46 45q31 4 53 23.5t22 50.5t-22.5 50.5t-52.5 23.5q-45 4 -46 45v16q0 45 46 45q76 0 128 -52t52 -128t-52.5 -128t-127.5 -52q-45 0 -46 45z" />
<glyph unicode="&#x205f;" horiz-adv-x="354" />
<glyph unicode="&#x2122;" d="M135 1288v19q0 45 45 45h246q59 0 100 -27q10 -8 16.5 -8t16.5 8q39 27 96 27q76 0 116 -43t40 -138v-315q0 -45 -45 -45h-27q-45 0 -45 45v342q0 20 -13 32.5t-34 12.5q-20 0 -33.5 -12t-13.5 -33v-137q0 -45 -45 -45h-29q-45 0 -45 45v137q0 20 -13 32.5t-34 12.5 q-20 0 -33.5 -12t-13.5 -33v-342q0 -45 -45 -45h-27q-45 0 -45 45v342q0 45 -45 45h-45q-45 0 -45 45z" />
<glyph unicode="&#xe000;" horiz-adv-x="942" d="M0 0v942h942v-942h-942z" />
</font>
</defs>
</svg>
