<?xml version="1.0" standalone="no"?> <!DOCTYPE svg PUBLIC "-//W3C//DTD SVG 1.0//EN" "http://www.w3.org/TR/2001/REC-SVG-20010904/DTD/svg10.dtd" > <svg xmlns="http://www.w3.org/2000/svg" width="100%" height="100%">
<defs >
<font id="TerminalDosis-Regular" horiz-adv-x="449" ><font-face
    font-family="Terminal Dosis"
    units-per-em="1000"
    panose-1="2 1 5 3 2 2 2 6 0 3"
    ascent="1027"
    descent="-237"
    alphabetic="0" />
<missing-glyph horiz-adv-x="340" d="M53 100Q53 108 57 115L137 236L57 358Q53 365 53 372Q53 384 61 391T82 399Q95 399 104 388L170 282L237 388Q245 399 258 399Q270 399 278 392T287 372Q287 365 283 358L203 236L282 115Q287 107 287 100Q287 89 279 82T258
74Q244 74 236 85L170 189L104 85Q95 74 82 74Q70 74 62 81T53 100Z" />
<glyph unicode=" " glyph-name="space" horiz-adv-x="200" />
<glyph unicode="!" glyph-name="exclam" horiz-adv-x="205" d="M57 40Q57 60 70 73T103 87Q122 87 135 74T148 40Q148 22 135 8T103 -6Q83 -6 70 7T57 40ZM64 705Q64 723 75 733T102 744T129 734T140 705Q140 623 135 447T129 188Q129 177 121 171T102 165Q76
165 76 188Q76 270 70 446T64 705Z" />
<glyph unicode="&quot;" glyph-name="quotedbl" horiz-adv-x="270" d="M38 746Q38 755 48 761T69 768Q81 768 91 762T102 746L92 599Q92 576 69 576Q48 576 48 599L38 746ZM168 746Q168 755 178 761T199 768Q211 768 221 762T232 746L222 599Q222 576 199 576Q178
576 178 599L168 746Z" />
<glyph unicode="#" glyph-name="numbersign" horiz-adv-x="583" d="M26 278Q26 289 31 296T46 304H156L180 464H84Q60 464 60 490Q60 515 80 515H190L219 698Q222 713 244 713Q276 713 276 684L249 515H376L405 698Q408 713 430 713Q462 713 462 684L435 515H533Q542
515 550 508T558 490Q558 480 552 472T537 464H427L401 304H499Q508 304 516 297T524 278Q524 268 518 261T503 253H392L361 54Q356 34 333 34Q320 34 311 41T302 63L331 253H206L175 55Q174 45 166 40T148 34Q135 34 126 41T117 63L145 253H50Q26 253 26 278ZM215
304H341L366 464H240L215 304Z" />
<glyph unicode="$" glyph-name="dollar" horiz-adv-x="499" d="M39 111Q39 123 48 135T69 148Q76 148 88 136L116 108Q131 93 164 80T239 66V357L212 367L187 376Q167 384 160 388L138 400Q121 408 115 415T96 433T79 455L68 480Q62 494 60 510T57 546Q57 632
109 672T239 718V749Q239 757 245 762T262 768Q270 768 277 762T285 749V720Q343 718 390 701T437 659Q437 647 429 635T408 622Q405 622 367 639T285 659V411Q323 397 348 384T400 348T441 288T455 202Q455 115 410 66T285 6V-33Q285 -40 278 -46T262 -52Q252
-52 246 -47T239 -33V3Q153 4 96 41T39 111ZM120 552Q120 499 150 473T241 426V658Q120 648 120 552ZM282 68Q391 85 391 196Q391 256 363 287T282 341V68Z" />
<glyph unicode="%" glyph-name="percent" horiz-adv-x="757" d="M40 465V617Q40 676 74 703T164 731T254 704T288 617V465Q288 406 254 379T164 351T74 378T40 465ZM91 465Q91 396 164 396Q238 396 238 465V617Q238 686 164 686Q91 686 91 617V465ZM166 -2Q166
4 169 10L550 757Q555 769 570 769Q580 769 589 761T598 742Q598 735 595 729L216 -12Q208 -27 192 -27Q182 -27 174 -20T166 -2ZM469 111V263Q469 321 503 349T593 377T683 349T717 263V111Q717 52 683 25T593 -3T503 24T469 111ZM520 111Q520 42 593 42Q667 42
667 111V263Q667 332 593 332Q520 332 520 263V111Z" />
<glyph unicode="&amp;" glyph-name="ampersand" horiz-adv-x="610" d="M34 203Q34 274 73 325T170 402Q131 447 110 487T89 578Q89 657 141 702T270 748Q343 748 388 714T433 652Q433 639 424 631T402 622Q394 622 384 633T363 657T328 682T273 693Q219 693 188
661T157 574Q157 541 172 508T203 455T250 401L453 179Q482 245 487 361Q488 376 494 382T517 388Q545 388 545 353Q545 232 495 134L587 35Q593 28 593 21Q593 10 584 2T563 -7Q553 -7 544 2L463 89Q390 -10 263 -10Q158 -10 96 52T34 203ZM101 209Q101 142 147
96T272 50Q372 50 422 131L207 360Q185 347 171 337T139 308T111 264T101 209Z" />
<glyph unicode="&apos;" glyph-name="quotesingle" horiz-adv-x="140" d="M38 746Q38 755 48 761T69 768Q81 768 91 762T102 746L92 599Q92 576 69 576Q48 576 48 599L38 746Z" />
<glyph unicode="(" glyph-name="parenleft" horiz-adv-x="299" d="M62 151V584Q62 660 116 714T248 768Q280 768 280 739Q280 726 273 717T256 708Q198 708 163 671T128 584V151Q128 108 149 82T196 48T256 40Q280 40 280 10T247 -20Q166 -20 114 25T62 151Z" />
<glyph unicode=")" glyph-name="parenright" horiz-adv-x="299" d="M19 -20T19 10T43 40Q76 40 102 48T150 82T171 151V584Q171 633 136 670T43 708Q33 708 26 716T19 739Q19 768 51 768Q128 768 182 714T237 584V151Q237 70 185 25T52 -20Q19 -20 19 10Z" />
<glyph unicode="*" glyph-name="asterisk" horiz-adv-x="431" d="M33 592Q33 603 41 612T61 621Q65 621 68 620L194 576L189 706Q190 731 216 731T243 706L238 575L364 620Q367 621 373 621Q383 621 390 612T398 591Q398 572 381 568L256 532L337 423Q341 418
341 409Q341 397 332 389T311 381Q298 381 292 391L216 503L140 390Q134 381 123 381Q113 381 102 388T91 408Q91 416 97 424L177 530L50 568Q33 572 33 592Z" />
<glyph unicode="+" glyph-name="plus" horiz-adv-x="431" d="M31 240Q31 253 38 261T55 270H187V400Q187 410 195 418T216 426T236 418T245 400V270H375Q385 270 393 261T401 240T393 220T375 212H245V80Q245 69 237 63T216 56Q204 56 196 63T187 80V212H55Q31
212 31 240Z" />
<glyph unicode="," glyph-name="comma" horiz-adv-x="171" d="M40 40Q40 60 53 73T85 87Q103 87 117 74T131 40Q131 24 93 -72Q87 -84 73 -84Q64 -84 57 -79T49 -65Q49 -59 50 -55L70 -3Q40 9 40 40Z" />
<glyph unicode="-" glyph-name="hyphen" horiz-adv-x="413" d="M52 240Q52 253 59 261T77 270H337Q347 270 354 262T362 240Q362 228 355 220T337 212H77Q52 212 52 240Z" />
<glyph unicode="." glyph-name="period" horiz-adv-x="171" d="M40 40Q40 60 53 73T86 87Q104 87 117 73T131 40Q131 22 118 8T86 -6Q66 -6 53 7T40 40Z" />
<glyph unicode="/" glyph-name="slash" horiz-adv-x="474" d="M20 -2Q20 4 23 10L404 757Q409 769 424 769Q434 769 443 761T453 742Q453 734 449 729L70 -12Q64 -27 46 -27Q36 -27 28 -20T20 -2Z" />
<glyph unicode="0" glyph-name="zero" horiz-adv-x="532" d="M58 208V518Q58 628 114 679T266 731T417 680T474 518V208Q474 97 418 46T266 -6T115 45T58 208ZM124 208Q124 55 266 55T408 208V518Q408 670 266 670T124 518V208ZM230 362Q230 378 240 388T267 398Q282
398 292 388T303 362Q303 347 293 336T267 325Q251 325 241 336T230 362Z" />
<glyph unicode="1" glyph-name="one" horiz-adv-x="233" d="M13 571Q13 588 28 601L110 717Q121 732 135 732Q146 732 155 725T164 707V26Q164 14 154 7T131 0Q117 0 108 7T98 26V619L58 554Q50 542 39 542T21 550T13 571Z" />
<glyph unicode="2" glyph-name="two" horiz-adv-x="475" d="M34 26V123Q34 169 69 212T154 291L252 362Q302 398 337 443T372 537Q372 589 337 629T237 669Q183 669 150 639T116 551Q116 540 107 532T81 524Q51 524 51 565Q51 637 105 684T239 731Q325 731 381
676T438 539Q438 489 413 443T351 365T270 300L189 242Q152 217 127 186T102 123V61H421Q431 61 438 52T445 31T438 10T421 0H65Q54 0 44 7T34 26Z" />
<glyph unicode="3" glyph-name="three" horiz-adv-x="487" d="M28 159Q28 179 35 186T59 194Q93 194 93 166Q93 125 126 90T234 55Q378 55 378 205V224Q378 291 341 324T236 357Q210 357 210 385Q210 414 235 414Q298 414 329 442T360 542Q360 608 331 639T239
671Q169 671 140 639T111 564Q111 532 79 532Q60 532 53 540T45 570Q45 594 54 619T83 670T144 714T241 731Q424 731 424 555Q424 490 402 447T342 386Q444 345 444 224V205Q444 96 387 45T235 -6Q136 -6 82 45T28 159Z" />
<glyph unicode="4" glyph-name="four" horiz-adv-x="444" d="M8 199Q8 209 12 216L263 711Q273 731 294 731Q305 731 315 723T326 704Q326 698 323 691L92 235H288V428Q288 453 321 453Q334 453 344 447T354 428V235H409Q421 235 427 226T434 204Q434 191 427
182T409 172H354V26Q354 14 344 7T321 0Q307 0 298 7T288 26V172H34Q8 172 8 199Z" />
<glyph unicode="5" glyph-name="five" horiz-adv-x="474" d="M28 164Q28 197 60 197Q94 197 94 169Q94 116 134 86T235 55Q303 55 340 92T377 206V225Q377 299 340 336T236 373H97Q63 373 63 398Q63 400 63 408T64 418L84 706Q87 731 105 731H385Q407 731 407
701Q407 670 385 670H143L127 430H236Q331 430 387 381T443 225V206Q443 97 387 46T236 -6Q140 -6 84 43T28 164Z" />
<glyph unicode="6" glyph-name="six" horiz-adv-x="517" d="M58 208V518Q58 628 115 679T268 731T419 681T474 560Q474 530 443 530Q408 530 408 557Q408 608 367 639T266 670Q124 670 124 518V365Q173 431 275 431Q474 431 474 232V208Q474 97 418 46T266 -6T115
45T58 208ZM124 205Q124 53 266 53T408 205V229Q408 374 266 374T124 238V205Z" />
<glyph unicode="7" glyph-name="seven" horiz-adv-x="459" d="M27 555V706Q27 715 36 723T57 731H412Q423 731 433 723T443 706V620Q443 606 433 591L136 11Q130 -2 114 -2T86 7T74 30Q74 34 78 44L377 616V670H93V555Q93 545 83 538T60 530Q46 530 37 537T27 555Z" />
<glyph unicode="8" glyph-name="eight" horiz-adv-x="502" d="M43 200V212Q43 355 152 399Q63 436 63 556Q63 731 251 731T439 556Q439 436 351 399Q459 356 459 212V200Q459 94 402 44T251 -6T100 44T43 200ZM109 205Q109 129 146 91T252 52T356 90T393 205V219Q393
368 251 368T109 219V205ZM128 551Q128 427 251 427Q375 427 375 551Q375 673 251 673Q128 673 128 551Z" />
<glyph unicode="9" glyph-name="nine" horiz-adv-x="517" d="M43 165Q43 196 74 196Q108 196 108 168Q108 117 149 86T250 55Q393 55 393 208V361Q345 294 242 294Q43 294 43 494V518Q43 628 99 679T250 731Q345 731 402 680T459 518V208Q459 97 402 46T249 -6Q153
-6 98 44T43 165ZM109 496Q109 420 145 386T251 351Q393 351 393 487V520Q393 597 356 635T250 673Q109 673 109 520V496Z" />
<glyph unicode=":" glyph-name="colon" horiz-adv-x="203" d="M56 40Q56 60 69 73T102 87Q120 87 133 73T147 40Q147 22 134 8T102 -6Q82 -6 69 7T56 40ZM56 376Q56 396 69 409T102 423Q120 423 133 409T147 376Q147 358 134 344T102 330Q82 330 69 343T56 376Z" />
<glyph unicode=";" glyph-name="semicolon" horiz-adv-x="209" d="M58 40Q58 60 71 73T103 87Q121 87 135 74T149 40Q149 24 111 -72Q105 -84 91 -84Q82 -84 75 -79T67 -65Q67 -59 68 -55L88 -3Q58 9 58 40ZM61 376Q61 396 74 409T107 423Q125 423 138 409T152
376Q152 358 139 344T107 330Q87 330 74 343T61 376Z" />
<glyph unicode="&lt;" glyph-name="less" horiz-adv-x="400" d="M25 260T25 277T41 305L310 483Q315 487 322 487Q333 487 343 478T353 456Q353 442 342 435L104 277L342 120Q353 113 353 99Q353 87 343 78T322 68Q315 68 310 72L41 250Q25 260 25 277Z" />
<glyph unicode="=" glyph-name="equal" horiz-adv-x="434" d="M66 166Q66 178 73 186T90 195H343Q353 195 360 187T368 166T361 146T343 137H90Q79 137 73 145T66 166ZM66 369Q66 381 73 389T90 398H343Q353 398 360 390T368 369T361 349T343 340H90Q79 340 73
348T66 369Z" />
<glyph unicode="&gt;" glyph-name="greater" horiz-adv-x="399" d="M47 99Q47 113 58 120L296 277L58 435Q47 442 47 456Q47 468 57 477T78 487Q85 487 90 483L359 305Q375 294 375 277T359 250L90 72Q85 68 78 68Q67 68 57 77T47 99Z" />
<glyph unicode="?" glyph-name="question" horiz-adv-x="398" d="M23 667Q23 693 68 718T176 744Q266 744 315 694T365 566Q365 523 349 484T314 423T267 376T232 340Q209 315 203 284T197 188Q197 165 170 165T143 194Q143 271 154 307T186 368Q194 376 221 401T264
444T293 493T308 561Q308 621 273 655T173 689Q134 689 109 677T70 652T48 640T31 647T23 667ZM124 40Q124 59 137 73T170 87T202 73T216 40Q216 22 203 8T170 -6T138 8T124 40Z" />
<glyph unicode="@" glyph-name="at" horiz-adv-x="716" d="M53 217Q53 368 131 463T367 558Q515 558 595 475T675 236Q675 179 665 136T626 62T554 32Q517 32 490 51T457 97Q428 68 402 55T334 41Q278 41 244 67T209 150Q209 214 258 238T405 263H448V282Q448
326 425 346T350 367Q312 367 285 355T255 342Q246 342 240 351T234 370Q234 390 274 404T360 419Q426 419 464 386T502 291V125Q505 103 521 89T558 75Q625 75 625 229Q625 364 560 436T365 509Q293 509 241 486T159 420T116 328T102 218Q102 162 114 115T152
29T225 -33T335 -56Q387 -56 431 -41T476 -25Q485 -25 491 -32T497 -47Q497 -68 442 -85T328 -103Q212 -103 133 -22T53 217ZM265 150Q265 117 286 101T341 85Q388 85 419 111T450 167V222H409Q337 222 301 208T265 150Z" />
<glyph unicode="A" glyph-name="A" horiz-adv-x="540" d="M21 28Q21 33 22 35L231 714Q238 737 270 737T310 714L518 35Q518 34 518 32T519 29Q519 17 506 9T479 0Q460 0 454 17L408 171H131L85 17Q81 0 59 0Q45 0 33 8T21 28ZM148 228H391L270 631L148 228Z" />
<glyph unicode="B" glyph-name="B" horiz-adv-x="538" d="M76 25V706Q76 718 85 724T106 731H270Q316 731 350 724T413 699T458 647T474 561Q474 499 451 456T389 396Q439 376 465 336T492 224V206Q492 98 438 49T294 0H106Q92 0 84 7T76 25ZM141 61H286Q426 61
426 209V226Q426 368 286 368H141V61ZM141 425H272Q343 425 375 454T408 554Q408 619 372 644T268 670H141V425Z" />
<glyph unicode="C" glyph-name="C" horiz-adv-x="523" d="M68 208V518Q68 627 126 679T278 731Q373 731 428 683T484 564Q484 540 477 532T451 524Q420 524 418 549Q417 564 414 578T402 609T379 640T338 661T278 670Q134 670 134 518V208Q134 55 282 55Q324 55
352 66T393 100T410 137T418 178Q421 204 451 204Q469 204 476 196T484 163Q484 92 428 43T275 -6Q183 -6 126 46T68 208Z" />
<glyph unicode="D" glyph-name="D" horiz-adv-x="560" d="M76 25V707Q76 717 84 724T106 731H283Q378 731 435 680T492 518V214Q492 103 435 52T283 0H106Q93 0 85 7T76 25ZM142 61H283Q351 61 388 99T426 214V518Q426 594 389 632T283 670H142V61Z" />
<glyph unicode="E" glyph-name="E" horiz-adv-x="508" d="M76 26V706Q76 718 85 724T106 731H462Q487 731 487 702Q487 689 481 680T462 670H142V395H299Q311 395 317 387T324 365Q324 338 299 338H142V61H462Q473 61 480 52T487 30Q487 0 462 0H106Q94 0 85 7T76 26Z" />
<glyph unicode="F" glyph-name="F" horiz-adv-x="494" d="M76 25V706Q76 718 85 724T106 731H460Q472 731 478 723T485 702Q485 689 479 680T460 670H142V395H300Q311 395 317 387T324 365Q324 338 300 338H142V25Q142 13 132 7T109 0Q76 0 76 25Z" />
<glyph unicode="G" glyph-name="G" horiz-adv-x="541" d="M68 208V518Q68 628 124 679T275 731Q370 731 427 683T484 558Q484 524 451 524Q419 524 418 549Q404 670 276 670Q134 670 134 518V208Q134 131 171 93T276 55T381 93T418 208V327H284Q273 327 267 335T260
356Q260 367 266 375T284 384H460Q484 384 484 358V208Q484 97 428 46T276 -6T125 45T68 208Z" />
<glyph unicode="H" glyph-name="H" horiz-adv-x="573" d="M76 26V707Q76 731 109 731T142 707V408H431V707Q431 731 464 731T497 707V26Q497 14 487 7T464 0Q450 0 441 7T431 26V351H142V26Q142 14 132 7T109 0Q95 0 86 7T76 26Z" />
<glyph unicode="I" glyph-name="I" horiz-adv-x="218" d="M76 26V707Q76 731 109 731T142 707V26Q142 14 132 7T109 0Q95 0 86 7T76 26Z" />
<glyph unicode="J" glyph-name="J" horiz-adv-x="512" d="M23 170Q23 204 55 204Q89 204 89 178Q89 121 127 88T231 55Q299 55 336 93T373 208V670H232Q220 670 214 679T207 702Q207 714 213 722T232 731H408Q439 731 439 706V208Q439 97 383 46T233 -6Q138 -6
81 43T23 170Z" />
<glyph unicode="K" glyph-name="K" horiz-adv-x="522" d="M76 26V707Q76 731 109 731T142 707V353L431 721Q438 731 452 731Q464 731 476 720T488 697Q488 688 483 682L268 415L514 45Q518 37 518 32Q518 19 506 9T480 -2T455 13L224 360L142 256V26Q142 14 132
7T109 0Q95 0 86 7T76 26Z" />
<glyph unicode="L" glyph-name="L" horiz-adv-x="463" d="M76 26V707Q76 731 109 731T142 707V61H427Q449 61 449 31Q449 0 427 0H106Q94 0 85 7T76 26Z" />
<glyph unicode="M" glyph-name="M" horiz-adv-x="668" d="M76 26V699Q76 731 109 731Q138 731 162 685L334 353L506 685Q530 731 559 731Q592 731 592 699V26Q592 14 583 7T559 0Q546 0 536 7T526 26V588L360 274Q349 253 333 253Q318 253 307 274L142 591V26Q142
14 132 7T109 0Q95 0 86 7T76 26Z" />
<glyph unicode="N" glyph-name="N" horiz-adv-x="573" d="M76 26V706Q76 731 109 731Q137 731 161 685L431 153V707Q431 731 464 731T497 707V26Q497 14 487 7T464 0Q439 0 420 38L142 579V26Q142 14 132 7T109 0Q95 0 86 7T76 26Z" />
<glyph unicode="O" glyph-name="O" horiz-adv-x="552" d="M68 208V518Q68 628 124 679T276 731T427 680T484 518V208Q484 97 428 46T276 -6T125 45T68 208ZM134 208Q134 55 276 55T418 208V518Q418 670 276 670T134 518V208Z" />
<glyph unicode="P" glyph-name="P" horiz-adv-x="527" d="M76 26V707Q76 729 104 731H288Q382 731 438 680T494 519V509Q494 399 438 348T286 296H142V26Q142 14 132 7T109 0Q95 0 86 7T76 26ZM142 353H286Q354 353 391 391T428 506V518Q428 670 286 670H142V353Z" />
<glyph unicode="Q" glyph-name="Q" horiz-adv-x="552" d="M68 208V518Q68 628 124 679T276 731T427 680T484 518V208Q484 105 435 53T302 -5V-84Q302 -96 295 -102T277 -109Q266 -109 259 -103T251 -84V-5Q166 1 117 52T68 208ZM134 208Q134 71 251 58V132Q251
156 277 156Q302 156 302 132V58Q418 72 418 208V518Q418 670 276 670T134 518V208Z" />
<glyph unicode="R" glyph-name="R" horiz-adv-x="529" d="M76 26V707Q76 729 101 731H278Q375 731 434 685T494 534Q494 368 338 341L492 45Q496 40 496 32Q496 19 484 9T458 -2Q440 -2 423 33L269 333H142V26Q142 14 132 7T109 0Q95 0 86 7T76 26ZM142 390H278Q428
390 428 531Q428 670 278 670H142V390Z" />
<glyph unicode="S" glyph-name="S" horiz-adv-x="494" d="M36 101Q36 113 45 125T66 138Q74 138 86 125L114 96Q129 80 161 68T237 55Q308 55 347 90T386 193Q386 238 368 269T320 318Q292 336 256 350L184 378Q148 392 120 411T73 466T54 551Q54 603 73 640T126
697T193 724T266 733Q327 733 380 716T434 672Q434 660 426 648T405 635Q399 635 382 644T335 663T265 673Q202 673 161 646T120 557Q120 514 144 485T206 443T286 412T366 374T427 309T452 199Q452 96 395 45T241 -7Q154 -7 95 30T36 101Z" />
<glyph unicode="T" glyph-name="T" horiz-adv-x="481" d="M15 700Q15 712 21 721T40 731H441Q453 731 459 722T466 701Q466 688 460 679T441 669H274V26Q274 14 264 7T241 0Q227 0 218 7T208 26V669H40Q29 669 22 678T15 700Z" />
<glyph unicode="U" glyph-name="U" horiz-adv-x="566" d="M73 208V707Q73 731 106 731T139 707V208Q139 132 176 94T283 55T389 93T427 208V707Q427 731 460 731T493 707V208Q493 97 436 46T283 -6T131 45T73 208Z" />
<glyph unicode="V" glyph-name="V" horiz-adv-x="538" d="M20 703Q20 715 32 723T58 731Q80 731 84 714L269 100L453 714Q459 731 478 731Q492 731 505 723T518 702Q518 701 518 699T517 696L309 18Q302 -6 269 -6Q237 -6 230 18L21 696Q20 698 20 703Z" />
<glyph unicode="W" glyph-name="W" horiz-adv-x="787" d="M22 704Q22 715 34 723T60 731Q81 731 86 714L259 100L359 473Q364 496 394 496Q421 496 428 473L528 100L701 714Q706 731 727 731Q741 731 753 723T765 704Q765 699 764 696L568 18Q560 -6 528 -6Q495
-6 489 18L394 371L299 18Q293 -6 260 -6T220 18L23 696Q22 699 22 704Z" />
<glyph unicode="X" glyph-name="X" horiz-adv-x="484" d="M24 31Q24 39 28 47L200 366L31 683Q25 694 25 704Q25 716 36 724T64 733T98 699L242 424L386 699Q404 733 420 733T447 725T459 704Q459 694 453 683L283 366L456 47Q460 39 460 31Q460 18 448 8T421
-2Q406 -2 390 30L242 310L94 30Q78 -2 63 -2Q49 -2 37 8T24 31Z" />
<glyph unicode="Y" glyph-name="Y" horiz-adv-x="531" d="M19 703Q19 715 30 723T55 731Q71 731 81 711L265 346L450 711Q460 731 476 731Q489 731 500 723T512 703Q512 694 508 685L300 288Q298 282 298 280V26Q298 14 289 7T265 0Q252 0 242 7T232 26V280Q232
285 231 288L24 685Q19 694 19 703Z" />
<glyph unicode="Z" glyph-name="Z" horiz-adv-x="484" d="M24 23Q24 34 30 46L363 670H61Q50 670 43 679T36 701Q36 713 42 722T61 731H424Q449 731 449 710Q449 698 441 684L109 61H436Q448 61 454 52T461 31T455 10T436 0H48Q24 0 24 23Z" />
<glyph unicode="[" glyph-name="bracketleft" horiz-adv-x="303" d="M68 4V743Q68 754 77 761T98 768H259Q270 768 277 759T284 739Q284 726 277 717T259 708H134V39H259Q270 39 277 30T284 9T277 -12T259 -21H98Q86 -21 77 -14T68 4Z" />
<glyph unicode="\" glyph-name="backslash" horiz-adv-x="346" d="M23 727Q23 739 31 746T51 754Q67 754 73 740L322 33Q323 30 323 25Q323 15 315 8T296 0Q278 0 272 17L24 718Q23 721 23 727Z" />
<glyph unicode="]" glyph-name="bracketright" horiz-adv-x="303" d="M19 -3T19 9T26 30T43 39H169V708H43Q33 708 26 717T19 739Q19 750 25 759T43 768H204Q216 768 225 761T235 743V4Q235 -7 226 -14T204 -21H43Q32 -21 26 -12Z" />
<glyph unicode="^" glyph-name="asciicircum" horiz-adv-x="268" d="M0 618Q0 633 13 640L117 696Q125 701 134 701T151 696L255 640Q268 634 268 617Q268 607 262 600T248 593Q247 593 238 596L134 651L30 595L21 592Q13 592 7 600T0 618Z" />
<glyph unicode="_" glyph-name="underscore" horiz-adv-x="336" d="M-17 -30Q-17 -17 -10 -9T8 0H328Q338 0 345 -8T353 -30Q353 -42 346 -50T328 -58H8Q-17 -58 -17 -30Z" />
<glyph unicode="`" glyph-name="grave" horiz-adv-x="155" d="M0 673Q0 683 7 692T24 701Q28 701 33 698L144 637Q155 632 155 619Q155 608 147 600T129 591Q124 591 119 594L13 651Q0 657 0 673Z" />
<glyph unicode="a" glyph-name="a" horiz-adv-x="438" d="M30 125Q30 202 89 232T263 262H314V286Q314 341 285 381T196 422Q156 422 124 408T89 393Q77 393 70 404T63 428Q63 447 106 463T198 479Q292 479 335 425T379 286V26Q379 15 370 8T347 0Q334 0 326 7T317
26V70Q250 -7 166 -7Q106 -7 68 26T30 125ZM95 131Q95 89 119 69T182 48Q229 48 271 83T314 153V217H272Q232 217 205 214T150 203T109 177T95 131Z" />
<glyph unicode="b" glyph-name="b" horiz-adv-x="484" d="M63 26V739Q63 749 72 756T95 763T118 756T128 739V403Q146 436 180 457T261 479Q335 479 387 424T440 292V183Q440 108 387 51T263 -7Q218 -7 180 15T126 70V26Q126 16 117 8T95 0T73 8T63 26ZM128 152Q128
125 165 89T251 53Q301 53 338 93T375 183V292Q375 341 338 380T250 419Q202 419 165 384T128 292V152Z" />
<glyph unicode="c" glyph-name="c" horiz-adv-x="411" d="M46 183V290Q46 374 95 426T239 479Q299 479 339 458T380 414Q380 403 371 393T351 382Q345 382 333 391T297 409T242 419Q178 419 145 385T111 290V183Q111 121 144 87T243 53Q277 53 300 62T336 81T356
91Q369 91 377 81T386 59Q386 36 344 15T240 -7Q144 -7 95 45T46 183Z" />
<glyph unicode="d" glyph-name="d" horiz-adv-x="484" d="M45 183V292Q45 369 97 424T224 479Q270 479 304 457T356 403V739Q356 749 366 756T390 763T412 756T421 739V26Q421 16 412 8T390 0Q378 0 369 8T359 26V70Q342 38 305 16T222 -7Q151 -7 98 50T45 183ZM110
183Q110 133 147 93T234 53Q282 53 319 89T356 152V292Q356 349 320 384T235 419Q184 419 147 380T110 292V183Z" />
<glyph unicode="e" glyph-name="e" horiz-adv-x="458" d="M45 183V295Q45 370 101 424T236 479Q312 479 367 427T423 297Q423 269 417 252T396 228T369 219T336 217H110V180Q110 121 152 86T262 50Q296 50 321 60T360 80T382 90Q393 90 401 80T410 59Q410 38 367
16T260 -7Q165 -7 105 45T45 183ZM110 265H310Q340 265 350 271T360 299Q360 349 325 387T235 425Q183 425 147 389T110 303V265Z" />
<glyph unicode="f" glyph-name="f" horiz-adv-x="305" d="M63 25V579Q63 654 116 708T241 763H266Q278 763 286 754T294 733T286 713T266 704H249Q198 704 164 669T128 584V473H271Q281 473 287 465T294 447Q294 435 288 427T271 419H128V25Q128 14 118 7T94 0Q81
0 72 7T63 25Z" />
<glyph unicode="g" glyph-name="g" horiz-adv-x="452" d="M25 -99Q25 -24 110 10Q55 29 55 79Q55 124 105 151Q50 197 50 277V315Q50 388 97 433T222 479Q292 479 339 437Q354 466 373 483T410 500Q424 500 432 492T440 474Q440 456 423 452Q388 445 367 409Q395
372 395 315V277Q395 205 346 158T221 111Q180 111 144 128Q113 111 113 89Q113 68 136 57T193 43T268 34T343 17T401 -20T424 -90Q424 -158 370 -195T228 -232Q138 -232 82 -196T25 -99ZM88 -93Q88 -134 125 -159T227 -184Q290 -184 325 -159T361 -92Q361 -72
351 -57T328 -34T292 -20T254 -12T212 -8L177 -4Q88 -32 88 -93ZM113 278Q113 226 142 193T223 160Q272 160 301 193T331 277V315Q331 365 302 397T222 430T143 398T113 315V278Z" />
<glyph unicode="h" glyph-name="h" horiz-adv-x="496" d="M63 26V739Q63 749 72 756T95 763T118 756T128 739V403Q145 435 179 457T260 479Q332 479 384 424T437 292V26Q437 14 428 7T404 0Q392 0 382 7T372 26V292Q372 341 335 380T248 419Q201 419 165 384T128
292V26Q128 16 118 8T95 0T73 8T63 26Z" />
<glyph unicode="i" glyph-name="i" horiz-adv-x="191" d="M50 638T50 655T63 684T95 696Q113 696 125 684T138 655T126 626T95 613Q76 613 63 625ZM63 26V449Q63 459 72 466T95 473T118 466T128 449V26Q128 16 118 8T95 0T73 8T63 26Z" />
<glyph unicode="j" glyph-name="j" horiz-adv-x="191" d="M-37 -203Q-37 -190 -29 -182T-9 -173Q35 -173 49 -141T63 -43V449Q63 460 72 466T95 473T118 466T128 449V-43Q128 -232 -4 -232Q-21 -232 -29 -224T-37 -203ZM50 638T50 655T63 684T95 696Q113 696 125
684T138 655T126 626T95 613Q76 613 63 625Z" />
<glyph unicode="k" glyph-name="k" horiz-adv-x="456" d="M63 26V739Q63 749 72 756T95 763T118 756T128 739V252L372 469Q382 475 387 475Q399 475 409 466T420 444T413 426L266 297L439 44Q443 36 443 30Q443 19 432 8T408 -3Q396 -3 388 9L220 256L128 175V26Q128
16 119 8T95 0Q82 0 73 8T63 26Z" />
<glyph unicode="l" glyph-name="l" horiz-adv-x="207" d="M71 26V739Q71 749 80 756T103 763T126 756T136 739V26Q136 16 127 8T103 0Q90 0 81 8T71 26Z" />
<glyph unicode="m" glyph-name="m" horiz-adv-x="780" d="M63 26V449Q63 459 72 466T95 473Q108 473 117 466T126 449V403Q144 436 178 457T259 479Q307 479 345 452T401 379Q426 428 467 453T553 479Q621 479 671 428T721 292V26Q721 16 712 8T688 0Q675 0 666
8T656 26V292Q656 351 622 385T542 419Q496 419 461 385T425 296V25Q425 0 392 0Q360 0 360 25V295Q360 348 327 383T246 419T164 385T128 292V26Q128 16 118 8T95 0T73 8T63 26Z" />
<glyph unicode="n" glyph-name="n" horiz-adv-x="496" d="M63 26V449Q63 460 72 466T95 473Q107 473 116 466T125 449V403Q142 435 177 457T259 479Q331 479 384 424T437 292V26Q437 14 427 7T404 0Q392 0 382 7T372 26V292Q372 341 335 380T247 419Q200 419 164
384T128 292V26Q128 16 118 8T95 0Q81 0 72 8T63 26Z" />
<glyph unicode="o" glyph-name="o" horiz-adv-x="468" d="M44 183V292Q44 368 100 423T233 479T367 424T424 292V183Q424 108 367 51T233 -7Q158 -7 101 50T44 183ZM109 183Q109 132 145 93T233 53Q285 53 322 92T359 183V292Q359 341 322 380T233 419T146 380T109
292V183Z" />
<glyph unicode="p" glyph-name="p" horiz-adv-x="484" d="M63 -207V449Q63 459 72 466T95 473Q108 473 117 466T126 449V403Q144 435 179 457T260 479Q334 479 387 424T440 292V183Q440 108 387 51T263 -7Q219 -7 182 15T128 70V-207Q128 -216 119 -224T95 -232Q82
-232 73 -224T63 -207ZM128 152Q128 125 165 89T251 53Q300 53 337 93T375 183V292Q375 341 338 380T249 419Q201 419 165 384T128 292V152Z" />
<glyph unicode="q" glyph-name="q" horiz-adv-x="484" d="M45 183V292Q45 369 98 424T225 479Q271 479 306 457T359 403V449Q359 459 367 466T390 473T412 466T421 449V-207Q421 -216 412 -224T390 -232Q376 -232 366 -224T356 -207V70Q340 38 303 16T222 -7Q151
-7 98 50T45 183ZM110 183Q110 133 147 93T234 53Q282 53 319 89T356 152V292Q356 349 320 384T235 419Q184 419 147 380T110 292V183Z" />
<glyph unicode="r" glyph-name="r" horiz-adv-x="331" d="M63 26V449Q63 459 72 466T95 473Q108 473 117 466T126 449V400Q144 433 179 456T260 479H295Q305 479 313 470T321 449T313 428T295 419H260Q208 419 168 379T128 273V26Q128 16 119 8T95 0Q82 0 73 8T63 26Z" />
<glyph unicode="s" glyph-name="s" horiz-adv-x="385" d="M33 65Q33 75 40 85T56 95Q63 95 78 84T121 60T188 48Q241 48 266 68T291 119Q291 155 266 176T204 208T132 230T70 269T44 343Q44 398 83 438T202 479Q251 479 293 464T336 430Q336 420 328 408T309 396Q306
396 272 410T203 424Q153 424 128 400T103 346Q103 315 128 297T190 270T263 248T325 204T351 122Q351 62 309 28T190 -7Q124 -7 79 16T33 65Z" />
<glyph unicode="t" glyph-name="t" horiz-adv-x="297" d="M61 147V674Q61 684 71 691T93 698Q106 698 116 691T126 674V473H255Q265 473 271 465T278 446T272 427T255 419H126V147Q126 98 146 79T219 59H247Q260 59 268 51T277 30T269 9T247 0H219Q61 0 61 147Z" />
<glyph unicode="u" glyph-name="u" horiz-adv-x="496" d="M58 181V448Q58 457 67 465T91 473Q103 473 113 465T123 448V181Q123 131 160 92T248 53T336 92T373 181V449Q373 459 383 466T406 473T428 466T438 449V181Q438 106 382 50T248 -7Q170 -7 114 49T58 181Z" />
<glyph unicode="v" glyph-name="v" horiz-adv-x="420" d="M15 445Q15 457 27 466T54 475Q72 475 78 460L210 100L342 456Q350 475 365 475Q377 475 391 466T405 446Q405 438 401 430L240 8Q234 -8 210 -8T180 8L19 430Q15 436 15 445Z" />
<glyph unicode="w" glyph-name="w" horiz-adv-x="667" d="M15 446Q15 458 27 466T54 475Q72 475 77 460L205 104L308 429Q313 446 334 446T360 429L459 100L590 460Q593 475 612 475Q626 475 638 467T651 446Q651 437 647 431L491 8Q486 -8 465 -8Q446 -8 438
7L334 332L231 12Q225 -8 202 -8Q181 -8 175 12L19 431Q15 439 15 446Z" />
<glyph unicode="x" glyph-name="x" horiz-adv-x="410" d="M25 25Q25 31 29 39L162 239L32 433Q27 443 27 446Q27 458 40 468T67 479Q81 479 87 469L205 286L324 469Q330 479 343 479T369 469T383 446Q383 441 378 433L247 239L381 39Q385 33 385 25Q385 14 373
4T346 -7Q333 -7 327 3L205 190L84 3Q77 -7 63 -7Q51 -7 38 3T25 25Z" />
<glyph unicode="y" glyph-name="y" horiz-adv-x="420" d="M14 448Q14 460 27 469T54 479Q73 479 77 465L214 97L343 465Q349 479 365 479Q378 479 391 470T405 447Q405 441 403 439L248 19L230 -30Q225 -43 211 -77T186 -126L160 -166Q143 -191 128 -202T90 -222T45
-232Q15 -232 15 -203Q15 -173 35 -173Q81 -173 120 -118T180 20L17 439Q14 444 14 448Z" />
<glyph unicode="z" glyph-name="z" horiz-adv-x="401" d="M24 26Q24 37 34 51L279 416H58Q48 416 41 424T34 444Q34 456 41 464T58 473H341Q351 473 358 466T366 447Q366 434 358 423L112 58H354Q364 58 371 50T378 28Q378 17 371 9T354 0H51Q39 0 32 8T24 26Z" />
<glyph unicode="{" glyph-name="braceleft" horiz-adv-x="310" d="M30 371T30 385T39 405T60 412T80 418T90 434Q90 442 81 514T71 604Q71 669 126 718T257 768Q274 768 282 759T291 738Q291 727 284 718T267 709Q215 709 176 676T137 596Q137 580 146 509T156
429Q156 413 144 400T120 384Q132 382 144 370T156 340Q156 330 147 242T137 136Q137 86 180 63T267 39Q291 39 291 10Q291 -20 256 -20Q179 -20 125 23T71 133Q71 151 80 239T90 336Q90 347 81 352T60 357T40 364Z" />
<glyph unicode="|" glyph-name="bar" horiz-adv-x="202" d="M68 4V744Q68 754 77 761T101 768Q114 768 124 761T134 744V4Q134 -6 124 -13T101 -21Q87 -21 78 -14T68 4Z" />
<glyph unicode="}" glyph-name="braceright" horiz-adv-x="310" d="M19 10Q19 39 43 39Q87 39 130 62T173 136Q173 154 164 242T154 340Q154 357 166 369T190 384Q179 387 167 400T154 429Q154 438 163 509T173 596Q173 642 134 675T43 709Q33 709 26 718T19 738Q19
750 27 759T53 768Q128 768 183 719T239 604Q239 587 230 515T220 434Q220 423 229 418T250 413T270 406T280 385T271 364T250 357T230 352T220 336Q220 328 229 240T239 133Q239 66 185 23T54 -20Q19 -20 19 10Z" />
<glyph unicode="~" glyph-name="asciitilde" horiz-adv-x="401" d="M46 218T46 243T75 284T134 300Q160 300 200 283T266 266T311 280T336 295Q345 295 350 288T356 272Q356 244 328 230T272 215Q245 215 206 232T139 250Q114 250 92 234T65 218Q46 218 46 243Z" />
</font>
</defs>
</svg>
